osu file format v14

[General]
AudioFilename: Overtime.mp3
AudioLeadIn: 0
PreviewTime: 24454
Countdown: 0
SampleSet: Soft
StackLeniency: 0.7
Mode: 0
LetterboxInBreaks: 0
EpilepsyWarning: 1
WidescreenStoryboard: 1

[Editor]
Bookmarks: 50770
DistanceSpacing: 1
BeatDivisor: 4
GridSize: 32
TimelineZoom: 1

[Metadata]
Title:Overtime
TitleUnicode:Overtime
Artist:Cash Cash
ArtistUnicode:Cash Cash
Creator:W h i t e
Version:Beginner
Source:
Tags:electronic W_h_i_t_e Gloria Guard Down
BeatmapID:1018878
BeatmapSetID:472143

[Difficulty]
HPDrainRate:2
CircleSize:3
OverallDifficulty:2
ApproachRate:2
SliderMultiplier:0.9
SliderTickRate:1

[Events]
//Background and Video events
0,0,"bg.jpg",0,0
//Break Periods
2,42549,49090
//Storyboard Layer 0 (Background)
//Storyboard Layer 1 (Fail)
//Storyboard Layer 2 (Pass)
//Storyboard Layer 3 (Foreground)
//Storyboard Sound Samples

[TimingPoints]
244,526.315789473684,4,2,1,30,1,0
244,-125,4,2,1,30,0,0
2875,-125,4,2,1,35,0,0
3401,-125,4,2,1,40,0,0
4454,-125,4,2,1,40,0,0
7612,-125,4,2,1,50,0,0
8662,-100,4,2,4,70,0,0
8730,-100,4,2,1,70,0,0
9191,-100,4,2,6,70,0,0
9322,-100,4,2,1,70,0,0
9717,-100,4,2,7,70,0,0
9849,-100,4,2,1,70,0,0
10243,-100,4,2,6,70,0,0
10375,-100,4,2,1,70,0,0
10770,-100,4,2,1,70,0,0
13401,-100,4,2,6,70,0,0
13533,-100,4,2,1,70,0,0
13928,-100,4,2,7,70,0,0
14059,-100,4,2,1,70,0,0
15507,-100,4,2,6,70,0,0
15638,-100,4,2,1,70,0,0
16033,-100,4,2,7,70,0,0
16165,-100,4,2,1,70,0,0
17086,-100,4,2,4,70,0,0
17151,-100,4,2,1,70,0,0
17612,-100,4,2,6,70,0,0
17743,-100,4,2,1,70,0,0
18138,-100,4,2,7,70,0,0
18270,-100,4,2,1,70,0,0
18665,-100,4,2,6,70,0,0
18796,-100,4,2,1,70,0,0
21822,-100,4,2,6,70,0,0
21954,-100,4,2,1,70,0,0
22349,-100,4,2,7,70,0,0
22480,-100,4,2,1,70,0,0
22875,-100,4,2,6,70,0,0
23007,-100,4,2,1,70,0,0
24454,-100,4,2,1,50,0,0
25507,-100,4,2,1,70,0,1
26033,-100,4,2,6,70,0,1
26165,-100,4,2,1,70,0,1
26559,-100,4,2,7,70,0,1
26691,-100,4,2,1,70,0,1
27086,-100,4,2,6,70,0,1
27217,-100,4,2,1,70,0,1
30243,-100,4,2,6,70,0,1
30375,-100,4,2,1,70,0,1
30770,-100,4,2,7,70,0,1
30901,-100,4,2,1,70,0,1
31296,-100,4,2,6,70,0,1
31428,-100,4,2,1,70,0,1
33401,-100,4,2,1,70,0,0
33928,-100,4,2,1,70,0,1
34454,-100,4,2,6,70,0,1
34586,-100,4,2,1,70,0,1
34980,-100,4,2,7,70,0,1
35112,-100,4,2,1,70,0,1
36559,-100,4,2,6,70,0,1
36691,-100,4,2,1,70,0,1
37086,-100,4,2,7,70,0,1
37217,-100,4,2,1,70,0,1
38665,-100,4,2,6,70,0,1
38796,-100,4,2,1,70,0,1
39717,-100,4,2,6,70,0,1
39849,-100,4,2,1,70,0,1
42349,-100,4,2,4,70,0,0
50770,-100,4,2,4,40,0,0
51296,-100,4,2,7,40,0,0
51428,-100,4,2,4,40,0,0
52349,-100,4,2,7,40,0,0
52480,-100,4,2,4,40,0,0
55507,-100,4,2,7,40,0,0
55638,-100,4,2,4,40,0,0
57086,-100,4,2,1,30,0,0
57612,-100,4,2,1,35,0,0
58138,-100,4,2,2,70,0,0
58204,-100,4,2,1,20,0,0
59191,-100,4,2,4,70,0,0
59322,-100,4,2,1,70,0,0
59717,-100,4,2,6,70,0,0
59849,-100,4,2,1,70,0,0
60770,-100,4,2,6,70,0,0
60901,-100,4,2,1,70,0,0
63928,-100,4,2,6,70,0,0
64059,-100,4,2,1,70,0,0
64980,-100,4,2,6,70,0,0
65112,-100,4,2,1,70,0,0
67612,-100,4,2,4,70,0,0
67678,-100,4,2,1,70,0,0
68138,-100,4,2,6,70,0,0
68270,-100,4,2,1,70,0,0
69191,-100,4,2,6,70,0,0
69322,-100,4,2,1,70,0,0
72349,-100,4,2,6,70,0,0
72480,-100,4,2,1,70,0,0
73401,-100,4,2,6,70,0,0
73533,-100,4,2,1,70,0,0
76033,-100,4,2,4,70,0,0
76099,-100,4,2,1,70,0,0
76559,-100,4,2,6,70,0,0
76691,-100,4,2,1,70,0,0
77086,-100,4,2,7,70,0,0
77217,-100,4,2,1,70,0,0
77612,-100,4,2,6,70,0,0
77743,-100,4,2,1,70,0,0
80770,-100,4,2,6,70,0,0
80901,-100,4,2,1,70,0,0
81296,-100,4,2,7,70,0,0
81428,-100,4,2,1,70,0,0
82875,-100,4,2,6,70,0,0
83007,-100,4,2,1,70,0,0
83401,-100,4,2,7,70,0,0
83533,-100,4,2,1,70,0,0
84454,-100,4,2,4,70,0,0
84586,-100,4,2,1,70,0,0
84980,-100,4,2,6,70,0,0
85112,-100,4,2,1,70,0,0
85507,-100,4,2,7,70,0,0
85638,-100,4,2,1,70,0,0
86033,-100,4,2,6,70,0,0
86165,-100,4,2,1,70,0,0
89191,-100,4,2,6,70,0,0
89322,-100,4,2,1,70,0,0
91296,-100,4,2,6,70,0,0
91428,-100,4,2,1,70,0,0
91822,-100,4,2,1,50,0,0
92875,-100,4,2,1,70,0,1
99717,-100,4,2,6,70,0,1
99849,-100,4,2,1,70,0,1
100770,-100,4,2,1,70,0,0
101296,-100,4,2,1,70,0,1
106033,-100,4,2,6,70,0,1
106165,-100,4,2,1,70,0,1
106559,-100,4,2,7,70,0,1
106691,-100,4,2,1,70,0,1
107086,-100,4,2,6,70,0,1
107217,-100,4,2,1,70,0,1
109717,-100,4,2,4,70,0,0
109783,-100,4,2,1,40,0,0
111822,-100,4,2,1,25,0,0
113928,-100,4,2,1,10,0,0

[Colours]
Combo1 : 255,0,0
Combo2 : 173,255,95
Combo3 : 255,88,100
Combo4 : 255,94,55
Combo5 : 17,254,176

[HitObjects]
367,300,244,54,0,P|438:298|492:252,1,144,2|2,0:0|0:0,0:0:0:0:
432,88,2349,2,0,P|368:88|304:144,1,144,2|2,0:0|0:0,0:0:0:0:
256,204,3928,1,8,0:0:0:0:
204,136,4454,22,0,P|150:90|80:88,1,144,2|2,0:0|0:0,0:0:0:0:
20,252,6559,2,0,P|73:298|144:300,1,144,2|2,0:0|1:2,0:0:0:0:
404,204,8665,6,0,P|256:117|109:205,1,360,6|2,0:0|0:0,0:0:0:0:
256,308,11822,1,2,0:0:0:0:
400,204,12875,6,0,P|432:116|300:40,1,270,2|8,0:0|0:0,0:0:0:0:
209,39,14980,2,0,P|92:81|112:204,1,270,2|8,0:0|0:0,0:0:0:0:
116,296,17086,6,0,B|168:296|208:252|208:200|208:200|212:268|256:300|316:304|364:272,1,360,6|2,0:0|0:0,0:0:0:0:
384,184,19717,2,0,P|339:182|300:202,2,90,8|2|8,0:0|0:0|0:0,0:0:0:0:
440,256,21296,22,0,B|480:216|480:164|460:124|412:104|412:104|364:84|324:104|276:72|268:28,1,360,2|2,0:0|0:0,0:0:0:0:
96,128,24454,1,2,1:2:0:0:
96,292,25507,6,0,B|136:271|136:271|176:292|176:292|216:271|216:271|256:292|256:292|296:271|296:271|336:292|336:292|377:271|377:271|417:292,1,360,6|2,0:0|0:0,0:0:0:0:
256,192,28665,1,2,0:0:0:0:
417,92,29717,6,0,B|377:112|377:112|336:92|336:92|296:112|296:112|256:92|256:92|216:112|216:112|176:92|176:92|136:112|136:112|96:92,1,360,2|2,0:0|0:0,0:0:0:0:
256,192,32875,1,2,0:0:0:0:
416,92,33928,6,0,B|384:220|384:220|367:296|301:323,1,270,6|8,0:0|0:0,0:0:0:0:
210,323,36033,2,0,B|145:296|129:224|129:224|96:92,1,270,2|8,0:0|0:0,0:0:0:0:
188,96,38138,22,0,P|255:146|323:96,2,180,2|2|2,0:0|0:0|0:0,0:0:0:0:
164,276,41296,1,2,0:0:0:0:
256,288,41822,1,8,0:0:0:0:
348,276,42349,1,6,0:0:0:0:
108,144,50770,6,0,P|186:107|196:22,2,180,2|2|2,0:0|0:0|0:0,0:0:0:0:
256,244,53928,1,2,0:0:0:0:
404,144,54980,2,0,P|324:105|316:19,1,180,2|2,0:0|0:0,0:0:0:0:
400,56,56559,1,2,0:0:0:0:
484,92,57086,6,0,B|492:156|492:156|476:204|476:204|484:268,1,180,8|10,0:0|0:0,0:0:0:0:
308,304,59191,6,0,B|316:240|316:240|300:192|300:192|308:128,2,180,6|2|2,0:0|0:0|0:0,0:0:0:0:
136,256,62349,1,2,0:0:0:0:
212,92,63401,22,0,P|124:72|36:104,2,180,2|2|2,0:0|0:0|0:0,0:0:0:0:
388,132,66559,2,0,P|432:140|476:124,1,90,2|8,0:0|0:0,0:0:0:0:
424,52,67612,6,0,P|336:56|296:132,2,180,6|2|2,0:0|0:0|0:0,0:0:0:0:
460,228,70770,1,2,0:0:0:0:
383,272,71296,1,8,0:0:0:0:
304,316,71822,6,0,L|124:308,2,180,2|2|0,0:0|0:0|0:0,0:0:0:0:
224,156,74980,2,0,P|208:116|212:68,1,90,2|8,0:0|0:0,0:0:0:0:
296,100,76033,6,0,P|248:245|130:148,1,360,6|2,0:0|0:0,0:0:0:0:
36,300,79191,1,2,0:0:0:0:
208,348,80243,22,0,B|364:344|408:196,1,270,2|8,0:0|0:0,0:0:0:0:
456,120,82349,2,0,B|424:96|376:92|324:123|332:135|340:147|288:179|241:175|209:151,1,270,2|8,0:0|0:0,0:0:0:0:
260,76,84454,6,0,P|115:124|212:242,1,360,6|2,0:0|0:0,0:0:0:0:
304,236,87086,1,8,0:0:0:0:
388,204,87612,2,0,P|392:256|376:296,1,90,2|8,0:0|0:0,0:0:0:0:
304,340,88665,6,0,L|124:332,1,180,2|2,0:0|0:0,0:0:0:0:
36,324,90243,1,8,0:0:0:0:
88,248,90770,2,0,P|120:184|100:80,1,180,2|2,0:0|1:2,0:0:0:0:
280,100,92875,6,0,B|324:108|324:108|368:100,1,90,6|8,0:0|0:0,0:0:0:0:
444,148,93928,2,0,B|436:192|436:192|444:236,1,90,2|8,0:0|0:0,0:0:0:0:
368,284,94980,2,0,B|324:276|324:276|280:284,1,90,2|8,0:0|0:0,0:0:0:0:
192,304,96033,1,2,0:0:0:0:
88,156,97086,22,0,B|132:148|132:148|176:156,1,90,6|8,0:0|0:0,0:0:0:0:
264,156,98138,2,0,B|308:164|308:164|352:156,1,90,2|8,0:0|0:0,0:0:0:0:
443,146,99191,2,0,B|435:191|435:191|443:235|443:235|435:279|435:279|443:323,1,180,2|2,0:0|0:0,0:0:0:0:
264,324,101296,6,0,B|218:323|218:323|180:300,1,90,6|8,0:0|0:0,0:0:0:0:
160,212,102349,2,0,B|205:212|205:212|244:236,1,90,2|8,0:0|0:0,0:0:0:0:
268,148,103401,2,0,B|306:171|306:171|352:172,1,90,6|8,0:0|0:0,0:0:0:0:
332,84,104454,2,0,B|293:60|293:60|248:60,1,90,2|8,0:0|0:0,0:0:0:0:
159,64,105507,6,0,P|53:191|159:319,1,360,6|2,0:0|0:0,0:0:0:0:
240,276,108138,1,8,0:0:0:0:
272,192,108665,1,2,0:0:0:0:
240,108,109191,1,8,0:0:0:0:
256,192,109717,12,0,116033,0:0:0:0:
