osu file format v14

[General]
AudioFilename: Overtime - Cash Cash.mp3
AudioLeadIn: 0
PreviewTime: 24473
Countdown: 0
SampleSet: Normal
StackLeniency: 0.2
Mode: 0
LetterboxInBreaks: 0
WidescreenStoryboard: 1

[Editor]
Bookmarks: 91315
DistanceSpacing: 1
BeatDivisor: 4
GridSize: 4
TimelineZoom: 1.8

[Metadata]
Title:Overtime
TitleUnicode:Overtime
Artist:Cash Cash
ArtistUnicode:Cash Cash
Creator:Scebtile
Version:Hard
Source:
Tags:Proximity Drumstep Future Bass Glitch Hop Dubstep EDM Electronic DnB House
BeatmapID:879850
BeatmapSetID:400434

[Difficulty]
HPDrainRate:5.5
CircleSize:4
OverallDifficulty:5
ApproachRate:6
SliderMultiplier:1.4
SliderTickRate:1

[Events]
//Background and Video events
0,0,"69641a6fc603d25f21c0b34262aed97e.jpg",0,0
//Break Periods
2,42568,49739
//Storyboard Layer 0 (Background)
//Storyboard Layer 1 (Fail)
//Storyboard Layer 2 (Pass)
//Storyboard Layer 3 (Foreground)
//Storyboard Sound Samples

[TimingPoints]
263,526.315789473684,4,1,1,50,1,0
8420,-100,4,1,1,100,0,0
8684,-100,4,1,1,100,0,0
12894,-100,4,1,1,100,0,0
13420,-100,4,1,1,100,0,0
24473,-100,4,1,0,100,0,0
25526,-100,4,1,2,100,0,1
25657,-100,4,1,1,100,0,1
27105,-100,4,1,1,100,0,1
27631,-100,4,1,1,100,0,1
29736,-100,4,1,0,100,0,1
29868,-100,4,1,1,100,0,1
31315,-100,4,1,1,100,0,1
31841,-100,4,1,1,100,0,1
33947,-100,4,1,0,100,0,1
34078,-100,4,1,1,100,0,1
36052,-100,4,1,0,100,0,1
36184,-100,4,1,1,100,0,1
38157,-100,4,1,0,100,0,1
38289,-100,4,1,1,100,0,1
40262,-100,4,1,0,100,0,1
40394,-100,4,1,1,100,0,1
42368,-100,4,1,1,100,0,0
50262,-100,4,1,1,80,0,0
53947,-100,4,1,1,80,0,0
54999,-100,4,1,1,80,0,0
56973,-100,4,1,1,5,0,0
57105,-100,4,1,1,80,0,0
58091,-100,4,1,0,80,0,0
59210,-100,4,1,1,100,0,0
63420,-100,4,1,0,100,0,0
63552,-100,4,1,1,100,0,0
69736,-100,4,1,1,100,0,0
71841,-100,4,1,0,100,0,0
71973,-100,4,1,1,100,0,0
73420,-100,4,1,1,100,0,0
80394,-100,4,1,1,100,0,0
91841,-100,4,1,0,100,0,0
92894,-100,4,1,2,100,0,1
93026,-100,4,1,1,100,0,1
97105,-100,4,1,0,100,0,1
97236,-100,4,1,1,100,0,1
101315,-100,4,1,0,100,0,1
101447,-100,4,1,1,100,0,1
103420,-100,4,1,0,100,0,1
103552,-100,4,1,1,100,0,1
104999,-100,4,1,1,100,0,1
105526,-100,4,1,0,100,0,1
105657,-100,4,1,1,100,0,1
107105,-100,4,1,1,100,0,1
107631,-100,4,1,0,100,0,1
107762,-100,4,1,1,100,0,1
109736,-100,4,1,1,100,0,0

[Colours]
Combo1 : 192,192,192
Combo2 : 255,0,0
Combo3 : 255,128,128

[HitObjects]
256,192,4473,12,4,7631,2:0:0:0:
76,100,8684,6,0,P|144:80|220:100,1,140,4|8,0:0|2:0,0:0:0:0:
416,192,9736,2,0,P|348:172|272:192,1,140,0|8,0:0|2:0,0:0:0:0:
256,228,10394,1,0,0:0:0:0:
256,228,10526,1,0,0:0:0:0:
168,184,10789,1,0,0:0:0:0:
80,288,11052,6,0,L|104:364,1,70,2|8,2:0|2:0,0:0:0:0:
248,304,11578,2,0,L|224:380,2,70,2|0|0,2:0|0:0|0:0,0:0:0:0:
168,184,12368,1,8,2:0:0:0:
216,104,12631,1,0,0:0:0:0:
312,64,12894,6,0,B|368:120|268:160|364:208,1,140,0|8,0:0|2:0,0:0:0:0:
189,231,13947,2,0,B|245:175|145:135|241:87,1,140,0|8,0:0|2:0,0:0:0:0:
32,36,14999,6,0,L|12:128,1,70
144,196,15526,2,0,L|124:104,1,70,8|0,2:0|0:0,0:0:0:0:
16,240,16052,2,0,L|36:332,1,70
116,380,16578,1,8,2:0:0:0:
216,304,16841,2,0,L|260:300,1,35,0|8,0:0|2:0,0:0:0:0:
292,296,17105,6,0,B|328:144,1,140,0|8,0:0|2:0,0:0:0:0:
176,108,18157,2,0,B|152:216|152:216|188:224,1,140,0|8,0:0|2:0,0:0:0:0:
220,216,18815,1,0,0:0:0:0:
260,208,18947,1,0,0:0:0:0:
276,120,19210,5,0,0:0:0:0:
352,20,19473,2,0,L|392:96,1,70,2|8,2:0|2:0,0:0:0:0:
384,228,19999,5,2,2:0:0:0:
460,128,20262,2,0,L|500:204,2,70,0|0|8,0:0|0:0|2:0,0:0:0:0:
340,48,21315,6,0,L|200:60,1,140,0|8,0:0|2:0,0:0:0:0:
80,192,22368,2,0,L|220:204,1,140,0|8,0:0|2:0,0:0:0:0:
316,148,23420,5,0,0:0:0:0:
384,228,23684,1,0,0:0:0:0:
288,280,23947,1,8,2:0:0:0:
372,344,24210,1,0,0:0:0:0:
260,380,24473,5,4,0:0:0:0:
60,232,25526,5,4,0:0:0:0:
68,296,25789,1,0,0:0:0:0:
176,328,26052,5,8,2:0:0:0:
184,264,26315,1,0,0:0:0:0:
312,176,26578,6,0,L|340:220,1,35
292,272,26841,2,0,L|320:316,1,35
388,304,27105,2,0,P|352:368|280:372,1,140,8|0,2:0|0:0,0:0:0:0:
200,336,27762,6,0,L|184:372,1,35
104,284,28026,2,0,L|120:248,1,35,0|8,0:0|2:0,0:0:0:0:
292,180,28420,2,0,L|220:196,1,70
324,308,28947,2,0,L|396:324,2,70,0|8|0,0:0|2:0|0:0,0:0:0:0:
184,280,29736,5,4,0:0:0:0:
84,244,29999,1,0,0:0:0:0:
184,196,30262,1,8,2:0:0:0:
84,160,30526,1,0,0:0:0:0:
176,60,30789,2,0,L|220:48,1,35
284,92,31052,2,0,L|328:80,1,35
300,172,31315,2,0,P|248:200|172:140,1,140,8|0,2:0|0:0,0:0:0:0:
248,280,32105,5,0,0:0:0:0:
272,372,32368,1,8,2:0:0:0:
180,344,32631,1,0,0:0:0:0:
248,280,32894,6,0,P|312:288|392:244,1,140,0|8,0:0|2:0,0:0:0:0:
412,180,33552,2,0,L|412:136,2,35,0|0|8,0:0|0:0|2:0,0:0:0:0:
320,136,33947,5,4,0:0:0:0:
256,72,34210,1,2,2:0:0:0:
160,64,34473,1,8,2:0:0:0:
96,128,34736,1,2,2:0:0:0:
196,208,34999,2,0,L|161:203,1,35
72,224,35262,2,0,L|38:228,1,35,2|0,2:0|0:0,0:0:0:0:
60,336,35525,2,0,P|104:360|188:328,1,140,8|4,2:0|0:0,0:0:0:0:
316,328,36315,5,2,2:0:0:0:
384,224,36578,2,0,L|464:252,1,70,8|2,2:0|2:0,0:0:0:0:
300,140,37105,6,0,L|292:204,1,35
188,192,37368,2,0,L|180:128,1,35,2|0,2:0|0:0,0:0:0:0:
232,96,37631,2,0,P|188:80|108:136,1,140,8|4,2:0|0:0,0:0:0:0:
20,60,38420,5,2,2:0:0:0:
28,176,38684,2,0,L|32:272,1,70,8|2,2:0|2:0,0:0:0:0:
116,360,39210,1,0,0:0:0:0:
152,332,39341,1,0,0:0:0:0:
188,304,39473,1,2,2:0:0:0:
224,276,39605,1,0,0:0:0:0:
284,324,39736,2,0,P|300:280|244:200,1,140,8|4,2:0|0:0,0:0:0:0:
160,212,40526,5,2,2:0:0:0:
192,116,40789,1,8,2:0:0:0:
288,80,41052,1,2,2:0:0:0:
384,120,41315,1,0,0:0:0:0:
364,220,41578,6,0,L|344:304,1,70,0|8,0:0|2:0,0:0:0:0:
468,336,42105,2,0,L|488:388,2,35,0|8|4,0:0|2:0|0:0,0:0:0:0:
272,80,50789,6,0,P|172:100|140:132,1,140
88,272,51841,2,0,P|188:252|220:220,1,140
272,116,52894,6,0,P|172:136|140:168,1,140
88,300,53946,2,0,P|188:280|220:248,1,140
332,188,54999,6,0,L|316:336,1,140
432,248,56052,2,0,L|448:100,1,140
256,192,56841,12,4,58157,0:0:0:0:
264,88,59210,6,0,P|268:148|288:232,1,140,4|8,0:0|2:0,0:0:0:0:
368,184,59868,1,2,2:0:0:0:
372,224,59999,1,0,0:0:0:0:
364,256,60131,1,2,2:0:0:0:
344,288,60262,2,0,P|304:308|256:296,1,70,0|2,0:0|2:0,0:0:0:0:
244,376,60789,2,0,P|208:336|244:236,1,140,8|0,2:0|0:0,0:0:0:0:
228,160,61578,6,0,L|200:128,2,35,2|0|8,2:0|0:0|2:0,0:0:0:0:
348,120,61973,2,0,L|388:108,2,35,2|0|0,2:0|0:0|0:0,0:0:0:0:
248,48,62368,6,0,L|176:36,1,70
80,120,62894,1,8,2:0:0:0:
160,224,63157,1,0,0:0:0:0:
220,176,63420,6,0,P|236:240|172:300,1,140,4|8,0:0|2:0,0:0:0:0:
220,336,64078,1,0,0:0:0:0:
248,352,64210,1,0,0:0:0:0:
284,360,64341,1,0,0:0:0:0:
320,356,64473,1,0,0:0:0:0:
316,224,64736,1,2,2:0:0:0:
388,208,64999,6,0,P|376:180|260:176,1,140,8|0,2:0|0:0,0:0:0:0:
176,264,65789,2,0,L|136:340,2,70,0|8|0,0:0|2:0|0:0,0:0:0:0:
128,176,66578,1,0,0:0:0:0:
180,92,66841,1,0,0:0:0:0:
276,64,67105,1,8,2:0:0:0:
364,112,67368,2,0,L|388:144,1,35,0|8,0:0|2:0,0:0:0:0:
460,128,67631,6,0,P|448:184|368:212,1,140,4|8,0:0|2:0,0:0:0:0:
216,184,68289,6,0,L|180:176,1,35,2|0,2:0|0:0,0:0:0:0:
256,272,68552,2,0,L|292:280,1,35,2|0,2:0|0:0,0:0:0:0:
392,352,68947,1,2,2:0:0:0:
280,360,69210,2,0,L|128:336,1,140,8|0,2:0|0:0,0:0:0:0:
28,300,69999,6,0,L|44:256,1,35,2|0,2:0|0:0,0:0:0:0:
152,240,70262,2,0,L|168:196,1,35,8|2,2:0|2:0,0:0:0:0:
56,124,70526,2,0,L|40:168,1,35
156,124,70789,6,0,P|208:132|228:152,1,70
288,248,71315,2,0,P|340:240|360:220,1,70,8|0,2:0|0:0,0:0:0:0:
416,272,71841,6,0,P|424:200|364:156,1,140,4|8,0:0|2:0,0:0:0:0:
320,112,72499,1,0,0:0:0:0:
284,148,72631,1,0,0:0:0:0:
248,184,72762,1,0,0:0:0:0:
212,220,72894,2,0,L|128:212,1,70,0|2,0:0|2:0,0:0:0:0:
92,136,73420,2,0,L|112:304,1,140,8|0,2:0|0:0,0:0:0:0:
196,336,74210,5,0,0:0:0:0:
296,344,74605,1,0,0:0:0:0:
396,352,74999,2,0,L|408:268,1,70
368,168,75526,5,8,2:0:0:0:
268,208,75789,1,8,2:0:0:0:
284,308,76052,6,0,P|228:332|144:320,1,140,4|8,0:0|2:0,0:0:0:0:
56,216,77105,2,0,P|112:192|196:204,1,140,0|8,0:0|2:0,0:0:0:0:
208,232,77762,1,0,0:0:0:0:
208,232,77894,1,0,0:0:0:0:
300,164,78157,1,0,0:0:0:0:
388,228,78420,6,0,L|464:284,1,70,2|8,2:0|2:0,0:0:0:0:
404,108,78947,2,0,L|328:52,1,70,2|0,2:0|0:0,0:0:0:0:
288,176,79736,1,8,2:0:0:0:
272,256,79999,1,0,0:0:0:0:
204,312,80262,6,0,P|268:348|336:312,1,140,0|8,0:0|2:0,0:0:0:0:
344,216,81315,2,0,P|408:180|472:216,1,140,0|8,0:0|2:0,0:0:0:0:
476,116,82368,6,0,L|488:40,2,70,0|0|8,0:0|0:0|2:0,0:0:0:0:
376,60,83157,1,0,0:0:0:0:
304,144,83420,1,0,0:0:0:0:
212,80,83684,1,0,0:0:0:0:
180,192,83947,1,8,2:0:0:0:
240,284,84210,2,0,L|232:328,1,35,0|8,0:0|2:0,0:0:0:0:
224,356,84473,6,0,P|152:356|104:304,1,140,4|8,0:0|2:0,0:0:0:0:
32,308,85526,2,0,P|64:248|156:256,1,140,0|8,0:0|2:0,0:0:0:0:
168,264,86184,1,0,0:0:0:0:
168,264,86315,1,0,0:0:0:0:
240,192,86578,1,0,0:0:0:0:
300,112,86841,6,0,P|356:124|376:124,1,70,2|8,2:0|2:0,0:0:0:0:
168,112,87368,2,0,P|112:100|92:100,1,70,2|0,2:0|0:0,0:0:0:0:
248,16,88157,1,8,2:0:0:0:
280,112,88684,6,0,L|420:148,1,140,0|8,0:0|2:0,0:0:0:0:
416,264,89736,2,0,L|276:300,1,140,0|8,0:0|2:0,0:0:0:0:
152,304,90789,6,0,P|176:342|223:362,1,70
264,212,91315,2,0,P|239:173|192:153,1,70,8|0,2:0|0:0,0:0:0:0:
96,212,91841,1,4,0:0:0:0:
352,92,92894,6,0,B|348:40|348:40|336:80,1,70,4|0,0:0|0:0,0:0:0:0:
224,120,93420,2,0,B|228:172|228:172|240:132,1,70,8|0,2:0|0:0,0:0:0:0:
328,260,93947,5,0,0:0:0:0:
320,300,94078,1,0,0:0:0:0:
300,336,94210,1,0,0:0:0:0:
264,356,94341,1,0,0:0:0:0:
224,360,94473,2,0,P|168:332|92:324,1,140,8|0,2:0|0:0,0:0:0:0:
56,208,95131,6,0,L|96:200,1,35
224,240,95394,2,0,L|184:248,1,35,0|8,0:0|2:0,0:0:0:0:
168,128,95789,5,0,0:0:0:0:
124,48,96052,2,0,L|40:60,1,70
252,92,96578,2,0,L|336:104,1,70,8|0,2:0|0:0,0:0:0:0:
432,128,97105,5,4,0:0:0:0:
372,228,97368,2,0,L|356:300,1,70,0|8,2:0|2:0,0:0:0:0:
252,252,97894,1,0,0:0:0:0:
268,328,98157,5,0,0:0:0:0:
222,323,98289,1,0,0:0:0:0:
187,292,98420,1,0,0:0:0:0:
179,246,98552,1,0,0:0:0:0:
188,200,98684,2,0,P|224:152|316:136,1,140,8|0,2:0|0:0,0:0:0:0:
408,104,99473,6,0,P|440:64|452:40,2,70,0|8|0,0:0|2:0|0:0,0:0:0:0:
300,60,100262,2,0,P|208:76|152:124,1,140,0|8,0:0|2:0,0:0:0:0:
76,72,100920,2,0,L|60:12,2,35,0|0|8,0:0|0:0|2:0,0:0:0:0:
112,212,101315,2,0,P|52:228|20:224,1,70,4|2,0:0|2:0,0:0:0:0:
208,336,101841,2,0,P|268:320|300:324,1,70,8|2,2:0|2:0,0:0:0:0:
368,348,102368,5,0,0:0:0:0:
416,352,102499,1,0,0:0:0:0:
452,320,102631,1,2,2:0:0:0:
464,272,102762,1,0,0:0:0:0:
388,276,102894,2,0,P|304:236|280:192,1,140,8|4,2:0|0:0,0:0:0:0:
412,104,103684,5,2,2:0:0:0:
504,216,103947,1,8,2:0:0:0:
460,344,104210,1,2,2:0:0:0:
372,332,104473,6,0,L|328:360,1,35
400,228,104736,2,0,L|444:200,1,35,2|0,2:0|0:0,0:0:0:0:
340,132,104999,2,0,P|316:176|332:276,1,140,8|4,2:0|0:0,0:0:0:0:
224,272,105789,5,2,2:0:0:0:
224,264,106052,2,0,L|208:188,1,70,8|2,2:0|2:0,0:0:0:0:
264,64,106578,5,0,0:0:0:0:
228,68,106710,1,0,0:0:0:0:
192,80,106841,1,2,2:0:0:0:
160,100,106973,1,0,0:0:0:0:
136,124,107105,2,0,P|100:188|92:264,1,140,8|4,2:0|0:0,0:0:0:0:
160,344,107894,6,0,P|216:328|256:332,1,70,2|8,2:0|2:0,0:0:0:0:
340,344,108420,2,0,P|396:360|436:356,2,70,2|0|0,2:0|0:0|0:0,0:0:0:0:
292,260,109210,1,8,2:0:0:0:
392,188,109473,6,0,L|380:236,2,35,0|8|4,0:0|2:0|0:0,0:0:0:0:
