osu file format v14

[General]
AudioFilename: Overtime - Cash Cash.mp3
AudioLeadIn: 0
PreviewTime: 24473
Countdown: 0
SampleSet: Normal
StackLeniency: 0.2
Mode: 0
LetterboxInBreaks: 0
WidescreenStoryboard: 0

[Editor]
DistanceSpacing: 1
BeatDivisor: 4
GridSize: 4
TimelineZoom: 1.2

[Metadata]
Title:Overtime
TitleUnicode:Overtime
Artist:Cash Cash
ArtistUnicode:Cash Cash
Creator:Scebtile
Version:Extra
Source:
Tags:Proximity Drumstep Future Bass Glitch Hop Dubstep EDM Electronic DnB House
BeatmapID:871260
BeatmapSetID:400434

[Difficulty]
HPDrainRate:7
CircleSize:4.2
OverallDifficulty:8.5
ApproachRate:9.3
SliderMultiplier:1.4
SliderTickRate:1

[Events]
//Background and Video events
0,0,"69641a6fc603d25f21c0b34262aed97e.jpg",0,0
//Break Periods
2,42568,49708
//Storyboard Layer 0 (Background)
//Storyboard Layer 1 (Fail)
//Storyboard Layer 2 (Pass)
//Storyboard Layer 3 (Foreground)
//Storyboard Sound Samples

[TimingPoints]
263,526.315789473684,4,1,1,50,1,0
8420,-66.6666666666667,4,1,1,100,0,0
8684,-66.6666666666667,4,1,1,100,0,0
25526,-66.6666666666667,4,1,2,100,0,1
25657,-66.6666666666667,4,1,1,100,0,1
29736,-66.6666666666667,4,1,0,100,0,1
29868,-66.6666666666667,4,1,1,100,0,1
33947,-66.6666666666667,4,1,0,100,0,1
34078,-66.6666666666667,4,1,1,100,0,1
36052,-66.6666666666667,4,1,0,100,0,1
36184,-66.6666666666667,4,1,1,100,0,1
38157,-66.6666666666667,4,1,0,100,0,1
38289,-66.6666666666667,4,1,1,100,0,1
40262,-66.6666666666667,4,1,0,100,0,1
40394,-66.6666666666667,4,1,1,100,0,1
42368,-66.6666666666667,4,1,1,100,0,0
50262,-66.6666666666667,4,1,1,80,0,0
53947,-100,4,1,1,80,0,0
54999,-66.6666666666667,4,1,1,80,0,0
58091,-66.6666666666667,4,1,0,80,0,0
59210,-66.6666666666667,4,1,1,100,0,0
63420,-66.6666666666667,4,1,0,100,0,0
63552,-66.6666666666667,4,1,1,100,0,0
69210,-100,4,1,1,100,0,0
69736,-66.6666666666667,4,1,1,100,0,0
71841,-66.6666666666667,4,1,0,100,0,0
71973,-66.6666666666667,4,1,1,100,0,0
73420,-100,4,1,1,100,0,0
73947,-66.6666666666667,4,1,1,100,0,0
80262,-66.6666666666667,4,1,0,100,0,0
80394,-66.6666666666667,4,1,1,100,0,0
92894,-66.6666666666667,4,1,2,100,0,1
93026,-66.6666666666667,4,1,1,100,0,1
97105,-66.6666666666667,4,1,0,100,0,1
97236,-66.6666666666667,4,1,1,100,0,1
101315,-66.6666666666667,4,1,0,100,0,1
101447,-66.6666666666667,4,1,1,100,0,1
103420,-66.6666666666667,4,1,0,100,0,1
103552,-66.6666666666667,4,1,1,100,0,1
105526,-66.6666666666667,4,1,0,100,0,1
105657,-66.6666666666667,4,1,1,100,0,1
107105,-100,4,1,1,100,0,1
107631,-66.6666666666667,4,1,0,100,0,1
107762,-66.6666666666667,4,1,1,100,0,1
109736,-66.6666666666667,4,1,1,100,0,0

[Colours]
Combo1 : 192,192,192
Combo2 : 255,0,0
Combo3 : 255,128,128

[HitObjects]
256,192,6578,12,4,7631,2:0:0:0:
308,128,8420,5,0,0:0:0:0:
308,128,8684,2,0,B|240:148|156:136|156:136|240:172,1,210.000008010865,4|8,0:0|2:0,0:0:0:0:
276,288,9473,6,0,P|272:324|264:348,1,52.5000020027161
332,148,9736,1,0,0:0:0:0:
140,284,9868,1,0,0:0:0:0:
160,136,9999,2,0,P|164:100|172:76,2,52.5000020027161,0|0|8,0:0|0:0|2:0,0:0:0:0:
140,284,10394,5,0,0:0:0:0:
140,284,10526,2,0,B|152:368|152:368|120:344,1,105.000004005432
44,184,11052,5,2,2:0:0:0:
52,296,11184,2,0,L|60:356,1,52.5000020027161,0|8,0:0|2:0,0:0:0:0:
136,132,11447,1,2,2:0:0:0:
123,236,11579,1,0,0:0:0:0:
216,200,11710,1,0,0:0:0:0:
64,104,11841,2,0,P|108:60|212:136,1,210.000008010865,0|8,0:0|2:0,0:0:0:0:
248,312,12631,5,0,0:0:0:0:
352,240,12894,2,0,B|360:180|360:180|356:128,1,105.000004005432
216,200,13420,1,8,2:0:0:0:
384,312,13684,2,0,P|424:324|440:324,1,52.5000020027161
492,240,13947,1,0,0:0:0:0:
444,148,14078,1,0,0:0:0:0:
267,208,14210,2,0,L|191:196,2,52.5000020027161,0|0|8,0:0|0:0|2:0,0:0:0:0:
72,212,14999,5,0,0:0:0:0:
228,312,15262,1,0,0:0:0:0:
328,169,15526,1,8,2:0:0:0:
160,208,15789,1,0,0:0:0:0:
232,296,16052,1,0,1:0:0:0:
260,88,16315,1,0,1:0:0:0:
320,300,16578,1,8,2:0:0:0:
164,201,16841,2,0,L|92:209,1,52.5000020027161,0|8,0:0|2:0,0:0:0:0:
264,67,17105,6,0,B|316:71|308:159|256:155|268:255|332:175,1,210.000008010865,0|8,0:0|2:0,0:0:0:0:
412,44,17894,2,0,L|464:20,1,52.5000020027161
432,208,18157,2,0,L|380:232,1,52.5000020027161
240,288,18420,2,0,L|356:304,1,105.000004005432,0|8,0:0|2:0,0:0:0:0:
156,272,18815,2,0,L|180:360,1,52.5000020027161
331,175,19210,1,0,0:0:0:0:
196,80,19473,5,2,2:0:0:0:
169,221,19605,2,0,L|145:309,1,52.5000020027161,0|8,0:0|2:0,0:0:0:0:
255,175,19868,1,2,2:0:0:0:
108,132,19999,1,0,0:0:0:0:
104,136,20131,1,0,0:0:0:0:
100,140,20262,2,0,P|180:100|256:188,1,210.000008010865,0|8,0:0|2:0,0:0:0:0:
84,216,20920,1,0,0:0:0:0:
120,304,21052,1,0,0:0:0:0:
212,328,21184,1,0,0:0:0:0:
328,216,21315,6,0,P|248:256|172:168,1,210.000008010865,0|8,0:0|2:0,0:0:0:0:
264,124,22105,2,0,L|252:188,1,52.5000020027161
180,384,22368,2,0,L|168:320,1,52.5000020027161
376,268,22631,2,0,L|440:256,1,52.5000020027161
228,244,22894,2,0,L|68:200,1,157.500006008148,8|0,2:0|0:0,0:0:0:0:
48,192,23420,5,0,0:0:0:0:
84,336,23684,1,0,0:0:0:0:
148,96,23947,1,8,2:0:0:0:
140,244,24211,1,0,0:0:0:0:
284,48,24473,2,0,L|236:184,1,105.000004005432
268,280,24999,2,8,L|276:340,2,52.5000020027161,8|8|8,2:0|2:0|2:0,2:0:0:0:
121,211,25526,5,4,0:0:0:0:
249,147,25657,1,0,0:0:0:0:
124,56,25789,1,0,0:0:0:0:
207,222,25920,1,0,0:0:0:0:
48,112,26052,5,8,2:0:0:0:
164,136,26184,1,0,0:0:0:0:
104,252,26315,1,0,0:0:0:0:
128,44,26447,1,0,0:0:0:0:
262,96,26578,6,0,L|246:156,1,52.5000020027161
316,280,26841,2,0,L|332:220,1,52.5000020027161
192,68,27105,2,0,P|276:24|328:136,1,210.000008010865,8|0,2:0|0:0,0:0:0:0:
329,229,27762,5,0,0:0:0:0:
262,96,27894,1,0,0:0:0:0:
192,212,28026,1,0,0:0:0:0:
300,160,28158,1,8,2:0:0:0:
208,304,28289,5,0,0:0:0:0:
144,160,28420,1,0,0:0:0:0:
40,292,28552,1,0,0:0:0:0:
144,264,28684,2,0,P|136:316|244:376,1,157.500006008148
339,216,29210,2,0,L|171:328,1,157.500006008148,8|0,2:0|0:0,0:0:0:0:
160,140,29736,5,4,0:0:0:0:
316,104,29868,1,0,0:0:0:0:
184,220,29999,1,0,0:0:0:0:
216,44,30131,1,0,0:0:0:0:
256,280,30262,5,8,2:0:0:0:
241,136,30394,1,0,0:0:0:0:
364,248,30526,1,0,0:0:0:0:
184,220,30658,1,0,0:0:0:0:
302,114,30789,5,0,0:0:0:0:
256,280,30921,1,0,0:0:0:0:
324,185,31052,1,0,0:0:0:0:
184,220,31184,1,0,0:0:0:0:
364,248,31315,2,0,P|396:176|296:116,1,210.000008010865,8|0,2:0|0:0,0:0:0:0:
156,88,31973,5,0,0:0:0:0:
292,40,32105,1,0,0:0:0:0:
176,178,32236,1,0,0:0:0:0:
220,16,32368,1,8,2:0:0:0:
260,228,32499,5,0,0:0:0:0:
232,112,32631,1,0,0:0:0:0:
104,152,32762,1,0,0:0:0:0:
108,160,33026,5,0,0:0:0:0:
72,284,33157,1,0,0:0:0:0:
76,292,33420,1,8,2:0:0:0:
200,244,33684,2,0,L|220:340,1,52.5000020027161,0|8,0:0|2:0,0:0:0:0:
264,160,33947,5,4,0:0:0:0:
112,208,34078,1,0,0:0:0:0:
200,104,34210,1,2,2:0:0:0:
210,295,34341,1,0,0:0:0:0:
108,216,34473,5,8,2:0:0:0:
296,240,34605,1,0,0:0:0:0:
204,112,34736,1,2,2:0:0:0:
208,304,34868,1,0,0:0:0:0:
264,160,34999,6,0,L|324:172,1,52.5000020027161
420,284,35262,2,0,L|360:272,1,52.5000020027161,2|0,2:0|0:0,0:0:0:0:
268,84,35526,2,0,P|199:122|242:230,1,210.000008010865,8|4,2:0|0:0,0:0:0:0:
380,124,36184,5,0,0:0:0:0:
288,304,36315,1,2,2:0:0:0:
440,224,36447,1,0,0:0:0:0:
264,160,36578,1,8,2:0:0:0:
364,288,36710,5,0,0:0:0:0:
304,84,36841,1,2,2:0:0:0:
456,240,36973,1,0,0:0:0:0:
260,168,37105,1,0,0:0:0:0:
400,116,37236,6,0,L|424:68,2,52.5000020027161,0|2|0,0:0|2:0|0:0,0:0:0:0:
196,252,37631,2,0,P|284:220|388:316,1,210.000008010865,8|4,2:0|0:0,0:0:0:0:
308,144,38289,5,0,0:0:0:0:
312,316,38420,1,2,2:0:0:0:
416,200,38552,1,0,0:0:0:0:
196,252,38684,1,8,2:0:0:0:
420,356,38815,5,0,0:0:0:0:
340,216,38947,1,2,2:0:0:0:
232,340,39078,1,0,0:0:0:0:
348,200,39210,1,0,0:0:0:0:
328,332,39341,6,0,L|332:384,2,52.5000020027161,0|2|0,0:0|2:0|0:0,0:0:0:0:
200,153,39736,2,0,B|136:281|136:281|200:249,1,210.000008010865,8|4,2:0|0:0,0:0:0:0:
296,104,40394,5,0,0:0:0:0:
292,252,40526,1,2,2:0:0:0:
364,160,40657,1,0,0:0:0:0:
304,260,40789,1,8,2:0:0:0:
424,224,40920,1,0,0:0:0:0:
304,336,41052,2,0,P|256:348|196:352,1,105.000004005432,2|0,2:0|0:0,0:0:0:0:
91,267,41578,2,0,P|139:255|199:251,1,105.000004005432,0|8,0:0|2:0,0:0:0:0:
304,336,42105,2,0,P|348:320|368:308,2,52.5000020027161,0|8|4,0:0|2:0|0:0,0:0:0:0:
72,116,50262,5,0,0:0:0:0:
88,120,50394,1,0,0:0:0:0:
104,124,50526,1,0,0:0:0:0:
120,128,50789,6,0,B|196:132|256:88|256:88|208:140|208:140|180:172,1,210.000008010865
200,320,51578,2,0,L|260:300,1,52.5000020027161
348,200,51841,2,0,L|408:220,2,52.5000020027161
348,128,53157,6,0,L|336:204,1,52.5000020027161
268,312,53552,2,0,L|256:236,1,52.5000020027161
132,140,53947,2,0,P|188:124|260:188,1,140
160,300,54736,5,0,0:0:0:0:
168,312,54999,2,0,B|240:320|340:336|340:336|300:304,1,210.000008010865
288,160,55789,6,0,L|272:236,1,52.5000020027161
212,72,56052,1,0,0:0:0:0:
136,120,56184,1,0,0:0:0:0:
182,197,56315,2,0,L|158:305,2,105.000004005432
140,116,57105,6,0,L|96:104,7,26.2500010013581,0|0|0|0|0|0|0|0,0:0|0:0|0:0|0:0|0:0|0:0|0:0|0:0,0:0:0:0:
224,64,57631,2,0,L|268:52,7,26.2500010013581
224,168,58157,5,4,0:0:0:0:
184,284,59210,6,0,P|316:288|388:204,1,210.000008010865,4|8,0:0|2:0,0:0:0:0:
172,144,59868,2,0,L|80:136,1,52.5000020027161,2|0,2:0|0:0,0:0:0:0:
80,308,60131,1,2,2:0:0:0:
48,200,60262,1,0,0:0:0:0:
168,156,60526,1,2,2:0:0:0:
112,100,60789,6,0,P|228:108|232:204,1,210.000008010865,8|0,2:0|0:0,0:0:0:0:
92,336,61578,2,0,L|116:276,1,52.5000020027161,2|0,2:0|0:0,0:0:0:0:
168,160,61841,1,8,2:0:0:0:
212,288,61973,2,0,L|236:348,2,52.5000020027161,2|0|0,2:0|0:0|0:0,0:0:0:0:
244,184,62368,5,0,0:0:0:0:
111,287,62499,1,0,0:0:0:0:
56,96,62631,2,0,P|108:64|168:64,1,105.000004005432,0|8,0:0|2:0,0:0:0:0:
204,264,63026,1,0,0:0:0:0:
328,232,63157,1,0,0:0:0:0:
132,160,63289,1,8,2:0:0:0:
132,160,63420,6,0,B|128:176|100:172|92:148|112:120|144:128|172:152|172:152|200:172|280:156,1,210.000008010865,4|8,0:0|2:0,0:0:0:0:
263,333,64078,1,2,2:0:0:0:
336,168,64210,1,0,0:0:0:0:
404,296,64341,1,2,2:0:0:0:
408,116,64473,1,0,0:0:0:0:
336,328,64736,1,2,2:0:0:0:
404,296,64999,2,0,P|344:252|276:368,1,210.000008010865,8|0,2:0|0:0,0:0:0:0:
276,112,65789,6,0,P|210:148|188:182,1,105.000004005432,0|8,0:0|2:0,0:0:0:0:
172,196,66184,2,0,P|100:216|60:208,1,105.000004005432
40,216,66578,6,0,L|72:116,1,105.000004005432
120,104,66973,1,0,0:0:0:0:
167,115,67105,2,0,L|199:215,1,105.000004005432,8|0,2:0|0:0,0:0:0:0:
208,240,67499,1,8,2:0:0:0:
216,264,67631,6,0,B|244:344|352:360|352:360|324:288,1,210.000008010865,4|8,0:0|2:0,0:0:0:0:
456,240,68289,1,2,2:0:0:0:
276,196,68420,2,0,L|304:252,1,52.5000020027161,0|2,0:0|2:0,0:0:0:0:
456,240,68684,2,0,L|400:136,1,105.000004005432,0|2,0:0|2:0,0:0:0:0:
231,120,69210,6,0,L|307:256,1,140,8|0,2:0|0:0,0:0:0:0:
144,308,69999,1,2,2:0:0:0:
68,204,70131,2,0,P|96:188|120:184,1,52.5000020027161,0|8,0:0|2:0,0:0:0:0:
176,96,70394,1,2,2:0:0:0:
252,200,70526,2,0,P|224:216|200:220,1,52.5000020027161
268,40,70789,6,0,P|284:68|288:92,1,52.5000020027161
292,304,71052,2,0,P|328:264|384:264,1,105.000004005432,0|8,0:0|2:0,0:0:0:0:
480,248,71447,1,0,0:0:0:0:
360,332,71578,1,0,0:0:0:0:
332,184,71710,1,8,2:0:0:0:
332,184,71841,6,0,B|336:200|364:196|372:172|352:144|320:152|292:176|292:176|264:196|184:180,1,210.000008010865,4|8,0:0|2:0,0:0:0:0:
76,88,72499,1,2,2:0:0:0:
200,80,72631,1,0,0:0:0:0:
64,116,72762,1,2,2:0:0:0:
164,16,72894,2,0,P|236:16|268:52,1,105.000004005432,0|2,0:0|2:0,0:0:0:0:
200,171,73420,6,0,B|184:271|184:271|216:227,1,140,8|0,2:0|0:0,0:0:0:0:
296,112,74210,1,0,0:0:0:0:
304,100,74605,1,0,0:0:0:0:
176,72,74999,6,0,P|132:48|64:52,2,105.000004005432,0|0|8,0:0|0:0|2:0,0:0:0:0:
208,148,75657,1,8,2:0:0:0:
176,224,75789,1,8,2:0:0:0:
208,300,75920,1,8,2:0:0:0:
280,340,76052,6,0,B|304:268|252:232|252:232|316:152,1,210.000008010865,4|8,0:0|2:0,0:0:0:0:
440,192,76841,1,0,0:0:0:0:
392,76,76973,1,0,0:0:0:0:
296,180,77105,1,0,0:0:0:0:
464,112,77236,1,0,0:0:0:0:
304,64,77368,1,0,0:0:0:0:
372,240,77499,2,0,L|364:176,1,52.5000020027161,0|8,0:0|2:0,0:0:0:0:
368,328,77762,1,0,0:0:0:0:
368,328,77894,2,0,B|452:340|452:340|428:308,1,105.000004005432
264,316,78420,5,2,2:0:0:0:
272,204,78552,2,0,L|280:144,1,52.5000020027161,0|8,0:0|2:0,0:0:0:0:
136,352,78815,1,2,2:0:0:0:
168,252,78947,1,0,0:0:0:0:
68,312,79078,1,0,0:0:0:0:
244,260,79210,2,0,P|209:189|96:224,1,210.000008010865,0|8,0:0|2:0,0:0:0:0:
100,48,79999,1,0,0:0:0:0:
100,48,80262,6,0,B|172:112|236:80|236:80|296:112,1,210.000008010865,0|8,0:0|2:0,0:0:0:0:
344,272,81052,2,0,L|368:208,1,52.5000020027161
228,168,81315,1,0,0:0:0:0:
256,320,81447,1,0,0:0:0:0:
320,148,81578,1,0,0:0:0:0:
196,260,81710,1,0,0:0:0:0:
188,76,81841,6,0,P|120:84|56:156,1,157.500006008148,8|0,2:0|0:0,0:0:0:0:
48,172,82368,5,0,0:0:0:0:
72,316,82631,1,0,0:0:0:0:
140,80,82894,1,8,2:0:0:0:
118,224,83157,1,0,0:0:0:0:
244,32,83420,1,0,0:0:0:0:
320,176,83684,1,0,0:0:0:0:
172,180,83947,1,8,2:0:0:0:
392,72,84210,2,0,L|452:48,1,52.5000020027161,0|8,0:0|2:0,0:0:0:0:
424,240,84473,6,0,P|364:320|276:248,1,210.000008010865,0|8,0:0|2:0,0:0:0:0:
196,168,85262,1,0,0:0:0:0:
276,140,85394,1,0,0:0:0:0:
356,112,85526,2,0,L|344:200,1,52.5000020027161
196,168,85789,2,0,L|212:64,1,105.000004005432,0|8,0:0|2:0,0:0:0:0:
80,196,86184,2,0,L|68:284,1,52.5000020027161
176,252,86578,1,0,0:0:0:0:
124,328,86841,5,2,2:0:0:0:
72,248,86973,1,0,0:0:0:0:
176,252,87105,1,8,2:0:0:0:
228,352,87236,2,0,L|324:352,2,52.5000020027161,2|0|0,2:0|0:0|0:0,0:0:0:0:
72,248,87631,2,0,L|288:256,1,210.000008010865,0|8,0:0|2:0,0:0:0:0:
280,256,88420,1,0,0:0:0:0:
288,328,88684,6,0,P|352:264|264:184,1,210.000008010865,0|8,0:0|2:0,0:0:0:0:
184,116,89473,5,0,0:0:0:0:
281,255,89605,1,0,0:0:0:0:
160,200,89736,1,0,0:0:0:0:
280,116,89868,1,0,0:0:0:0:
204,264,89999,2,0,L|204:316,1,52.5000020027161
120,136,90262,2,0,P|88:184|136:272,1,157.500006008148,8|0,2:0|0:0,0:0:0:0:
248,356,90789,5,0,0:0:0:0:
384,336,91052,1,0,0:0:0:0:
368,168,91315,1,8,2:0:0:0:
388,324,91578,1,0,0:0:0:0:
416,112,91841,6,0,P|364:95|300:136,1,105.000004005432
256,264,92368,2,8,P|208:272|176:272,2,52.5000020027161,8|8|8,2:0|2:0|2:0,2:0:0:0:
128,124,92894,5,4,0:0:0:0:
268,164,93026,1,0,0:0:0:0:
180,40,93157,1,0,0:0:0:0:
180,204,93289,1,0,0:0:0:0:
272,64,93420,5,8,2:0:0:0:
100,208,93552,1,0,0:0:0:0:
132,108,93684,1,0,0:0:0:0:
264,180,93815,1,0,0:0:0:0:
100,208,93947,6,0,L|88:292,1,52.5000020027161
16,88,94210,2,0,L|28:4,1,52.5000020027161
172,212,94473,2,0,P|104:136|32:232,1,210.000008010865,8|0,2:0|0:0,0:0:0:0:
152,308,95131,5,0,0:0:0:0:
328,228,95262,1,0,0:0:0:0:
236,356,95394,1,0,0:0:0:0:
296,165,95526,1,8,2:0:0:0:
240,344,95657,5,0,0:0:0:0:
208,176,95789,1,0,0:0:0:0:
296,300,95920,1,0,0:0:0:0:
100,208,96052,2,0,P|70:164|140:63,1,157.500006008148
296,165,96578,2,0,L|95:137,1,157.500006008148,8|0,2:0|0:0,0:0:0:0:
424,161,97105,5,4,0:0:0:0:
316,261,97236,1,0,0:0:0:0:
344,97,97368,1,0,0:0:0:0:
404,277,97499,1,0,0:0:0:0:
292,265,97631,5,8,2:0:0:0:
436,153,97762,1,0,0:0:0:0:
296,165,97894,1,0,0:0:0:0:
352,321,98026,1,0,0:0:0:0:
364,137,98157,5,0,0:0:0:0:
292,265,98289,1,0,0:0:0:0:
408,285,98420,1,0,0:0:0:0:
288,153,98552,1,0,0:0:0:0:
364,345,98684,2,0,P|448:349|464:237,1,210.000008010865,8|0,2:0|0:0,0:0:0:0:
208,256,99341,5,0,0:0:0:0:
352,212,99473,1,0,0:0:0:0:
264,344,99605,1,0,0:0:0:0:
244,160,99736,1,8,2:0:0:0:
340,292,99868,5,0,0:0:0:0:
164,176,99999,1,0,0:0:0:0:
264,344,100131,1,0,0:0:0:0:
256,348,100394,5,0,0:0:0:0:
132,312,100525,1,0,0:0:0:0:
124,316,100789,1,8,2:0:0:0:
112,200,101052,2,0,L|56:216,1,52.5000020027161,0|8,0:0|2:0,0:0:0:0:
96,92,101315,5,4,0:0:0:0:
56,236,101447,1,0,0:0:0:0:
184,156,101578,1,2,2:0:0:0:
20,148,101710,1,0,0:0:0:0:
160,96,101841,5,8,2:0:0:0:
48,260,101973,1,0,0:0:0:0:
12,172,102105,1,2,2:0:0:0:
172,72,102236,1,0,0:0:0:0:
240,248,102368,5,0,0:0:0:0:
184,48,102499,1,0,0:0:0:0:
140,256,102631,1,2,2:0:0:0:
288,96,102762,1,0,0:0:0:0:
156,184,102894,2,0,P|76:214|112:324,1,210.000008010865,8|4,2:0|0:0,0:0:0:0:
292,224,103552,5,0,0:0:0:0:
200,348,103684,1,2,2:0:0:0:
340,276,103815,1,0,0:0:0:0:
140,256,103947,1,8,2:0:0:0:
240,152,104078,5,0,0:0:0:0:
271,332,104210,1,2,2:0:0:0:
232,164,104341,1,0,0:0:0:0:
200,348,104473,1,0,0:0:0:0:
312,240,104605,6,0,L|368:220,2,52.5000020027161,0|2|0,0:0|2:0|0:0,0:0:0:0:
200,212,104999,2,0,B|152:364|152:364|232:336,1,210.000008010865,8|4,2:0|0:0,0:0:0:0:
288,152,105657,5,0,0:0:0:0:
272,300,105789,1,2,2:0:0:0:
352,184,105920,1,0,0:0:0:0:
184,296,106052,1,8,2:0:0:0:
216,152,106184,5,0,0:0:0:0:
372,272,106315,1,2,2:0:0:0:
296,120,106447,1,0,0:0:0:0:
268,328,106578,6,0,L|196:344,1,52.5000020027161
424,216,106841,2,0,L|508:208,1,52.5000020027161,2|0,2:0|0:0,0:0:0:0:
296,120,107105,2,0,L|256:264,1,140,8|4,2:0|0:0,0:0:0:0:
204,144,107762,5,0,0:0:0:0:
200,344,107894,1,2,2:0:0:0:
152,232,108026,1,0,0:0:0:0:
304,316,108157,1,8,2:0:0:0:
376,212,108289,5,0,0:0:0:0:
376,212,108420,2,0,L|392:108,1,105.000004005432,2|0,2:0|0:0,0:0:0:0:
484,208,108947,2,0,L|500:312,2,105.000004005432,0|8|0,0:0|2:0|0:0,0:0:0:0:
408,312,109605,2,0,L|352:292,1,52.5000020027161,8|4,2:0|0:0,0:0:0:0:
