osu file format v14

[General]
AudioFilename: nightcore___I_Like_It_Loud.mp3
AudioLeadIn: 0
PreviewTime: 46467
Countdown: 0
SampleSet: Normal
StackLeniency: 0.7
Mode: 0
LetterboxInBreaks: 0
WidescreenStoryboard: 1

[Editor]
Bookmarks: 9774,28216,46659,46755,58954,71249,83929,95839,108134,111208,120430,123503,135798,148093,160389,166536
DistanceSpacing: 1.2
BeatDivisor: 4
GridSize: 4
TimelineZoom: 1.9

[Metadata]
Title:I Like It Loud (Nightcore Remix)
TitleUnicode:I Like It Loud (Nightcore Remix)
Artist:Cash Cash
ArtistUnicode:Cash Cash
Creator:Sir Wali
Version:LOUUUDER
Source:
Tags:dupstep nightcore
BeatmapID:1476230
BeatmapSetID:182997

[Difficulty]
HPDrainRate:6
CircleSize:4
OverallDifficulty:7
ApproachRate:9.3
SliderMultiplier:1.9
SliderTickRate:2

[Events]
//Background and Video events
0,0,"super-sonico-feel-the-sound-106053.jpg",0,0
//Break Periods
2,96039,107580
2,120630,121412
//Storyboard Layer 0 (Background)
//Storyboard Layer 1 (Fail)
//Storyboard Layer 2 (Pass)
//Storyboard Layer 3 (Foreground)
//Storyboard Sound Samples

[TimingPoints]
553,384.22131147541,4,2,0,50,1,0
9768,-100,4,2,1,40,0,0
14378,-100,4,3,0,30,0,0
15153,-200,4,3,0,30,0,0
15915,-100,4,1,0,60,0,0
16011,-100,4,2,1,60,0,0
17074,-133.333333333333,4,2,1,60,0,0
18611,-100,4,2,1,60,0,0
19758,-100,4,1,0,85,0,0
19950,-100,4,2,1,60,0,0
20148,-133.333333333333,4,2,1,60,0,0
22069,-100,4,2,1,60,0,0
23222,-133.333333333333,4,2,1,60,0,0
25143,-100,4,2,1,60,0,0
26295,-133.333333333333,4,2,1,60,0,0
27250,-100,4,2,1,80,0,0
28306,-100,4,3,1,60,0,0
40506,-100,4,1,0,50,0,0
40890,-100,4,3,0,30,0,0
46653,-100,4,1,1,55,0,1
58948,-100,4,1,0,90,0,1
59044,-100,4,1,1,55,0,1
71249,-100,4,1,1,50,0,0
72978,-100,4,2,1,70,0,0
74323,-100,4,1,1,50,0,0
76052,-100,4,2,1,70,0,0
76628,-100,4,1,1,50,0,0
76724,-100,4,2,1,70,0,0
77397,-100,4,1,1,50,0,0
79126,-100,4,2,1,70,0,0
80471,-100,4,1,1,50,0,0
82200,-100,4,2,1,70,0,0
83544,-100,4,1,1,50,0,0
92766,-133.333333333333,4,3,0,20,0,0
108038,-133.333333333333,4,1,0,20,0,0
108327,-200,4,2,0,50,0,0
121966,-100,4,3,0,25,0,0
123119,-100,4,1,1,30,0,0
123503,-100,4,1,1,50,0,0
125232,-100,4,2,1,70,0,0
126577,-100,4,1,1,50,0,0
128306,-100,4,2,1,70,0,0
128882,-100,4,1,1,60,0,0
129075,-100,4,2,1,70,0,0
129651,-100,4,1,1,50,0,0
131380,-100,4,2,1,70,0,0
132725,-100,4,2,1,70,0,0
133301,-100,4,2,2,70,0,0
133493,-100,4,2,1,70,0,0
135414,-100,4,1,0,70,0,0
135798,-100,4,1,1,55,0,1
164999,-100,4,2,1,70,0,1
166152,-100,4,1,1,70,0,1
166536,-86.9565217391304,4,1,1,50,0,0

[Colours]
Combo1 : 0,255,255
Combo2 : 255,128,64
Combo3 : 0,128,192
Combo4 : 255,128,255

[HitObjects]
116,132,3626,6,0,P|160:112|240:116,1,95,2|0,0:0|0:0,0:0:0:0:
296,164,3914,2,0,L|296:264,1,95,2|0,0:0|0:0,0:0:0:0:
372,332,4203,2,0,P|420:332|460:304,1,95,2|0,0:0|0:0,0:0:0:0:
388,236,4491,2,0,L|272:236,1,95,2|0,0:0|0:0,0:0:0:0:
188,236,4779,2,0,B|136:216|136:216|96:172,2,95,2|0|0,0:0|0:0|0:0,0:0:0:0:
364,128,5355,5,2,0:0:0:0:
109,186,5547,1,2,0:0:0:0:
284,272,5739,1,2,0:0:0:0:
372,80,5932,2,0,L|256:76,1,95,2|2,0:0|0:0,0:0:0:0:
84,160,6316,2,0,L|188:172,1,95,2|0,0:0|0:0,0:0:0:0:
220,208,6604,1,0,0:0:0:0:
264,244,6700,6,0,L|376:252,1,95,2|0,0:0|0:0,0:0:0:0:
452,184,6988,2,0,L|456:80|456:80,1,95,2|0,0:0|0:0,0:0:0:0:
356,52,7276,2,0,L|352:156,1,95,2|0,0:0|0:0,0:0:0:0:
316,248,7565,2,0,B|292:292|292:292|240:312,1,95,2|0,0:0|0:0,0:0:0:0:
145,308,7853,2,0,B|103:291|103:291|79:247,2,95,2|0|2,0:0|0:0|0:0,0:0:0:0:
332,220,8429,5,2,0:0:0:0:
444,44,8621,1,2,0:0:0:0:
240,88,8813,1,2,0:0:0:0:
188,192,9005,2,0,L|152:284,1,95,2|0,0:0|0:0,0:0:0:0:
256,268,9294,2,0,L|312:116,1,142.5,0|0,0:0|0:0,0:0:0:0:
492,40,9774,6,0,P|456:96|472:164,1,95,8|0,0:0|0:0,0:0:0:0:
472,180,10062,1,0,0:0:0:0:
472,236,10158,2,0,L|368:300,1,95,8|0,0:0|0:0,0:0:0:0:
164,288,10542,2,0,L|124:196,1,95,8|0,0:0|0:0,0:0:0:0:
280,48,10926,2,0,L|248:236,1,190,8|8,0:0|0:0,0:0:0:0:
420,116,11503,6,0,L|424:192,1,47.5,0|0,0:0|0:0,0:0:0:0:
344,232,11695,2,0,L|324:140,1,95,8|0,0:0|0:0,0:0:0:0:
296,88,11983,1,0,0:0:0:0:
248,56,12079,2,0,P|196:48|136:64,1,95,8|0,0:0|0:0,0:0:0:0:
72,228,12463,2,0,P|160:260|240:236,1,142.5,8|0,0:0|0:0,0:0:0:0:
304,212,12848,6,0,L|320:156,1,47.5,8|0,0:0|0:0,0:0:0:0:
412,124,13040,2,0,L|428:184,1,47.5,8|0,0:0|0:0,0:0:0:0:
436,316,13232,2,0,L|416:260,1,47.5,8|0,0:0|0:0,0:0:0:0:
315,271,13424,2,0,L|287:323,1,47.5,8|0,0:0|0:0,0:0:0:0:
168,264,13616,6,0,L|190:222,1,47.5,8|0,0:0|0:0,0:0:0:0:
268,120,13808,2,0,L|280:176,1,47.5,8|0,0:0|0:0,0:0:0:0:
292,312,14000,2,0,L|317:261,1,47.5,8|0,0:0|0:0,0:0:0:0:
408,212,14192,2,0,L|407:143,1,47.5,8|0,0:0|0:0,0:0:0:0:
296,76,14384,5,4,0:0:0:0:
251,60,14480,1,4,0:0:0:0:
204,62,14576,1,4,0:0:0:0:
160,80,14672,1,4,0:0:0:0:
126,112,14768,1,4,0:0:0:0:
106,155,14864,1,4,0:0:0:0:
102,202,14960,1,4,0:0:0:0:
120,248,15057,1,4,0:0:0:0:
144,284,15153,5,4,0:0:0:0:
167,284,15249,1,4,0:0:0:0:
191,284,15345,1,4,0:0:0:0:
215,285,15441,1,4,0:0:0:0:
238,285,15537,1,4,0:0:0:0:
262,286,15633,1,0,0:0:0:0:
286,286,15729,1,0,0:0:0:0:
310,287,15825,1,0,0:0:0:0:
368,288,15921,6,0,L|424:196,1,95,4|0,0:0|0:0,0:0:0:0:
472,104,16306,2,0,B|488:52|488:52|428:72,1,95,4|0,0:0|0:0,0:0:0:0:
352,120,16690,1,8,0:0:0:0:
176,312,16882,1,0,0:0:0:0:
264,216,17074,6,0,L|376:208,1,106.875004076958,4|0,0:0|0:0,0:0:0:0:
300,128,17458,2,0,L|160:136,1,106.875004076958,8|0,0:0|0:0,0:0:0:0:
260,48,17842,2,0,L|380:40,1,106.875004076958,4|0,0:0|0:0,0:0:0:0:
464,88,18227,2,0,B|476:124|476:124|508:152|508:152|512:180,1,106.875004076958,8|0,0:0|0:0,0:0:0:0:
432,296,18611,6,0,P|368:324|224:288,1,190,4|8,0:0|0:0,0:0:0:0:
160,240,19187,1,0,0:0:0:0:
196,132,19379,2,0,L|236:44,1,95,4|0,0:0|0:0,0:0:0:0:
349,45,19764,2,2,B|376:96|376:96|400:84|400:84|444:158,1,142.5,2|0,0:0|0:0,0:0:0:0:
440,296,20148,6,0,B|440:332|440:332|396:332|396:332|352:332,1,106.875004076958,4|0,0:0|0:0,0:0:0:0:
264,280,20532,2,0,L|152:280,1,106.875004076958,8|0,0:0|0:0,0:0:0:0:
236,192,20916,2,0,L|396:192,1,142.500005435944,4|8,0:0|0:0,0:0:0:0:
184,56,21493,6,0,L|152:100,1,35.625001358986,0|0,0:0|0:0,0:0:0:0:
56,108,21686,2,0,L|88:160,1,35.625001358986,4|0,0:0|0:0,0:0:0:0:
151,224,21878,1,0,0:0:0:0:
183,278,21974,1,0,0:0:0:0:
211,326,22070,1,8,0:0:0:0:
472,320,22261,5,0,0:0:0:0:
400,220,22453,2,0,L|376:108,1,95,4|0,0:0|0:0,0:0:0:0:
300,220,22837,2,0,P|312:276|344:300,1,95,8|0,0:0|0:0,0:0:0:0:
484,124,23222,6,0,P|472:68|412:40,1,106.875004076958,4|0,0:0|0:0,0:0:0:0:
315,42,23606,2,0,L|187:42,1,106.875004076958,8|0,0:0|0:0,0:0:0:0:
104,96,23990,2,0,B|68:128|68:128|68:208,1,106.875004076958,4|0,0:0|0:0,0:0:0:0:
140,280,24374,1,8,0:0:0:0:
188,308,24470,1,0,0:0:0:0:
244,328,24566,1,0,0:0:0:0:
300,332,24662,1,0,0:0:0:0:
352,336,24758,2,0,L|356:188,1,142.500005435944,4|8,0:0|0:0,0:0:0:0:
160,104,25335,5,0,0:0:0:0:
256,184,25527,2,0,L|272:284,1,95,4|0,0:0|0:0,0:0:0:0:
376,341,25911,1,8,0:0:0:0:
256,184,26103,1,0,0:0:0:0:
64,48,26295,6,0,B|32:32|32:32|32:120,1,106.875004076958,4|0,0:0|0:0,0:0:0:0:
96,204,26680,2,0,P|100:260|68:304,1,106.875004076958,8|0,0:0|0:0,0:0:0:0:
108,132,27064,2,0,L|148:84,1,35.625001358986,4|0,0:0|0:0,0:0:0:0:
252,108,27256,6,0,P|280:112|300:128,1,47.5,2|2,0:0|0:0,0:0:0:0:
328,200,27448,2,0,L|328:304,1,95,2|2,0:0|0:0,0:0:0:0:
260,312,27736,1,2,0:0:0:0:
304,252,27832,2,0,L|376:160,2,95,0|2|2,0:0|0:0|0:0,0:0:0:0:
44,316,28409,5,0,0:0:0:0:
164,240,28601,1,4,0:0:0:0:
288,312,28793,1,0,0:0:0:0:
164,240,28985,2,0,P|140:200|136:144,1,95,8|0,0:0|0:0,0:0:0:0:
244,68,29369,2,0,L|244:172,1,95,4|0,0:0|0:0,0:0:0:0:
144,336,29753,5,8,0:0:0:0:
352,216,29945,1,0,0:0:0:0:
136,212,30138,1,4,0:0:0:0:
352,340,30330,1,0,0:0:0:0:
136,216,30522,1,8,0:0:0:0:
432,324,30906,6,0,L|436:268,1,47.5,4|0,0:0|0:0,0:0:0:0:
352,156,31098,2,0,L|344:216,1,47.5
284,328,31290,2,0,P|228:280|228:224,1,95,8|0,0:0|0:0,0:0:0:0:
240,64,31674,5,4,0:0:0:0:
188,288,31867,1,0,0:0:0:0:
268,76,32059,1,8,0:0:0:0:
148,304,32251,1,0,0:0:0:0:
284,100,32443,2,0,P|288:160|268:192,1,95,4|0,0:0|0:0,0:0:0:0:
168,288,32827,5,8,0:0:0:0:
400,184,33019,1,0,0:0:0:0:
160,156,33211,1,4,0:0:0:0:
388,328,33403,1,0,0:0:0:0:
160,156,33596,1,8,0:0:0:0:
472,304,33980,6,0,L|448:224,1,47.5,4|0,0:0|0:0,0:0:0:0:
324,260,34172,2,0,L|280:200,1,47.5
184,180,34364,2,0,L|151:75,1,95,8|0,0:0|0:0,0:0:0:0:
76,20,34748,1,4,0:0:0:0:
184,180,34940,1,0,0:0:0:0:
356,108,35132,1,8,0:0:0:0:
155,89,35325,2,0,L|47:101,1,95,0|4,0:0|0:0,0:0:0:0:
0,196,35709,1,0,0:0:0:0:
88,268,35901,6,0,P|144:296|252:276,1,142.5,8|0,0:0|0:0,0:0:0:0:
316,236,36285,2,0,L|312:108,1,95,4|0,0:0|0:0,0:0:0:0:
400,53,36669,2,0,L|404:156,1,95,8|0,0:0|0:0,0:0:0:0:
356,264,37054,2,0,P|312:192|200:172,1,190,4|0,0:0|0:0,0:0:0:0:
214,168,37822,5,4,0:0:0:0:
416,336,38014,1,0,0:0:0:0:
396,120,38206,1,8,0:0:0:0:
200,304,38398,1,0,0:0:0:0:
56,324,38590,2,0,B|8:348|8:348|84:204,1,190,4|8,0:0|0:0,0:0:0:0:
340,104,39167,5,0,0:0:0:0:
224,288,39359,1,4,0:0:0:0:
160,84,39551,1,0,0:0:0:0:
344,224,39743,2,0,L|396:328,1,95,8|0,0:0|0:0,0:0:0:0:
428,184,40127,2,0,P|344:132|256:192,1,190,4|4,0:0|0:0,0:0:0:0:
52,288,40896,5,4,0:0:0:0:
48,272,40992,1,0,0:0:0:0:
44,256,41088,1,0,0:0:0:0:
168,188,41280,1,4,0:0:0:0:
176,200,41376,1,0,0:0:0:0:
184,212,41472,1,0,0:0:0:0:
316,176,41664,1,4,0:0:0:0:
308,164,41760,1,0,0:0:0:0:
300,152,41856,1,0,0:0:0:0:
156,80,42048,6,0,L|76:100,1,47.5,4|0,0:0|0:0,0:0:0:0:
109,211,42241,2,0,L|177:235,1,47.5,4|0,0:0|0:0,0:0:0:0:
272,226,42433,2,0,L|340:204,1,47.5,4|0,0:0|0:0,0:0:0:0:
317,92,42625,2,0,L|266:73,1,47.5,4|0,0:0|0:0,0:0:0:0:
144,172,42817,6,0,L|136:232,1,47.5,4|0,0:0|0:0,0:0:0:0:
137,337,43009,2,0,L|198:357,1,47.5,4|0,0:0|0:0,0:0:0:0:
300,351,43201,2,0,L|366:339,1,47.5,4|0,0:0|0:0,0:0:0:0:
346,223,43393,2,0,L|336:176,1,47.5,4|0,0:0|0:0,0:0:0:0:
256,92,43585,5,4,0:0:0:0:
212,76,43681,1,4,0:0:0:0:
168,64,43777,1,4,0:0:0:0:
120,56,43873,1,4,0:0:0:0:
72,60,43969,1,4,0:0:0:0:
44,96,44065,1,4,0:0:0:0:
68,136,44161,1,4,0:0:0:0:
92,176,44257,1,4,0:0:0:0:
108,220,44353,1,4,0:0:0:0:
108,268,44449,1,4,0:0:0:0:
84,308,44545,1,4,0:0:0:0:
40,320,44641,1,4,0:0:0:0:
8,304,44737,1,4,0:0:0:0:
0,256,44833,1,4,0:0:0:0:
0,208,44929,1,4,0:0:0:0:
8,160,45025,1,4,0:0:0:0:
40,116,45122,5,6,0:0:0:0:
84,80,45218,1,6,0:0:0:0:
136,60,45314,1,6,0:0:0:0:
192,52,45410,1,6,0:0:0:0:
248,40,45506,1,6,0:0:0:0:
304,32,45602,1,6,0:0:0:0:
360,32,45698,1,6,0:0:0:0:
412,52,45794,1,6,0:0:0:0:
456,88,45890,1,6,0:0:0:0:
436,140,45986,1,6,0:0:0:0:
420,196,46082,1,6,0:0:0:0:
440,248,46178,1,6,0:0:0:0:
488,280,46274,1,6,0:0:0:0:
456,264,46659,6,0,L|444:160|444:160,1,95,8|0,0:0|0:0,0:0:0:0:
408,120,46947,1,0,0:0:0:0:
364,80,47043,2,0,P|308:72|240:80,1,95,4|0,0:0|0:0,0:0:0:0:
64,124,47428,2,0,L|56:184,1,47.5,8|0,0:0|0:0,0:0:0:0:
132,304,47620,2,0,L|152:236,1,47.5,0|0,0:0|0:0,0:0:0:0:
212,136,47812,2,0,B|252:108|252:108|340:112,1,95,4|0,0:0|0:0,0:0:0:0:
204,256,48196,6,0,P|152:240|112:172,1,95,8|0,0:0|0:0,0:0:0:0:
364,80,48580,1,4,0:0:0:0:
44,152,48772,1,0,0:0:0:0:
296,216,48964,2,0,P|344:208|411:203,1,95,8|0,0:0|0:0,0:0:0:0:
204,280,49349,2,0,P|156:288|52:232,1,142.5,4|0,0:0|0:0,0:0:0:0:
212,188,49733,6,0,P|264:208|292:268,1,95,8|0,0:0|0:0,0:0:0:0:
308,292,50021,1,0,0:0:0:0:
324,348,50117,2,0,L|370:247,1,95,4|0,0:0|0:0,0:0:0:0:
400,48,50501,2,0,L|360:144,1,95,8|0,0:0|0:0,0:0:0:0:
284,284,50885,2,0,B|216:332|216:332|96:316,1,190,4|8,0:0|0:0,0:0:0:0:
36,184,51462,5,0,0:0:0:0:
296,44,51654,1,4,0:0:0:0:
32,32,51846,1,0,0:0:0:0:
192,184,52038,2,0,P|212:232|156:348,1,190,8|4,0:0|0:0,0:0:0:0:
100,340,52518,1,0,0:0:0:0:
56,304,52614,1,0,0:0:0:0:
52,248,52711,1,0,0:0:0:0:
68,192,52807,6,0,L|92:80,1,95,8|0,0:0|0:0,0:0:0:0:
104,152,53095,1,0,0:0:0:0:
132,200,53191,2,0,P|160:256|188:276,1,95,4|0,0:0|0:0,0:0:0:0:
364,252,53575,2,0,L|440:236,1,47.5,8|0,0:0|0:0,0:0:0:0:
264,172,53767,2,0,L|200:156,1,47.5
344,96,53959,2,0,L|452:60,1,95,4|0,0:0|0:0,0:0:0:0:
288,120,54343,5,8,0:0:0:0:
48,208,54536,1,0,0:0:0:0:
304,312,54728,1,4,0:0:0:0:
160,56,54920,1,0,0:0:0:0:
208,212,55112,2,0,P|224:272|316:304,1,142.5,8|0,0:0|0:0,0:0:0:0:
284,168,55496,2,0,P|204:124|120:184,1,190,4|8,0:0|0:0,0:0:0:0:
64,288,56072,5,0,0:0:0:0:
340,216,56265,1,4,0:0:0:0:
160,72,56457,1,0,0:0:0:0:
240,336,56649,1,8,0:0:0:0:
340,216,56841,1,0,0:0:0:0:
160,72,57033,2,0,P|220:44|348:84,1,190,4|8,0:0|0:0,0:0:0:0:
335,72,57609,5,0,0:0:0:0:
112,312,57801,1,4,0:0:0:0:
120,108,57994,1,0,0:0:0:0:
352,316,58186,1,8,0:0:0:0:
352,316,58570,5,4,0:0:0:0:
368,260,58666,1,0,0:0:0:0:
372,204,58762,1,0,0:0:0:0:
360,148,58858,1,0,0:0:0:0:
312,116,58954,6,0,L|200:116,1,95,4|0,0:0|0:0,0:0:0:0:
168,140,59242,1,0,0:0:0:0:
128,180,59338,2,0,B|108:228|108:228|132:292,1,95,4|0,0:0|0:0,0:0:0:0:
272,344,59723,2,0,L|308:296,1,47.5,8|0,0:0|0:0,0:0:0:0:
308,168,59915,2,0,L|284:120,1,47.5
196,16,60107,2,0,P|196:72|172:108,1,95,4|0,0:0|0:0,0:0:0:0:
44,240,60491,5,8,0:0:0:0:
204,148,60683,1,0,0:0:0:0:
344,60,60875,2,0,L|440:40,1,95,4|0,0:0|0:0,0:0:0:0:
276,160,61259,2,0,L|156:192,1,95,8|0,0:0|0:0,0:0:0:0:
340,268,61644,2,0,P|419:243|436:184,1,142.5,4|0,0:0|0:0,0:0:0:0:
384,120,62028,6,0,L|248:120,1,95,8|0,0:0|0:0,0:0:0:0:
200,144,62316,2,0,L|136:160,1,47.5,0|4,0:0|0:0,0:0:0:0:
152,276,62604,2,0,L|252:296,1,95,0|8,0:0|0:0,0:0:0:0:
300,312,62892,1,0,0:0:0:0:
356,296,62988,2,0,L|468:276,1,95,0|4,0:0|0:0,0:0:0:0:
472,44,63373,5,0,0:0:0:0:
364,140,63565,1,8,0:0:0:0:
504,340,63757,1,0,0:0:0:0:
348,260,63949,2,0,P|292:240|228:240,1,95,4|0,0:0|0:0,0:0:0:0:
40,316,64333,2,0,P|60:272|28:120,1,190,8|4,0:0|0:0,0:0:0:0:
84,172,64814,5,0,0:0:0:0:
132,204,64910,1,0,0:0:0:0:
188,220,65006,1,0,0:0:0:0:
244,220,65102,2,0,L|352:220,1,95,8|0,0:0|0:0,0:0:0:0:
392,196,65390,1,0,0:0:0:0:
416,144,65486,2,0,P|448:188|444:240,1,95,4|0,0:0|0:0,0:0:0:0:
168,256,65870,6,0,L|112:252,1,47.5,8|0,0:0|0:0,0:0:0:0:
20,136,66062,2,0,L|76:124,1,47.5
216,224,66254,2,0,P|228:276|196:308,1,95,4|0,0:0|0:0,0:0:0:0:
72,172,66639,2,0,P|124:120|184:120,1,95,8|0,0:0|0:0,0:0:0:0:
412,256,67023,1,4,0:0:0:0:
316,68,67215,1,0,0:0:0:0:
216,304,67407,1,8,0:0:0:0:
216,304,67791,2,0,P|204:240|296:148,1,190,4|8,0:0|0:0,0:0:0:0:
416,104,68368,6,0,B|472:92|472:92|488:136,1,95,0|4,0:0|0:0,0:0:0:0:
416,320,68752,1,0,0:0:0:0:
272,112,68944,1,8,0:0:0:0:
368,344,69136,1,0,0:0:0:0:
328,88,69328,1,4,0:0:0:0:
320,328,69520,1,0,0:0:0:0:
172,108,69712,5,8,0:0:0:0:
116,312,69904,1,0,0:0:0:0:
216,108,70097,1,4,0:0:0:0:
92,292,70289,1,0,0:0:0:0:
224,232,70481,2,0,L|360:168,1,142.5,8|0,0:0|0:0,0:0:0:0:
280,112,70865,2,0,L|96:196,1,190,4|8,0:0|0:0,0:0:0:0:
368,280,71441,5,0,0:0:0:0:
336,332,71537,1,0,0:0:0:0:
152,296,71729,1,0,0:0:0:0:
108,260,71825,1,0,0:0:0:0:
96,200,71921,1,0,0:0:0:0:
112,144,72017,2,0,L|128:68,1,47.5,8|0,0:0|0:0,0:0:0:0:
260,100,72209,2,0,L|280:160,1,47.5
412,176,72401,2,0,P|452:132|384:20,1,190,0|8,0:0|0:0,0:0:0:0:
88,204,72978,5,0,0:0:0:0:
344,312,73170,1,0,0:0:0:0:
252,64,73362,1,0,0:0:0:0:
156,328,73555,1,8,0:0:0:0:
380,164,73747,1,0,0:0:0:0:
108,88,73939,2,0,P|56:160|136:248,1,190,0|8,0:0|0:0,0:0:0:0:
252,292,74515,5,0,0:0:0:0:
304,320,74611,1,0,0:0:0:0:
412,144,74803,1,0,0:0:0:0:
364,108,74899,1,0,0:0:0:0:
304,104,74995,1,0,0:0:0:0:
252,116,75091,2,0,L|164:136,1,47.5,8|0,0:0|0:0,0:0:0:0:
80,208,75284,2,0,L|132:232,1,47.5
332,248,75476,2,0,P|369:236|376:108,1,190,0|8,0:0|0:0,0:0:0:0:
56,184,76052,5,0,0:0:0:0:
284,336,76244,1,0,0:0:0:0:
248,72,76436,1,0,0:0:0:0:
144,304,76628,1,10,0:0:0:0:
392,204,76820,1,0,0:0:0:0:
136,68,77013,2,0,B|84:80|84:80|96:132|96:132|64:144|64:144|72:200,1,190,0|8,0:0|0:0,0:0:0:0:
412,288,77589,6,0,L|484:284,1,47.5,0|0,0:0|0:0,0:0:0:0:
272,204,77877,2,0,L|196:192,1,47.5
88,176,78069,2,0,P|64:176|48:192,1,47.5,0|8,0:0|0:0,0:0:0:0:
48,248,78261,1,0,0:0:0:0:
76,300,78357,1,0,0:0:0:0:
124,332,78453,1,0,0:0:0:0:
180,348,78549,2,0,L|376:348,1,190,0|8,0:0|0:0,0:0:0:0:
370,348,79126,5,0,0:0:0:0:
428,100,79318,1,0,0:0:0:0:
240,208,79510,1,0,0:0:0:0:
456,324,79702,1,8,0:0:0:0:
304,64,79894,1,0,0:0:0:0:
256,248,80086,2,0,P|236:296|348:328,1,190,0|8,0:0|0:0,0:0:0:0:
436,188,80663,6,0,L|420:136,1,47.5,0|0,0:0|0:0,0:0:0:0:
356,56,80951,1,0,0:0:0:0:
332,108,81047,1,0,0:0:0:0:
316,164,81143,1,0,0:0:0:0:
296,216,81239,2,0,L|272:296,1,47.5,8|0,0:0|0:0,0:0:0:0:
172,328,81431,2,0,L|192:264,1,47.5
203,151,81623,2,0,P|203:91|83:63,1,190,0|8,0:0|0:0,0:0:0:0:
96,55,82200,5,0,0:0:0:0:
132,284,82392,1,0,0:0:0:0:
288,88,82584,1,0,0:0:0:0:
40,144,82776,1,8,0:0:0:0:
272,248,82968,1,0,0:0:0:0:
160,60,83160,2,0,B|120:24|120:24|144:164,1,190,0|0,0:0|0:0,0:0:0:0:
236,300,83832,5,0,0:0:0:0:
236,300,83929,2,0,L|276:200,1,95,4|0,0:0|0:0,0:0:0:0:
312,164,84217,1,0,0:0:0:0:
360,120,84313,2,0,L|396:28,1,95,4|0,0:0|0:0,0:0:0:0:
96,100,84697,2,0,P|48:180|84:256,1,142.5,4|0,0:0|0:0,0:0:0:0:
92,268,85081,5,4,0:0:0:0:
288,224,85273,1,0,0:0:0:0:
92,300,85465,1,4,0:0:0:0:
288,184,85658,1,0,0:0:0:0:
92,332,85850,1,4,0:0:0:0:
288,144,86042,1,0,0:0:0:0:
92,364,86234,1,4,0:0:0:0:
288,104,86426,2,0,L|312:56,2,47.5,4|0|4,0:0|0:0|0:0,0:0:0:0:
288,144,86714,6,0,L|284:280,1,95,0|0,0:0|0:0,0:0:0:0:
368,320,87002,2,0,L|372:208,1,95,4|0,0:0|0:0,0:0:0:0:
411,184,87290,1,0,0:0:0:0:
436,132,87387,2,0,P|448:32|448:32,1,95,4|0,0:0|0:0,0:0:0:0:
336,136,87771,2,0,P|328:220|408:268,1,142.5,4|0,0:0|0:0,0:0:0:0:
420,276,88155,5,4,0:0:0:0:
312,84,88347,1,0,0:0:0:0:
216,292,88539,1,4,0:0:0:0:
456,156,88731,1,0,0:0:0:0:
184,136,88923,1,4,0:0:0:0:
336,304,89116,1,0,0:0:0:0:
324,48,89308,1,4,0:0:0:0:
336,304,89500,2,0,L|360:352,1,47.5,4|0,0:0|0:0,0:0:0:0:
460,312,89692,6,0,L|400:220,1,95,4|0,0:0|0:0,0:0:0:0:
332,172,89980,1,0,0:0:0:0:
332,172,90076,2,0,P|260:132|248:132,1,95,8|0,0:0|0:0,0:0:0:0:
104,124,90364,1,0,0:0:0:0:
104,124,90460,2,0,P|156:148|200:124,1,95,8|0,0:0|0:0,0:0:0:0:
316,84,90748,1,0,0:0:0:0:
316,84,90845,2,0,P|364:68|416:88,1,95,8|0,0:0|0:0,0:0:0:0:
360,168,91133,5,0,0:0:0:0:
360,168,91229,2,0,L|364:264,1,95,8|0,0:0|0:0,0:0:0:0:
288,328,91517,1,0,0:0:0:0:
288,328,91613,2,0,L|284:212,1,95,8|0,0:0|0:0,0:0:0:0:
264,120,91901,1,0,0:0:0:0:
264,120,91997,2,0,L|177:73,1,95,8|0,0:0|0:0,0:0:0:0:
128,56,92285,1,0,0:0:0:0:
72,68,92381,1,8,0:0:0:0:
48,240,92574,2,0,L|8:284,2,47.5,0|0|4,0:0|0:0|0:0,0:0:0:0:
104,148,92862,5,4,0:0:0:0:
132,180,92958,1,4,0:0:0:0:
148,220,93054,1,4,0:0:0:0:
152,264,93150,1,4,0:0:0:0:
140,304,93246,1,4,0:0:0:0:
116,340,93342,1,4,0:0:0:0:
76,356,93438,5,4,0:0:0:0:
32,360,93534,1,4,0:0:0:0:
0,336,93630,1,4,0:0:0:0:
8,292,93726,1,4,0:0:0:0:
24,252,93822,1,4,0:0:0:0:
54,221,93918,1,4,0:0:0:0:
84,190,94014,1,4,0:0:0:0:
124,176,94110,1,4,0:0:0:0:
168,180,94206,1,4,0:0:0:0:
216,192,94303,5,8,0:0:0:0:
260,212,94399,1,0,0:0:0:0:
288,252,94495,1,8,0:0:0:0:
316,292,94591,1,0,0:0:0:0:
356,324,94687,1,8,0:0:0:0:
404,324,94783,1,0,0:0:0:0:
448,300,94879,5,8,0:0:0:0:
480,260,94975,1,0,0:0:0:0:
468,212,95071,1,8,0:0:0:0:
432,176,95167,1,0,0:0:0:0:
384,160,95263,1,8,0:0:0:0:
336,148,95359,1,0,0:0:0:0:
296,132,95455,2,0,P|224:112|152:120,1,142.500005435944,8|12,0:0|0:0,0:0:0:0:
264,192,108134,5,4,0:0:0:0:
331,259,108327,1,0,0:0:0:0:
196,124,108519,2,0,L|132:120,1,47.5,0|0,0:0|0:0,0:0:0:0:
96,288,108903,2,0,L|144:292,1,47.5,0|0,0:0|0:0,0:0:0:0:
400,292,109287,2,0,L|452:288,1,47.5,0|0,0:0|0:0,0:0:0:0:
447,95,109671,6,0,L|400:92,1,47.5,0|0,0:0|0:0,0:0:0:0:
156,112,110056,2,0,L|208:132,1,47.5,0|0,0:0|0:0,0:0:0:0:
444,248,110440,2,0,P|420:256|412:276,1,47.5,0|0,0:0|0:0,0:0:0:0:
492,176,110824,2,0,L|480:116,1,47.5,0|0,0:0|0:0,0:0:0:0:
248,111,111208,2,0,L|196:143,1,47.5,0|0,0:0|0:0,0:0:0:0:
208,136,111496,5,2,0:0:0:0:
208,136,111592,2,0,P|220:160|232:196,1,47.5,0|0,0:0|0:0,0:0:0:0:
320,328,111977,1,2,0:0:0:0:
320,328,112073,2,0,L|344:244,1,71.25,0|0,0:0|0:0,0:0:0:0:
392,48,112553,1,2,0:0:0:0:
392,48,112649,1,2,0:0:0:0:
392,48,112745,2,0,L|400:112,1,47.5,0|0,0:0|0:0,0:0:0:0:
432,332,113129,1,2,0:0:0:0:
432,332,113225,2,0,L|416:248,1,71.25,0|0,0:0|0:0,0:0:0:0:
208,108,113706,5,2,0:0:0:0:
208,108,113802,1,2,0:0:0:0:
208,108,113898,2,0,P|216:140|208:172,1,47.5,0|0,0:0|0:0,0:0:0:0:
76,308,114282,1,2,0:0:0:0:
76,308,114378,2,0,P|120:292|152:296,1,71.25,0|0,0:0|0:0,0:0:0:0:
460,256,114858,1,2,0:0:0:0:
460,256,114954,1,2,0:0:0:0:
460,256,115050,2,0,L|448:192,1,47.5,0|0,0:0|0:0,0:0:0:0:
368,56,115435,5,2,0:0:0:0:
368,56,115531,2,0,L|352:144,1,71.25,0|0,0:0|0:0,0:0:0:0:
308,256,116011,1,2,0:0:0:0:
308,256,116107,1,2,0:0:0:0:
308,256,116203,2,2,L|272:312,1,47.5,2|2,0:0|0:0,0:0:0:0:
68,328,116587,1,2,0:0:0:0:
68,328,116683,2,0,P|68:280|92:248,1,71.25,0|0,0:0|0:0,0:0:0:0:
180,192,117164,1,0,0:0:0:0:
292,192,117356,5,0,0:0:0:0:
328,196,117452,1,0,0:0:0:0:
356,220,117548,1,0,0:0:0:0:
376,248,117644,1,0,0:0:0:0:
356,328,117740,1,0,0:0:0:0:
320,328,117836,1,0,0:0:0:0:
288,316,117932,1,0,0:0:0:0:
264,288,118028,1,0,0:0:0:0:
276,200,118124,5,0,0:0:0:0:
304,176,118220,1,0,0:0:0:0:
336,164,118316,1,0,0:0:0:0:
372,168,118412,1,0,0:0:0:0:
460,208,118508,1,0,0:0:0:0:
480,240,118604,1,0,0:0:0:0:
484,276,118701,1,0,0:0:0:0:
472,308,118797,1,0,0:0:0:0:
392,340,118893,6,0,L|368:352,15,15.8333333333333,0|0|0|0|0|0|0|0|0|0|0|0|0|0|0|0,0:0|0:0|0:0|0:0|0:0|0:0|0:0|0:0|0:0|0:0|0:0|0:0|0:0|0:0|0:0|0:0,0:0:0:0:
432,256,120045,1,0,0:0:0:0:
416,176,120237,1,0,0:0:0:0:
400,140,120333,1,0,0:0:0:0:
364,120,120430,1,0,0:0:0:0:
376,76,121966,5,8,0:0:0:0:
352,128,122062,1,8,0:0:0:0:
356,184,122159,1,8,0:0:0:0:
416,280,122351,5,8,0:0:0:0:
372,244,122447,1,8,0:0:0:0:
316,232,122543,1,8,0:0:0:0:
216,288,122735,5,8,0:0:0:0:
256,248,122831,1,8,0:0:0:0:
268,192,122927,1,8,0:0:0:0:
256,136,123023,1,8,0:0:0:0:
220,100,123119,2,0,P|144:56|52:104,1,190,0|12,0:0|0:0,0:0:0:0:
64,268,123695,5,0,0:0:0:0:
108,304,123791,1,0,0:0:0:0:
241,304,123984,1,0,0:0:0:0:
288,272,124080,1,0,0:0:0:0:
332,236,124176,1,0,0:0:0:0:
380,204,124272,2,0,L|392:116,1,47.5,8|0,0:0|0:0,0:0:0:0:
328,36,124464,2,0,L|288:64,1,47.5
192,159,124656,2,0,P|204:251|316:255,1,190,0|8,0:0|0:0,0:0:0:0:
472,128,125232,5,0,0:0:0:0:
192,159,125424,1,0,0:0:0:0:
356,320,125617,1,0,0:0:0:0:
364,48,125809,1,8,0:0:0:0:
208,248,126001,1,0,0:0:0:0:
448,156,126193,1,0,0:0:0:0:
204,36,126385,1,0,0:0:0:0:
80,168,126577,6,0,L|80:240,1,47.5,8|0,0:0|0:0,0:0:0:0:
80,215,126769,1,0,0:0:0:0:
80,215,126865,1,0,0:0:0:0:
200,328,127057,1,0,0:0:0:0:
240,287,127153,1,0,0:0:0:0:
280,246,127249,1,0,0:0:0:0:
320,205,127346,2,0,L|364:164,1,47.5,8|0,0:0|0:0,0:0:0:0:
220,104,127538,2,0,L|172:144,1,47.5
160,280,127730,2,0,B|160:332|160:332|228:304|300:336,1,190,0|8,0:0|0:0,0:0:0:0:
428,352,128306,5,0,0:0:0:0:
416,124,128498,1,0,0:0:0:0:
376,352,128690,1,0,0:0:0:0:
472,136,128882,2,2,L|488:40,1,95,10|2,0:0|0:0,0:0:0:0:
396,256,129267,1,0,0:0:0:0:
376,72,129459,2,0,L|372:16,2,47.5,0|0|8,0:0|0:0|0:0,0:0:0:0:
168,272,129843,6,0,L|176:328,1,47.5,0|0,0:0|0:0,0:0:0:0:
345,319,130131,2,0,L|353:266,1,47.5,0|0,0:0|0:0,0:0:0:0:
352,272,130323,1,0,0:0:0:0:
352,272,130419,2,0,L|360:184,1,47.5,8|0,0:0|0:0,0:0:0:0:
316,72,130611,2,0,L|304:136,1,47.5,0|0,0:0|0:0,0:0:0:0:
252,292,130804,2,0,P|244:224|132:172,1,190,0|8,0:0|0:0,0:0:0:0:
40,220,131380,5,0,0:0:0:0:
252,292,131572,1,0,0:0:0:0:
252,80,131764,1,0,0:0:0:0:
40,56,131956,1,8,0:0:0:0:
160,264,132148,1,0,0:0:0:0:
408,192,132340,1,0,0:0:0:0:
252,80,132533,1,0,0:0:0:0:
96,44,132725,6,0,L|88:140,1,95,8|0,0:0|0:0,0:0:0:0:
164,196,133013,2,0,L|148:304,1,95,8|0,0:0|0:0,0:0:0:0:
68,336,133301,2,0,L|164:324,1,95,4|0,0:0|0:0,0:0:0:0:
256,332,133589,2,0,L|352:340,1,95,8|0,0:0|0:0,0:0:0:0:
404,356,133877,1,8,0:0:0:0:
400,148,134069,6,0,P|368:84|400:184,1,665,0|4,0:0|0:0,0:0:0:0:
388,218,135798,6,0,P|388:160|356:128,1,95,8|0,0:0|0:0,0:0:0:0:
324,92,136087,1,0,0:0:0:0:
272,68,136183,1,4,0:0:0:0:
80,152,136375,1,0,0:0:0:0:
324,92,136567,2,0,L|408:100,1,47.5,8|0,0:0|0:0,0:0:0:0:
372,212,136759,2,0,L|316:228,1,47.5
184,304,136951,2,0,P|236:340|304:336,1,95,4|0,0:0|0:0,0:0:0:0:
248,192,137335,6,0,P|192:188|136:208,1,95,8|0,0:0|0:0,0:0:0:0:
40,324,137720,1,4,0:0:0:0:
320,148,137912,1,0,0:0:0:0:
248,352,138104,1,8,0:0:0:0:
164,100,138296,1,0,0:0:0:0:
248,352,138488,1,4,0:0:0:0:
324,96,138680,1,0,0:0:0:0:
248,352,138872,6,0,P|308:308|324:260,1,95,8|0,0:0|0:0,0:0:0:0:
336,236,139160,1,0,0:0:0:0:
328,180,139256,1,4,0:0:0:0:
232,76,139449,2,0,L|184:44,1,47.5
112,152,139641,2,0,L|172:184,1,47.5,8|0,0:0|0:0,0:0:0:0:
264,264,139833,2,0,B|280:296|280:296|212:284,1,95,0|4,0:0|0:0,0:0:0:0:
36,188,140217,2,0,L|140:192,1,95,0|8,0:0|0:0,0:0:0:0:
244,200,140601,5,0,0:0:0:0:
408,108,140793,1,4,0:0:0:0:
408,320,140985,1,0,0:0:0:0:
244,200,141178,2,0,L|228:92,1,95,8|0,0:0|0:0,0:0:0:0:
144,32,141562,1,4,0:0:0:0:
124,84,141658,1,0,0:0:0:0:
108,140,141754,1,0,0:0:0:0:
92,196,141850,1,0,0:0:0:0:
72,248,141946,6,0,B|48:320|48:320|96:308,1,95,8|0,0:0|0:0,0:0:0:0:
120,296,142234,1,0,0:0:0:0:
172,268,142330,1,4,0:0:0:0:
376,248,142522,2,0,L|432:248,1,47.5,0|0,0:0|0:0,0:0:0:0:
420,144,142714,2,0,L|360:144,1,47.5,8|0,0:0|0:0,0:0:0:0:
372,144,142906,1,0,0:0:0:0:
372,144,143003,1,0,0:0:0:0:
372,144,143099,2,0,L|280:120,1,95,4|0,0:0|0:0,0:0:0:0:
84,52,143483,5,8,0:0:0:0:
140,292,143675,1,0,0:0:0:0:
184,48,143867,1,4,0:0:0:0:
140,312,144059,1,0,0:0:0:0:
56,52,144251,1,8,0:0:0:0:
380,304,144635,5,4,0:0:0:0:
368,60,145020,5,8,0:0:0:0:
368,60,145404,2,0,P|344:104|436:212,1,190,4|8,0:0|0:0,0:0:0:0:
368,60,145980,2,0,L|264:52,1,95,0|4,0:0|0:0,0:0:0:0:
180,116,146364,2,0,L|68:108,1,95,0|8,0:0|0:0,0:0:0:0:
85,274,146749,1,0,0:0:0:0:
85,274,146845,1,0,0:0:0:0:
85,274,146941,2,0,L|180:268,1,95,4|0,0:0|0:0,0:0:0:0:
320,296,147325,2,0,L|352:144,1,142.5,8|0,0:0|0:0,0:0:0:0:
312,224,147709,2,0,B|276:268|244:296|244:296|248:240|236:208,1,142.5,4|0,0:0|0:0,0:0:0:0:
192,184,148093,6,0,L|92:184,1,95,8|0,0:0|0:0,0:0:0:0:
97,184,148382,1,0,0:0:0:0:
97,184,148478,1,4,0:0:0:0:
248,104,148670,2,0,P|272:108|288:124,1,47.5,0|0,0:0|0:0,0:0:0:0:
216,248,148862,2,0,P|192:244|176:228,1,47.5,8|0,0:0|0:0,0:0:0:0:
112,88,149054,2,0,P|136:40|184:16,1,95,0|4,0:0|0:0,0:0:0:0:
352,288,149438,2,0,P|328:336|280:360,1,95,0|8,0:0|0:0,0:0:0:0:
248,144,149822,5,0,0:0:0:0:
440,228,150015,1,4,0:0:0:0:
92,152,150207,1,0,0:0:0:0:
360,320,150399,1,8,0:0:0:0:
180,80,150591,1,0,0:0:0:0:
264,348,150783,1,4,0:0:0:0:
276,52,150975,1,0,0:0:0:0:
150,269,151167,6,0,L|112:176,1,95,8|0,0:0|0:0,0:0:0:0:
88,128,151455,1,0,0:0:0:0:
68,76,151551,1,4,0:0:0:0:
228,88,151744,6,0,L|228:148,1,47.5
264,296,151936,2,0,L|264:244,1,47.5,8|0,0:0|0:0,0:0:0:0:
264,248,152128,1,0,0:0:0:0:
264,248,152224,1,0,0:0:0:0:
264,248,152320,2,0,L|352:292,1,95,4|0,0:0|0:0,0:0:0:0:
296,160,152704,6,0,P|252:156|192:188,1,95,8|0,0:0|0:0,0:0:0:0:
128,284,153088,1,4,0:0:0:0:
296,160,153280,1,0,0:0:0:0:
96,60,153473,1,8,0:0:0:0:
392,316,153857,5,4,0:0:0:0:
392,316,153953,1,0,0:0:0:0:
392,316,154049,1,0,0:0:0:0:
392,316,154145,1,0,0:0:0:0:
392,316,154241,6,0,L|408:192,1,95,8|0,0:0|0:0,0:0:0:0:
412,164,154529,1,0,0:0:0:0:
424,108,154625,1,0,0:0:0:0:
240,72,154817,6,0,L|216:124,1,47.5,0|0,0:0|0:0,0:0:0:0:
276,252,155009,2,0,L|300:204,1,47.5,8|0,0:0|0:0,0:0:0:0:
160,68,155202,2,0,P|144:128|172:172,1,95,0|4,0:0|0:0,0:0:0:0:
348,112,155586,1,0,0:0:0:0:
120,48,155778,1,8,0:0:0:0:
220,256,155970,1,0,0:0:0:0:
256,24,156162,1,4,0:0:0:0:
316,256,156354,1,0,0:0:0:0:
392,308,156546,6,0,B|432:340|432:340|432:296|404:240,1,142.5,8|0,0:0|0:0,0:0:0:0:
336,192,156931,2,0,P|316:140|348:48,1,142.5,4|0,0:0|0:0,0:0:0:0:
384,24,157315,1,8,0:0:0:0:
336,192,157507,1,0,0:0:0:0:
192,68,157699,1,4,0:0:0:0:
72,240,157891,1,0,0:0:0:0:
248,348,158083,1,8,0:0:0:0:
380,148,158275,1,0,0:0:0:0:
380,148,158467,2,0,L|368:40,2,95,4|0|8,0:0|0:0|0:0,0:0:0:0:
224,316,159044,5,0,0:0:0:0:
76,168,159236,1,4,0:0:0:0:
260,56,159428,1,0,0:0:0:0:
260,56,159620,1,8,0:0:0:0:
260,56,159716,1,0,0:0:0:0:
260,56,159812,1,0,0:0:0:0:
308,160,160004,6,0,P|324:208|220:284,1,190,4|8,0:0|0:0,0:0:0:0:
80,136,160581,1,0,0:0:0:0:
80,136,160677,1,0,0:0:0:0:
300,92,160869,1,0,0:0:0:0:
300,92,160965,1,0,0:0:0:0:
300,92,161061,2,0,L|388:104,1,47.5,0|8,0:0|0:0,0:0:0:0:
452,140,161349,1,0,0:0:0:0:
376,208,161541,2,0,L|184:240,1,190,4|8,0:0|0:0,0:0:0:0:
60,296,162118,5,0,0:0:0:0:
60,296,162214,1,0,0:0:0:0:
60,296,162310,2,0,L|164:312,1,95,4|0,0:0|0:0,0:0:0:0:
336,308,162694,2,0,L|388:300,2,47.5,8|0|0,0:0|0:0|0:0,0:0:0:0:
244,244,163078,2,0,P|224:188|272:96,1,142.5,4|0,0:0|0:0,0:0:0:0:
296,44,163462,6,0,P|332:92|264:196,1,190,8|4,0:0|0:0,0:0:0:0:
160,104,164039,1,0,0:0:0:0:
380,104,164231,1,8,0:0:0:0:
268,232,164423,1,0,0:0:0:0:
172,84,164615,1,4,0:0:0:0:
172,84,164999,5,0,0:0:0:0:
252,164,165191,1,0,0:0:0:0:
296,268,165383,1,0,0:0:0:0:
396,324,165576,1,0,0:0:0:0:
296,268,165768,2,0,P|220:248|116:288,1,190,0|8,0:0|0:0,0:0:0:0:
296,268,166536,1,8,0:0:0:0:
