osu file format v14

[General]
AudioFilename: audio.mp3
AudioLeadIn: 0
PreviewTime: -1
Countdown: 1
SampleSet: Soft
StackLeniency: 0.7
Mode: 0
LetterboxInBreaks: 0
WidescreenStoryboard: 0

[Editor]
DistanceSpacing: 1
BeatDivisor: 4
GridSize: 32
TimelineZoom: 1.650003

[Metadata]
Title:Life With Derek
TitleUnicode:Life With Derek
Artist:Casey McDonald
ArtistUnicode:Casey McDonald
Creator:Nega
Version:Life
Source:Life With Derek
Tags:life with derek disney channel
BeatmapID:1989725
BeatmapSetID:952933

[Difficulty]
HPDrainRate:4
CircleSize:4.2
OverallDifficulty:9.4
ApproachRate:9.2
SliderMultiplier:1.4
SliderTickRate:1

[Events]
//Background and Video events
0,0,"bg.jpg",0,0
//Break Periods
//Storyboard Layer 0 (Background)
//Storyboard Layer 1 (Fail)
//Storyboard Layer 2 (Pass)
//Storyboard Layer 3 (Foreground)
//Storyboard Sound Samples

[TimingPoints]
446.094945111671,383.386581469649,4,2,0,50,1,0
26516,-100,4,2,0,50,0,1
31883,-100,4,2,0,50,0,0
36484,383.386581469649,4,2,0,50,1,0
36484,-100,4,2,0,50,0,1
39551,-100,4,2,0,50,0,0

[HitObjects]
109,215,446,6,0,P|107:175|137:134,1,70
403,215,829,2,0,P|405:175|375:134,1,70
109,215,1213,6,0,P|107:175|137:134,1,70
403,215,1597,2,0,P|405:175|375:134,1,70
422,57,1979,5,0,0:0:0:0:
439,340,2171,1,0,0:0:0:0:
256,45,2363,5,0,0:0:0:0:
267,336,2555,1,0,0:0:0:0:
109,45,2746,5,0,0:0:0:0:
87,335,2938,1,0,0:0:0:0:
256,45,3129,5,0,0:0:0:0:
256,338,3321,1,0,0:0:0:0:
425,216,3513,6,0,P|420:176|397:135,1,70
120,97,3897,5,0,0:0:0:0:
255,133,4089,1,0,0:0:0:0:
108,219,4279,2,0,P|97:170|114:126,1,70
392,97,4663,1,0,0:0:0:0:
257,133,4855,1,0,0:0:0:0:
404,219,5045,2,0,P|415:170|398:126,1,70
368,79,5430,5,0,0:0:0:0:
377,301,5622,1,0,0:0:0:0:
243,90,5814,5,0,0:0:0:0:
247,305,6006,1,0,0:0:0:0:
123,76,6196,5,0,0:0:0:0:
103,302,6388,1,0,0:0:0:0:
87,216,6580,6,0,P|92:176|115:135,1,70
392,97,6964,5,0,0:0:0:0:
257,133,7156,1,0,0:0:0:0:
404,219,7346,2,0,P|415:170|398:126,1,70
120,97,7730,1,0,0:0:0:0:
255,133,7922,1,0,0:0:0:0:
108,219,8112,2,0,P|97:170|114:126,1,70
144,79,8497,5,0,0:0:0:0:
135,301,8689,1,0,0:0:0:0:
269,90,8881,5,0,0:0:0:0:
265,305,9073,1,0,0:0:0:0:
389,76,9263,5,0,0:0:0:0:
409,302,9455,1,0,0:0:0:0:
87,216,9647,6,0,P|92:176|115:135,1,70
392,97,10031,5,0,0:0:0:0:
190,85,10223,1,0,0:0:0:0:
404,219,10413,2,0,P|415:170|398:126,1,70
120,97,10797,5,0,0:0:0:0:
322,85,10989,1,0,0:0:0:0:
108,219,11179,2,0,P|97:170|114:126,1,70
132,67,11564,5,0,0:0:0:0:
122,311,11756,1,0,0:0:0:0:
270,79,11948,5,0,0:0:0:0:
265,316,12140,1,0,0:0:0:0:
402,64,12330,5,0,0:0:0:0:
424,313,12522,1,0,0:0:0:0:
425,216,12715,6,0,P|420:176|397:135,1,70
120,97,13098,5,0,0:0:0:0:
321,49,13290,1,0,0:0:0:0:
108,219,13482,2,0,P|97:170|114:126,1,70
392,97,13863,5,0,0:0:0:0:
191,49,14055,1,0,0:0:0:0:
404,219,14247,2,0,P|415:170|398:126,1,70
401,45,14632,5,0,0:0:0:0:
413,333,14823,1,0,0:0:0:0:
239,59,15015,5,0,0:0:0:0:
244,338,15207,1,0,0:0:0:0:
83,41,15399,5,0,0:0:0:0:
57,334,15590,1,0,0:0:0:0:
425,216,15781,6,0,P|420:176|397:135,1,70
120,97,16165,5,0,0:0:0:0:
360,101,16357,1,0,0:0:0:0:
108,219,16547,2,0,P|97:170|114:126,1,70
392,97,16932,5,0,0:0:0:0:
152,101,17124,1,0,0:0:0:0:
404,219,17315,2,0,P|415:170|398:126,1,70
150,76,17699,5,0,0:0:0:0:
154,316,17891,1,0,0:0:0:0:
374,89,18082,6,0,P|325:78|281:95,1,70
374,305,18465,2,0,P|325:316|281:299,1,70
87,216,18848,6,0,P|92:176|115:135,1,70
442,98,19232,5,0,0:0:0:0:
242,65,19424,1,0,0:0:0:0:
327,291,19614,2,0,P|338:242|321:198,1,70
70,98,19997,5,0,0:0:0:0:
270,65,20189,1,0,0:0:0:0:
185,291,20381,2,0,P|174:242|191:198,1,70
113,47,20765,5,0,0:0:0:0:
101,331,20957,1,0,0:0:0:0:
272,61,21149,5,0,0:0:0:0:
267,336,21341,1,0,0:0:0:0:
425,43,21531,5,0,0:0:0:0:
451,332,21723,1,0,0:0:0:0:
425,216,21915,6,0,P|420:176|397:135,1,70
320,32,22299,5,0,0:0:0:0:
320,352,22491,1,0,0:0:0:0:
108,219,22681,6,0,P|97:170|114:126,1,70
192,32,23065,5,0,0:0:0:0:
192,352,23256,1,0,0:0:0:0:
328,318,23450,5,0,0:0:0:0:
116,193,23640,1,0,0:0:0:0:
378,146,23832,1,0,0:0:0:0:
72,38,24024,6,0,B|160:68|218:93|238:125|235:162|224:207|230:262|296:296|358:289|427:311|467:278,1,490
106,301,25748,5,0,0:0:0:0:
130,48,25939,1,0,0:0:0:0:
257,313,26131,5,0,0:0:0:0:
284,58,26323,1,0,0:0:0:0:
441,224,26516,6,0,P|436:184|413:143,1,70
335,35,26900,5,0,0:0:0:0:
303,312,27092,1,0,0:0:0:0:
87,221,27283,6,0,P|92:181|115:140,1,70
225,309,27667,5,0,0:0:0:0:
193,32,27859,1,0,0:0:0:0:
429,321,28050,5,0,0:0:0:0:
373,41,28242,1,0,0:0:0:0:
289,325,28433,5,0,0:0:0:0:
376,12,28625,1,0,0:0:0:0:
83,321,28816,5,0,0:0:0:0:
139,41,29008,1,0,0:0:0:0:
223,325,29199,5,0,0:0:0:0:
136,12,29391,1,0,0:0:0:0:
425,216,29583,6,0,P|420:176|397:135,1,70
320,32,29967,5,0,0:0:0:0:
320,352,30159,1,0,0:0:0:0:
87,216,30350,6,0,P|92:176|115:135,1,70
192,352,30734,5,0,0:0:0:0:
192,32,30926,1,0,0:0:0:0:
429,321,31117,5,0,0:0:0:0:
373,41,31309,1,0,0:0:0:0:
289,325,31500,5,0,0:0:0:0:
376,12,31692,1,0,0:0:0:0:
83,321,31883,5,0,0:0:0:0:
139,41,32075,1,0,0:0:0:0:
223,325,32266,5,0,0:0:0:0:
136,12,32458,1,0,0:0:0:0:
64,224,32650,6,0,P|69:184|92:143,1,70
177,45,33033,5,0,0:0:0:0:
177,341,33225,1,0,0:0:0:0:
224,224,33417,6,0,P|229:184|252:143,1,70
337,45,33800,5,0,0:0:0:0:
337,341,33992,1,0,0:0:0:0:
431,163,34184,5,0,0:0:0:0:
106,89,34376,1,0,0:0:0:0:
259,333,34566,1,0,0:0:0:0:
66,269,34759,6,0,B|180:299|175:235|152:141|266:126,1,280
384,40,35718,5,0,0:0:0:0:
403,321,35910,1,0,0:0:0:0:
256,32,36100,5,0,0:0:0:0:
239,315,36291,1,0,0:0:0:0:
401,45,36484,5,0,0:0:0:0:
413,333,36675,1,0,0:0:0:0:
239,59,36867,5,0,0:0:0:0:
244,338,37059,1,0,0:0:0:0:
83,41,37251,5,0,0:0:0:0:
57,334,37442,1,0,0:0:0:0:
239,59,37635,5,0,0:0:0:0:
244,338,37826,1,0,0:0:0:0:
401,45,38017,5,0,0:0:0:0:
413,333,38208,1,0,0:0:0:0:
239,59,38400,5,0,0:0:0:0:
244,338,38592,1,0,0:0:0:0:
83,41,38784,5,0,0:0:0:0:
57,334,38975,1,0,0:0:0:0:
239,59,39168,5,0,0:0:0:0:
244,338,39359,1,0,0:0:0:0:
425,216,39551,6,0,P|420:176|397:135,1,70
201,125,39934,5,0,0:0:0:0:
347,59,40125,1,0,0:0:0:0:
80,227,40317,6,0,P|83:192|97:160,1,70
311,125,40700,5,0,0:0:0:0:
128,72,40892,1,0,0:0:0:0:
417,110,41085,5,0,0:0:0:0:
423,287,41277,1,0,0:0:0:0:
301,72,41468,5,0,0:0:0:0:
295,301,41660,1,0,0:0:0:0:
193,42,41850,5,0,0:0:0:0:
179,298,42042,1,0,0:0:0:0:
91,28,42234,5,0,0:0:0:0:
59,305,42426,1,0,0:0:0:0:
425,216,42618,6,0,P|420:176|397:135,1,70
401,45,43002,5,0,0:0:0:0:
413,333,43194,1,0,0:0:0:0:
239,59,43385,5,0,0:0:0:0:
244,338,43577,1,0,0:0:0:0:
83,41,43769,5,0,0:0:0:0:
57,334,43960,1,0,0:0:0:0:
208,8,44150,5,0,0:0:0:0:
177,357,44342,1,0,0:0:0:0:
303,8,44535,5,0,0:0:0:0:
334,357,44727,1,0,0:0:0:0:
208,8,44917,5,0,0:0:0:0:
