osu file format v14

[General]
AudioFilename: audio.mp3
AudioLeadIn: 0
PreviewTime: 33763
Countdown: 1
SampleSet: Normal
StackLeniency: 0.7
Mode: 0
LetterboxInBreaks: 0
WidescreenStoryboard: 0

[Editor]
Bookmarks: 19790,33968,47735
DistanceSpacing: 0.1
BeatDivisor: 4
GridSize: 32
TimelineZoom: 1

[Metadata]
Title:I Burn
TitleUnicode:I Burn
Artist:Casey Lee Williams & Lamar Hall
ArtistUnicode:Casey Lee Williams & Lamar Hall
Creator:Bunnz
Version:Insane
Source:
Tags:
BeatmapID:2160429
BeatmapSetID:1033312

[Difficulty]
HPDrainRate:5
CircleSize:4
OverallDifficulty:8
ApproachRate:9
SliderMultiplier:1.9
SliderTickRate:1

[Events]
//Background and Video events
//Break Periods
//Storyboard Layer 0 (Background)
//Storyboard Layer 1 (Fail)
//Storyboard Layer 2 (Pass)
//Storyboard Layer 3 (Foreground)
//Storyboard Layer 4 (Overlay)
//Storyboard Sound Samples

[TimingPoints]
6640,410.958904109589,4,1,0,70,1,0
19790,-90.9090909090909,4,1,0,75,0,0
21434,-90.9090909090909,4,1,0,90,0,1
23078,-90.9090909090909,4,1,0,75,0,0
28009,-90.9090909090909,4,1,0,90,0,1
29242,-90.9090909090909,4,1,0,75,0,0
34174,-200,4,1,0,90,0,1
34482,-200,4,1,0,90,0,0
34585,-83.3333333333333,4,1,0,90,0,1
39413,-83.3333333333333,4,1,0,90,0,0
39516,-83.3333333333333,4,1,0,100,0,1
40235,-83.3333333333333,4,1,0,100,0,0
40338,-83.3333333333333,4,1,0,100,0,1
40646,-83.3333333333333,4,1,0,100,0,0
40749,-200,4,1,0,90,0,1
41057,-200,4,1,0,90,0,0
41160,-83.3333333333333,4,1,0,90,0,1
45989,-83.3333333333333,4,1,0,90,0,0
46092,-83.3333333333333,4,1,0,100,0,1
46400,-83.3333333333333,4,1,0,100,0,0
46503,-83.3333333333333,4,1,0,100,0,1
46811,-83.3333333333333,4,1,0,100,0,0
46913,-83.3333333333333,4,1,0,100,0,1
47222,-83.3333333333333,4,1,0,100,0,0
47324,-83.3333333333333,4,1,0,100,0,1
47735,-83.3333333333333,4,1,0,100,0,0

[HitObjects]
435,227,6640,6,0,P|393:251|347:253,1,95,2|0,0:0|0:0,0:0:0:0:
260,225,6948,2,0,P|236:264|197:296,1,95,2|0,0:0|0:0,0:0:0:0:
109,343,7256,2,0,P|123:288|116:241,1,95,2|0,0:0|0:0,0:0:0:0:
107,207,7564,2,0,L|92:160,2,47.5,0|0|0,3:3|3:3|3:3,3:3:0:0:
199,182,7872,2,0,L|170:81,1,95,8|0,3:3|0:0,0:0:0:0:
316,0,8283,6,0,P|352:34|373:78,1,95,2|0,0:0|0:0,0:0:0:0:
387,157,8592,2,0,P|437:179|469:215,1,95,2|0,0:0|0:0,0:0:0:0:
512,295,8900,2,0,P|463:287|396:304,1,95,2|0,0:0|0:0,0:0:0:0:
374,307,9208,2,0,L|382:361,2,47.5,0|0|0,3:3|3:3|3:3,3:3:0:0:
287,263,9516,2,0,L|272:162,1,95,8|0,3:3|0:0,0:0:0:0:
92,311,9927,6,0,P|150:295|176:267,1,95,2|0,0:0|0:0,0:0:0:0:
219,194,10235,2,0,P|264:214|324:212,1,95,2|0,0:0|0:0,0:0:0:0:
420,206,10544,2,0,P|373:175|339:127,1,95,2|0,0:0|0:0,0:0:0:0:
328,105,10852,2,0,L|305:56,2,47.5,0|0|0,3:3|3:3|3:3,3:3:0:0:
237,82,11160,2,0,L|139:117,1,95,8|0,3:3|0:0,0:0:0:0:
0,185,11571,6,0,B|107:195|58:248|181:236,1,190,2|0,0:0|0:0,0:0:0:0:
402,219,12187,1,2,0:0:0:0:
247,95,12393,1,0,3:3:0:0:
257,141,12495,1,0,3:3:0:0:
257,188,12598,1,0,3:3:0:0:
268,234,12701,1,0,3:3:0:0:
273,285,12804,1,8,3:3:0:0:
273,285,13215,6,0,P|335:254|385:250,1,95,2|0,0:0|0:0,0:0:0:0:
447,235,13523,2,0,P|464:187|500:153,1,95,2|0,0:0|0:0,0:0:0:0:
492,59,13831,2,0,P|449:95|405:102,1,95,2|0,0:0|0:0,0:0:0:0:
373,104,14140,2,0,L|323:105,2,47.5,0|0|0,3:3|3:3|3:3,3:3:0:0:
371,22,14448,2,0,L|272:23,1,95,8|0,3:3|0:0,0:0:0:0:
57,150,14859,6,0,P|106:164|133:200,1,95,2|0,0:0|0:0,0:0:0:0:
166,280,15167,2,0,P|219:270|265:283,1,95,2|0,0:0|0:0,0:0:0:0:
342,359,15475,2,0,P|331:303|340:263,1,95,2|0,0:0|0:0,0:0:0:0:
354,223,15783,2,0,L|301:198,2,47.5,0|0|0,3:3|3:3|3:3,3:3:0:0:
429,274,16092,2,0,L|514:319,1,95,8|0,3:3|0:0,0:0:0:0:
426,59,16503,6,0,P|376:62|326:89,1,95,2|0,0:0|0:0,0:0:0:0:
264,132,16811,2,0,P|221:107|171:98,1,95,2|0,0:0|0:0,0:0:0:0:
80,32,17119,2,0,P|101:86|99:139,1,95,2|0,0:0|0:0,0:0:0:0:
97,168,17427,2,0,L|90:224,2,47.5,0|0|0,3:3|3:3|3:3,3:3:0:0:
192,173,17735,2,0,L|182:273,1,95,8|0,3:3|0:0,0:0:0:0:
397,338,18146,6,0,P|391:279|371:244,1,95,2|0,0:0|0:0,0:0:0:0:
313,185,18455,2,0,P|344:140|355:94,1,95,2|0,0:0|0:0,0:0:0:0:
367,2,18763,2,0,P|318:18|275:11,1,95,2|0,0:0|0:0,0:0:0:0:
235,5,19071,2,0,L|187:-1,2,47.5,0|0|0,3:3|0:0|0:0,0:0:0:0:
253,78,19379,5,8,0:0:0:0:
232,120,19481,1,8,0:0:0:0:
196,150,19584,1,8,0:0:0:0:
172,190,19687,1,8,0:0:0:0:
127,210,19790,6,0,P|96:261|112:306,1,104.500003189087,2|0,0:0|0:0,0:0:0:0:
234,352,20201,2,0,P|288:338|356:342,1,104.500003189087,2|0,0:0|0:0,0:0:0:0:
481,347,20612,2,0,P|483:292|449:240,1,104.500003189087,2|0,0:0|0:0,0:0:0:0:
342,198,21023,2,0,P|293:162|264:117,1,104.500003189087,2|0,0:0|0:0,0:0:0:0:
200,0,21434,6,0,L|60:88,1,156.750004783631,6|0,0:0|0:0,0:0:0:0:
112,142,21845,2,0,L|252:54,1,156.750004783631,6|0,0:0|0:0,0:0:0:0:
286,119,22256,2,0,L|146:207,1,156.750004783631,6|0,0:0|0:0,0:0:0:0:
67,83,22667,2,0,L|67:248,1,156.750004783631,6|0,0:0|0:0,0:0:0:0:
66,336,23078,6,0,P|127:315|170:320,1,104.500003189087,2|0,0:0|0:0,0:0:0:0:
288,348,23489,2,0,P|330:316|334:264,1,104.500003189087,2|0,0:0|0:0,0:0:0:0:
298,159,23900,2,0,P|287:101|327:55,1,104.500003189087,2|0,0:0|0:0,0:0:0:0:
422,7,24311,2,0,P|477:21|496:69,1,104.500003189087,2|0,0:0|0:0,0:0:0:0:
505,179,24722,2,0,P|465:224|400:218,1,104.500003189087,10|0,0:0|0:0,0:0:0:0:
376,221,25030,5,10,0:0:0:0:
324,210,25133,2,0,L|218:210,1,104.500003189087,10|0,0:0|0:0,0:0:0:0:
206,79,25544,1,2,0:0:0:0:
155,67,25646,1,0,3:3:0:0:
108,88,25749,1,0,3:3:0:0:
82,132,25852,1,0,3:3:0:0:
88,183,25954,1,0,3:3:0:0:
122,221,26057,1,0,3:3:0:0:
172,232,26160,1,0,3:3:0:0:
219,210,26263,1,0,3:3:0:0:
243,164,26366,6,0,P|285:132|341:137,1,104.500003189087,2|0,0:0|0:0,0:0:0:0:
449,177,26776,2,0,P|463:232|437:281,1,104.500003189087
342,329,27187,2,0,P|285:314|234:315,1,104.500003189087
124,275,27598,2,0,P|116:221|143:175,1,104.500003189087
237,39,28009,6,0,L|400:40,1,156.750004783631,6|0,0:0|0:0,0:0:0:0:
397,111,28420,2,0,L|234:110,1,156.750004783631,6|0,0:0|0:0,0:0:0:0:
242,182,28831,2,0,L|405:183,1,156.750004783631,6|0,0:0|0:0,0:0:0:0:
511,183,29242,6,0,P|497:257|511:309,2,104.500003189087,2|2|2,0:0|0:0|0:0,0:0:0:0:
365,233,29859,1,0,0:0:0:0:
232,283,30064,2,2,P|246:209|232:157,2,104.500003189087
217,328,30578,2,0,L|154:326,2,52.2500015945435,0|0|0,3:3|3:3|3:3,3:3:0:0:
309,331,30886,6,0,P|344:286|392:260,1,104.500003189087,2|2,0:0|0:0,0:0:0:0:
202,53,31297,2,0,P|167:98|119:124,1,104.500003189087,2|2,0:0|0:0,0:0:0:0:
384,262,31708,2,0,P|419:217|467:191,1,104.500003189087,2|2,0:0|0:0,0:0:0:0:
126,121,32119,2,0,P|91:166|43:192,1,104.500003189087,2|2,0:0|0:0,0:0:0:0:
459,193,32530,2,2,P|477:134|451:98,1,104.500003189087
50,189,32941,2,2,P|32:248|58:284,1,104.500003189087,2|2,0:0|3:3,0:0:0:0:
78,300,33249,5,0,3:3:0:0:
274,276,33455,5,0,3:3:0:0:
279,224,33557,1,0,3:3:0:0:
316,189,33660,1,0,3:3:0:0:
349,150,33763,1,0,3:3:0:0:
362,100,33865,1,0,3:3:0:0:
352,47,33968,2,0,L|330:-2,1,52.2500015945435,0|0,3:3|3:3,3:3:0:0:
170,0,34174,6,0,B|186:23|186:23|185:27|185:27|189:27|189:27|198:55,1,47.5,2|0,0:0|0:0,0:0:0:0:
244,116,34585,6,0,B|270:172|270:172|281:235,1,113.999996520996,14|0,0:3|0:0,0:0:0:0:
289,383,34996,1,8,0:3:0:0:
94,219,35201,1,0,0:0:0:0:
429,188,35407,1,8,0:0:0:0:
413,188,35509,1,8,0:0:0:0:
398,188,35612,1,8,0:0:0:0:
497,78,35818,1,8,0:3:0:0:
244,116,36023,1,0,0:0:0:0:
439,293,36229,6,0,B|424:234|424:234|392:178,1,113.999996520996,2|0,0:3|0:0,0:0:0:0:
300,39,36640,1,8,0:3:0:0:
512,162,36845,1,0,0:0:0:0:
232,237,37050,1,8,0:0:0:0:
232,224,37153,1,8,0:0:0:0:
232,214,37256,1,8,0:0:0:0:
1,292,37461,1,8,0:3:0:0:
262,336,37667,1,0,0:0:0:0:
34,161,37872,6,0,B|96:140|96:140|149:101,1,113.999996520996,2|0,0:0|0:0,0:0:0:0:
257,4,38283,1,8,0:3:0:0:
232,237,38489,1,0,0:0:0:0:
36,35,38694,1,8,0:0:0:0:
46,34,38797,1,8,0:0:0:0:
55,34,38900,1,8,0:0:0:0:
0,270,39105,2,0,L|46:124,1,113.999996520996,8|0,0:3|0:0,0:0:0:0:
424,0,39516,6,0,L|427:356,1,341.999989562989,2|2,0:0|0:0,0:0:0:0:
312,141,40338,2,0,L|430:142,1,113.999996520996,2|2,0:0|0:0,0:0:0:0:
301,262,40749,6,0,B|273:257|273:257|271:253|271:253|268:256|268:256|242:242,1,47.5,2|0,0:0|0:0,0:0:0:0:
176,213,41160,2,0,B|123:186|123:186|80:142,1,113.999996520996,14|0,0:2|0:0,0:0:0:0:
8,0,41571,1,8,0:3:0:0:
279,68,41776,1,0,0:0:0:0:
85,272,41982,1,8,0:0:0:0:
85,259,42085,1,8,0:0:0:0:
85,248,42187,1,8,0:0:0:0:
270,358,42393,1,8,0:3:0:0:
195,141,42598,1,0,0:0:0:0:
136,361,42804,5,12,0:2:0:0:
300,228,43009,1,0,0:0:0:0:
85,248,43215,1,8,0:3:0:0:
367,311,43420,1,0,0:0:0:0:
102,139,43626,1,8,0:0:0:0:
81,191,43728,1,8,0:0:0:0:
85,248,43831,1,8,0:0:0:0:
112,297,43934,1,8,0:0:0:0:
156,333,44037,1,8,0:3:0:0:
195,141,44242,1,0,0:0:0:0:
408,188,44448,5,12,0:2:0:0:
216,283,44653,1,0,0:0:0:0:
300,107,44859,1,8,0:3:0:0:
346,294,45064,1,0,0:0:0:0:
195,141,45270,1,8,0:0:0:0:
244,113,45372,1,8,0:0:0:0:
300,107,45475,1,8,0:0:0:0:
355,122,45578,1,8,0:0:0:0:
397,157,45681,1,8,0:3:0:0:
216,283,45886,1,0,0:0:0:0:
310,24,46092,5,2,0:0:0:0:
282,353,46297,1,2,0:0:0:0:
119,118,46503,1,2,0:0:0:0:
454,175,46708,5,2,0:0:0:0:
137,285,46913,1,2,0:0:0:0:
197,18,47119,1,2,0:0:0:0:
367,280,47324,5,2,0:0:0:0:
18,178,47530,1,2,0:0:0:0:
407,41,47735,1,2,0:0:0:0:
