osu file format v14

[General]
AudioFilename: audio.mp3
AudioLeadIn: 0
PreviewTime: 231448
Countdown: 0
SampleSet: Soft
StackLeniency: 0.4
Mode: 0
LetterboxInBreaks: 0
WidescreenStoryboard: 0

[Editor]
Bookmarks: 48542,81542,105542,129542,156542,192542,216542,231542,267542,303542,327542,357542,369635,402167
DistanceSpacing: 1.5
BeatDivisor: 4
GridSize: 32
TimelineZoom: 2.047202

[Metadata]
Title:Devil Trigger
TitleUnicode:Devil Trigger
Artist:Casey Edwards feat. Ali Edwards
ArtistUnicode:Casey Edwards feat. Ali Edwards
Creator:Rolniczy
Version:Darkest of Nights, Hunter Within
Source:Devil May Cry 5
Tags:デビル メイ クライ5 dmc dmc5 five ost nero nero's battle theme yudragen chaoticred collab collaboration marathon cliff lloret video game electro english
BeatmapID:1975112
BeatmapSetID:945904

[Difficulty]
HPDrainRate:5.4
CircleSize:4.6
OverallDifficulty:8.3
ApproachRate:9.2
SliderMultiplier:2.1
SliderTickRate:1

[Events]
//Background and Video events
0,0,"debil.jpg",0,0
//Break Periods
//Storyboard Layer 0 (Background)
//Storyboard Layer 1 (Fail)
//Storyboard Layer 2 (Pass)
//Storyboard Layer 3 (Foreground)
//Storyboard Sound Samples

[TimingPoints]
542,375,4,2,1,35,1,0
48542,-100,4,2,1,80,0,0
51542,-100,4,2,1,70,0,0
51729,-100,4,2,1,60,0,0
52292,-142.857142857143,4,2,1,60,0,0
53042,-100,4,2,1,70,0,0
53229,-100,4,2,1,60,0,0
53792,-142.857142857143,4,2,1,60,0,0
54542,-142.857142857143,4,2,1,70,0,0
54729,-142.857142857143,4,2,1,60,0,0
55292,-142.857142857143,4,2,1,70,0,0
55479,-142.857142857143,4,2,1,60,0,0
56042,-111.111111111111,4,2,1,70,0,0
56885,-111.111111111111,4,2,1,60,0,0
57542,-100,4,2,1,85,0,0
63542,-90.9090909090909,4,2,1,85,0,0
69167,-111.111111111111,4,2,1,85,0,0
69542,-100,4,2,1,85,0,0
75542,-90.9090909090909,4,2,1,85,0,0
78542,-90.9090909090909,4,2,1,85,0,0
81542,-111.111111111111,4,2,1,80,0,0
92042,-58.8235294117647,4,2,1,80,0,0
92323,-86.9565217391304,4,2,1,80,0,0
92604,-66.6666666666667,4,2,1,80,0,0
92792,-76.9230769230769,4,2,1,80,0,0
93542,-111.111111111111,4,2,1,75,0,0
104042,-58.8235294117647,4,2,1,80,0,0
104323,-86.9565217391304,4,2,1,80,0,0
104604,-66.6666666666667,4,2,1,80,0,0
104792,-76.9230769230769,4,2,1,80,0,0
105542,-100,4,2,1,75,0,0
105917,-100,4,2,1,70,0,0
116792,-100,4,2,1,75,0,0
116979,-100,4,2,1,80,0,0
117167,-100,4,2,1,85,0,0
117729,-100,4,2,1,70,0,0
129542,-142.857142857143,4,2,1,80,0,0
130292,-83.3333333333333,4,2,1,80,0,0
130667,-100,4,2,1,80,0,0
132542,-142.857142857143,4,2,1,80,0,0
133292,-83.3333333333333,4,2,1,80,0,0
133667,-100,4,2,1,80,0,0
135542,-142.857142857143,4,2,1,80,0,0
136292,-83.3333333333333,4,2,1,80,0,0
136667,-100,4,2,1,80,0,0
138542,-142.857142857143,4,2,1,80,0,0
139292,-83.3333333333333,4,2,1,80,0,0
139667,-100,4,2,1,80,0,0
141542,-100,4,2,1,75,0,0
141729,-90.9090909090909,4,2,1,75,0,0
153917,-166.666666666667,4,2,1,50,0,0
155042,-90.9090909090909,4,2,1,55,0,0
155135,-90.9090909090909,4,2,1,55,0,0
155417,-90.9090909090909,4,2,1,55,0,0
155792,-1000,4,2,1,55,0,0
156542,-83.3333333333333,4,2,1,90,0,1
156917,-83.3333333333333,4,2,1,90,0,0
159167,-90.9090909090909,4,2,1,90,0,0
159542,-83.3333333333333,4,2,1,90,0,0
163104,-76.9230769230769,4,2,1,90,0,0
163667,-71.4285714285714,4,2,1,90,0,0
164979,-83.3333333333333,4,2,1,90,0,0
165542,-66.6666666666667,4,2,1,90,0,1
165917,-66.6666666666667,4,2,1,90,0,0
166104,-66.6666666666667,4,2,1,90,0,1
166479,-66.6666666666667,4,2,1,90,0,0
166667,-66.6666666666667,4,2,1,90,0,1
166854,-66.6666666666667,4,2,1,90,0,0
167042,-66.6666666666667,4,2,1,80,0,0
167417,-66.6666666666667,4,2,1,60,0,0
167792,-66.6666666666667,4,2,1,65,0,0
168167,-66.6666666666667,4,2,1,70,0,0
168542,-83.3333333333333,4,2,1,90,0,0
168917,-76.9230769230769,4,2,1,90,0,0
171167,-90.9090909090909,4,2,1,90,0,0
171542,-76.9230769230769,4,2,1,90,0,0
174167,-83.3333333333333,4,2,1,90,0,0
174917,-76.9230769230769,4,2,1,90,0,0
177167,-90.9090909090909,4,2,1,90,0,0
177542,-76.9230769230769,4,2,1,90,0,0
179979,-66.6666666666667,4,2,1,90,0,0
180542,-83.3333333333333,4,2,1,90,0,0
181292,-76.9230769230769,4,2,1,90,0,0
183167,-90.9090909090909,4,2,1,90,0,0
183542,-76.9230769230769,4,2,1,90,0,0
186167,-83.3333333333333,4,2,1,90,0,0
186917,-76.9230769230769,4,2,1,90,0,0
189167,-90.9090909090909,4,2,1,90,0,0
189542,-76.9230769230769,4,2,1,90,0,0
191042,-71.4285714285714,4,2,1,90,0,0
192542,-111.111111111111,4,2,1,70,0,0
203042,-90.9090909090908,4,2,1,70,0,0
204167,-142.857142857143,4,2,1,70,0,0
204542,-100,4,2,1,80,0,0
215042,-58.8235294117647,4,2,1,80,0,0
215323,-86.9565217391304,4,2,1,80,0,0
215604,-66.6666666666667,4,2,1,80,0,0
215792,-76.9230769230769,4,2,1,80,0,0
216542,-100,4,2,1,80,0,0
227042,-62.5,4,2,1,80,0,0
227323,-76.9230769230769,4,2,1,80,0,0
227604,-66.6666666666667,4,2,1,80,0,0
227792,-76.9230769230769,4,2,1,80,0,0
228542,-76.9230769230769,4,2,1,70,0,0
229292,-76.9230769230769,4,2,1,50,0,0
230042,-76.9230769230769,4,2,1,60,0,0
231167,-76.9230769230769,4,2,1,70,0,0
231542,-66.6666666666667,4,2,1,90,0,1
231917,-90.9090909090909,4,2,1,90,0,0
232292,-71.4285714285714,4,2,1,90,0,0
232667,-100,4,2,1,90,0,0
233417,-66.6666666666667,4,2,1,90,0,0
233604,-125,4,2,1,90,0,0
233979,-83.3333333333333,4,2,1,90,0,0
234167,-100,4,2,1,90,0,0
234542,-66.6666666666667,4,2,1,90,0,0
234917,-90.9090909090909,4,2,1,90,0,0
235292,-83.3333333333333,4,2,1,90,0,0
236604,-100,4,2,1,90,0,0
237542,-76.9230769230769,4,2,1,90,0,0
238104,-68.9655172413793,4,2,1,90,0,0
238667,-62.5,4,2,1,90,0,0
240542,-66.6666666666667,4,2,1,90,0,1
240917,-66.6666666666667,4,2,1,90,0,0
241104,-66.6666666666667,4,2,1,90,0,1
241479,-66.6666666666667,4,2,1,90,0,0
241667,-66.6666666666667,4,2,1,90,0,1
241854,-66.6666666666667,4,2,1,90,0,0
242042,-66.6666666666667,4,2,1,80,0,0
242417,-66.6666666666667,4,2,1,60,0,0
242792,-66.6666666666667,4,2,1,65,0,0
243167,-66.6666666666667,4,2,1,70,0,0
243542,-71.4285714285714,4,2,1,90,0,0
243917,-83.3333333333333,4,2,1,90,0,0
244292,-76.9230769230769,4,2,1,90,0,0
246167,-111.111111111111,4,2,1,90,0,0
246542,-76.9230769230769,4,2,1,90,0,0
246917,-90.9090909090909,4,2,1,90,0,0
248042,-71.4285714285714,4,2,1,90,0,0
249542,-100,4,2,1,90,0,0
249917,-66.6666666666667,4,2,1,90,0,0
250667,-90.9090909090909,4,2,1,90,0,0
251042,-76.9230769230769,4,2,1,90,0,0
252542,-90.9090909090909,4,2,1,90,0,0
252917,-71.4285714285714,4,2,1,90,0,0
253667,-90.9090909090909,4,2,1,90,0,0
254042,-71.4285714285714,4,2,1,90,0,0
254417,-83.3333333333333,4,2,1,90,0,0
254885,-100,4,2,1,90,0,0
255073,-71.4285714285714,4,2,1,90,0,0
255542,-100,4,2,1,90,0,0
255917,-76.9230769230769,4,2,1,90,0,0
257042,-95.2380952380952,4,2,1,90,0,0
257417,-71.4285714285714,4,2,1,90,0,0
258167,-133.333333333333,4,2,1,90,0,0
258542,-71.4285714285714,4,2,1,90,0,0
258917,-90.9090909090909,4,2,1,90,0,0
260042,-76.9230769230769,4,2,1,90,0,0
261542,-100,4,2,1,90,0,0
261917,-71.4285714285714,4,2,1,90,0,0
263042,-83.3333333333333,4,2,1,90,0,0
263417,-66.6666666666667,4,2,1,90,0,0
263979,-90.9090909090909,4,2,1,90,0,0
266417,-76.9230769230769,4,2,1,90,0,0
266604,-66.6666666666667,4,2,1,90,0,0
266792,-86.9565217391304,4,2,1,80,0,0
267542,-200,4,2,2,50,0,0
268667,-200,4,2,2,40,0,0
269042,-222.222222222222,4,2,3,40,0,0
270542,-250,4,2,4,40,0,0
273542,-285.714285714286,4,2,2,40,0,0
275042,-333.333333333333,4,2,3,40,0,0
276542,-400,4,2,4,40,0,0
278042,-1000,4,2,1,40,0,0
279542,-250,4,2,5,50,0,0
285542,-200,4,2,5,50,0,0
291542,-166.666666666667,4,2,5,55,0,0
302792,-166.666666666667,4,2,5,64,0,0
303542,-100,4,2,1,70,0,0
303917,-166.666666666667,4,2,1,70,0,0
305042,-100,4,2,1,70,0,0
305417,-166.666666666667,4,2,1,70,0,0
306542,-100,4,2,1,70,0,0
306917,-166.666666666667,4,2,1,70,0,0
308042,-100,4,2,1,70,0,0
308417,-166.666666666667,4,2,1,70,0,0
311042,-90.9090909090909,4,2,1,70,0,0
315542,-125,4,2,1,80,0,0
316292,-76.9230769230769,4,2,1,80,0,0
316854,-100,4,2,1,80,0,0
318542,-125,4,2,1,80,0,0
319292,-76.9230769230769,4,2,1,80,0,0
319854,-100,4,2,1,80,0,0
321542,-125,4,2,1,80,0,0
322292,-76.9230769230769,4,2,1,80,0,0
322854,-100,4,2,1,80,0,0
324542,-125,4,2,1,80,0,0
325292,-76.9230769230769,4,2,1,80,0,0
325854,-100,4,2,1,80,0,0
327542,-111.111111111111,4,2,1,80,0,0
339542,-90.9090909090909,4,2,1,85,0,0
345542,-83.3333333333333,4,2,1,90,0,1
345917,-83.3333333333333,4,2,1,90,0,0
348167,-90.9090909090909,4,2,1,90,0,0
348542,-83.3333333333333,4,2,1,90,0,0
352104,-76.9230769230769,4,2,1,90,0,0
352667,-71.4285714285714,4,2,1,90,0,0
354167,-90.9090909090909,4,2,1,90,0,0
354542,-71.4285714285714,4,2,1,90,0,1
354917,-71.4285714285714,4,2,1,90,0,0
355104,-66.6666666666667,4,2,1,90,0,1
355479,-66.6666666666667,4,2,1,90,0,0
355667,-62.5,4,2,1,90,0,1
355854,-62.5,4,2,1,90,0,0
356042,-62.5,4,2,1,80,0,0
356417,-62.5,4,2,1,60,0,0
356792,-62.5,4,2,1,65,0,0
357167,-62.5,4,2,1,70,0,0
357542,-76.9230769230769,4,2,1,85,0,0
359604,-90.9090909090909,4,2,1,85,0,0
360542,-71.4285714285714,4,2,1,85,0,0
362604,-90.9090909090909,4,2,1,85,0,0
366542,-76.9230769230769,4,2,1,85,0,0
368042,-100,4,2,1,85,0,0
368792,-66.6666666666667,4,2,1,85,0,0
369542,-83.3333333333333,4,2,1,85,0,0
371604,-90.9090909090909,4,2,1,85,0,0
372167,-100,4,2,1,85,0,0
372542,-83.3333333333333,4,2,1,85,0,0
380042,-76.9230769230769,4,2,1,85,0,0
380792,-76.9230769230769,4,2,1,80,0,0
381542,-76.9230769230769,4,2,1,85,0,0
381917,-76.9230769230769,4,2,1,85,0,0
387542,-133.333333333333,4,2,1,90,0,1
387917,-66.6666666666667,4,2,1,90,0,0
389042,-133.333333333333,4,2,1,90,0,1
389417,-62.5,4,2,1,90,0,0
390542,-250,4,2,1,90,0,1
390635,-250,4,2,69,90,0,0
390917,-250,4,2,96,87,0,0
391292,-250,4,2,69,84,0,0
391667,-250,4,2,96,81,0,0
392042,-250,4,2,69,78,0,0
392417,-250,4,2,96,75,0,0
392792,-250,4,2,69,72,0,0
393167,-250,4,2,96,69,0,0
393542,-250,4,2,69,66,0,0
393917,-250,4,2,96,63,0,0
394292,-250,4,2,69,60,0,0
394667,-250,4,2,96,57,0,0
395042,-250,4,2,69,54,0,0
395417,-250,4,2,96,51,0,0
395792,-250,4,2,69,48,0,0
396167,-250,4,2,96,45,0,0
396542,-250,4,2,69,42,0,0
396917,-250,4,2,96,39,0,0
397292,-250,4,2,69,36,0,0
397667,-250,4,2,96,30,0,0
398042,-250,4,2,69,27,0,0
398417,-250,4,2,96,24,0,0
398792,-250,4,2,69,21,0,0
399167,-250,4,2,96,18,0,0
399542,-250,4,2,69,15,0,0
399917,-250,4,2,96,13,0,0
400292,-250,4,2,69,11,0,0
400667,-250,4,2,96,9,0,0
401042,-250,4,2,69,8,0,0
401417,-250,4,2,96,7,0,0
401792,-250,4,2,69,6,0,0
402167,-250,4,2,96,5,0,0

[Colours]
Combo1 : 210,60,60
Combo2 : 128,128,255
Combo3 : 255,128,128
Combo4 : 58,83,154

[HitObjects]
24,171,48542,5,0,1:0:0:0:
488,213,49292,5,0,1:0:0:0:
95,265,50042,5,0,1:0:0:0:
356,299,50417,5,0,1:0:0:0:
201,347,50604,1,0,1:0:0:0:
275,384,50792,5,0,1:0:0:0:
283,353,50885,1,0,1:0:0:0:
276,311,50979,1,0,1:0:0:0:
239,272,51073,1,0,1:0:0:0:
175,269,51167,1,8,0:0:0:0:
175,269,51542,6,0,P|257:269|291:228,1,105,4|0,1:2|0:0,0:0:0:0:
298,230,51823,1,2,0:0:0:0:
298,230,51917,1,2,0:0:0:0:
313,309,52104,1,2,0:0:0:0:
327,384,52292,2,0,L|398:366,1,73.4999977569581,2|0,0:0|0:0,0:0:0:0:
487,287,52667,2,0,L|415:269,1,73.4999977569581,2|0,0:0|0:0,0:0:0:0:
225,114,53042,6,0,P|272:156|289:214,1,105,4|0,1:2|0:0,0:0:0:0:
298,230,53323,1,2,0:0:0:0:
298,230,53417,1,2,0:0:0:0:
311,142,53604,1,2,0:0:0:0:
323,52,53792,2,0,B|286:61|286:61|251:49,1,73.4999977569581,2|0,0:0|0:0,0:0:0:0:
412,20,54167,2,0,B|449:11|449:11|484:23,1,73.4999977569581,2|0,0:0|0:0,0:0:0:0:
219,186,54542,5,4,1:2:0:0:
454,125,54729,1,2,0:0:0:0:
454,125,54823,1,2,0:0:0:0:
454,125,54917,1,2,0:0:0:0:
364,81,55104,1,0,0:0:0:0:
420,341,55292,2,0,B|428:288|428:288|400:232|400:232|456:121,1,220.499993270874,4|0,1:2|0:0,0:0:0:0:
178,302,56042,6,0,L|56:278,1,94.499997116089,4|0,1:2|0:0,0:0:0:0:
320,183,56417,2,0,L|442:159,1,94.499997116089,4|0,1:2|0:0,0:0:0:0:
70,66,56792,6,0,L|16:48,1,47.2499985580445,4|0,1:2|3:0,0:0:0:0:
179,16,56979,1,0,3:0:0:0:
177,24,57073,1,0,3:0:0:0:
176,32,57167,1,0,3:0:0:0:
175,41,57260,1,0,3:0:0:0:
173,50,57354,1,0,3:0:0:0:
172,59,57448,1,0,3:0:0:0:
170,69,57542,6,0,B|278:40,1,105,4|0,1:2|0:0,0:0:0:0:
36,30,57917,1,8,1:2:0:0:
202,209,58104,1,2,0:0:0:0:
234,135,58292,1,2,1:2:0:0:
125,133,58479,1,2,0:0:0:0:
236,351,58667,1,10,1:2:0:0:
273,279,58854,6,0,P|284:232|279:170,1,105,2|0,0:0|1:0,0:0:0:0:
58,276,59229,2,0,P|46:224|50:172,1,105,2|8,0:0|1:2,0:0:0:0:
167,297,59604,1,2,0:0:0:0:
203,150,59792,2,0,P|244:103|348:133,1,157.5,2|0,1:2|0:0,0:0:0:0:
356,202,60167,2,0,P|314:248|210:218,1,157.5,10|0,1:2|0:0,0:0:0:0:
280,175,60542,6,0,B|383:164|361:243|495:244,1,210,2|8,1:2|1:2,0:0:0:0:
333,331,61104,1,2,0:0:0:0:
455,145,61292,1,2,1:2:0:0:
488,245,61479,1,2,0:0:0:0:
274,90,61667,1,10,1:2:0:0:
346,47,61854,6,0,P|400:39|464:57,1,105,2|0,0:0|1:0,0:0:0:0:
208,35,62229,2,0,P|154:27|90:45,1,105,2|8,0:0|1:2,0:0:0:0:
5,136,62604,1,2,0:0:0:0:
181,212,62792,2,0,P|202:143|185:91,1,105,2|0,1:2|0:0,0:0:0:0:
26,18,63167,2,0,P|5:65|11:117,1,105,10|0,1:2|0:0,0:0:0:0:
317,30,63542,5,2,1:2:0:0:
159,149,63729,1,2,0:0:0:0:
337,120,63917,1,10,1:2:0:0:
144,55,64104,1,2,0:0:0:0:
397,184,64292,2,0,P|421:107|390:49,1,115.50000352478,2|0,1:2|0:0,0:0:0:0:
335,322,64667,5,10,1:2:0:0:
293,132,64854,1,2,0:0:0:0:
422,254,65042,1,2,1:2:0:0:
213,223,65229,2,0,L|90:204,1,115.50000352478,2|8,0:0|1:2,0:0:0:0:
24,46,65604,1,2,0:0:0:0:
155,120,65792,2,0,P|242:134|285:129,1,115.50000352478,0|0,1:0|0:0,0:0:0:0:
465,23,66167,2,0,P|378:9|335:14,1,115.50000352478,8|0,1:2|0:0,0:0:0:0:
137,112,66542,5,2,1:2:0:0:
341,85,66729,1,2,0:0:0:0:
135,222,66917,1,10,1:2:0:0:
375,182,67104,1,2,0:0:0:0:
283,333,67292,2,0,L|261:188,1,115.50000352478,2|0,1:2|0:0,0:0:0:0:
28,346,67667,5,10,1:2:0:0:
122,176,67854,1,2,0:0:0:0:
113,363,68042,1,2,1:2:0:0:
36,169,68229,2,0,P|40:107|81:65,1,115.50000352478,2|8,0:0|1:2,0:0:0:0:
261,16,68604,1,2,0:0:0:0:
217,169,68792,1,0,1:0:0:0:
166,110,68979,1,0,0:0:0:0:
341,117,69167,2,0,L|321:281,1,141.749995674133,8|0,1:2|0:0,0:0:0:0:
353,300,69542,6,0,B|269:258|263:347|152:339,1,210,4|8,1:2|1:2,0:0:0:0:
0,286,70104,1,2,0:0:0:0:
126,208,70292,1,2,1:2:0:0:
51,179,70479,1,2,0:0:0:0:
268,100,70667,1,10,1:2:0:0:
238,171,70854,6,0,P|224:259|225:289,1,105,2|0,0:0|1:0,0:0:0:0:
441,146,71229,2,0,P|455:234|454:264,1,105,2|8,0:0|1:2,0:0:0:0:
286,76,71604,1,2,0:0:0:0:
342,204,71792,1,2,1:2:0:0:
377,28,71979,1,2,0:0:0:0:
238,171,72167,2,0,P|169:183|123:155,1,105,10|2,1:2|0:0,0:0:0:0:
106,145,72448,1,2,0:0:0:0:
106,145,72542,5,2,1:2:0:0:
271,98,72729,1,2,0:0:0:0:
155,310,72917,1,10,1:2:0:0:
317,264,73104,2,0,L|430:229,1,105,2|0,0:0|1:0,0:0:0:0:
271,98,73479,2,0,L|371:66,1,105,2|8,0:0|1:2,0:0:0:0:
512,26,73854,1,2,0:0:0:0:
462,119,74042,6,0,P|436:189|435:261,1,105,0|2,1:0|0:0,0:0:0:0:
432,260,74323,1,2,0:0:0:0:
432,260,74417,1,10,1:2:0:0:
337,145,74604,1,2,0:0:0:0:
212,332,74792,2,0,L|180:200,1,105,2|0,1:2|0:0,0:0:0:0:
404,384,75167,2,0,L|436:252,1,105,10|0,1:2|0:0,0:0:0:0:
144,384,75542,5,2,1:2:0:0:
323,305,75729,1,2,0:0:0:0:
97,243,75917,1,10,1:2:0:0:
288,202,76104,1,2,0:0:0:0:
107,112,76292,2,0,P|179:125|227:121,1,115.50000352478,2|0,1:2|0:0,0:0:0:0:
8,4,76667,5,10,1:2:0:0:
100,209,76854,1,2,0:0:0:0:
177,22,77042,1,2,1:2:0:0:
102,199,77229,2,0,P|50:246|3:258,1,115.50000352478,2|8,0:0|1:2,0:0:0:0:
328,160,77604,1,2,0:0:0:0:
220,122,77792,2,0,L|83:80,1,115.50000352478,0|0,1:0|0:0,0:0:0:0:
345,45,78167,2,0,L|482:3,1,115.50000352478,8|0,1:2|0:0,0:0:0:0:
170,10,78542,5,2,1:2:0:0:
379,77,78729,1,2,0:0:0:0:
185,254,78917,1,10,1:2:0:0:
406,205,79104,1,2,0:0:0:0:
176,134,79292,2,0,P|102:139|54:181,1,115.50000352478,2|0,1:2|0:0,0:0:0:0:
476,93,79667,5,10,1:2:0:0:
171,52,79854,1,2,0:0:0:0:
368,233,80042,5,2,1:2:0:0:
266,271,80229,1,2,1:2:0:0:
266,271,80604,1,0,1:2:0:0:
401,155,80792,5,0,1:0:0:0:
501,213,80979,1,0,1:0:0:0:
341,94,81167,5,8,0:0:0:0:
184,161,81354,1,0,1:0:0:0:
414,17,81542,5,4,1:2:0:0:
414,17,81917,2,0,P|441:105|462:224,1,188.999994232178,10|2,0:0|0:0,0:0:0:0:
324,99,82479,1,0,1:0:0:0:
220,241,82667,1,10,0:0:0:0:
307,292,82854,1,2,0:0:0:0:
201,101,83042,6,0,B|139:71|139:71|68:117,1,141.749995674133,2|0,1:2|0:0,0:0:0:0:
58,127,83417,1,10,0:0:0:0:
221,362,83604,2,0,B|330:347|267:300|391:278,1,188.999994232178,2|0,0:0|1:0,0:0:0:0:
246,181,84167,2,0,P|225:241|224:299,1,94.499997116089,10|0,0:0|0:0,0:0:0:0:
449,351,84542,5,2,1:2:0:0:
512,295,84729,1,2,0:0:0:0:
352,155,84917,2,0,P|446:130|465:125,1,94.499997116089,10|0,0:0|0:0,0:0:0:0:
242,62,85292,2,0,P|147:37|128:32,1,94.499997116089,2|0,0:0|1:0,0:0:0:0:
230,233,85667,1,10,0:0:0:0:
354,73,85854,1,0,0:0:0:0:
400,307,86042,6,0,P|317:230|220:268,1,188.999994232178,2|10,1:2|0:0,0:0:0:0:
142,376,86604,1,2,0:0:0:0:
28,148,86792,1,0,0:0:0:0:
133,189,86979,1,2,1:2:0:0:
17,322,87167,2,0,P|3:232|-6:197,1,94.499997116089,10|0,0:2|0:0,0:0:0:0:
149,22,87542,6,0,P|212:81|182:163,1,141.749995674133,0|0,1:0|0:0,0:0:0:0:
146,162,87917,2,0,B|245:153|210:239|319:219,1,188.999994232178,10|2,0:0|0:0,0:0:0:0:
466,134,88479,1,0,1:0:0:0:
361,11,88667,2,0,P|389:94|396:133,1,94.499997116089,10|0,0:0|0:0,0:0:0:0:
369,335,89042,6,0,P|278:320|232:369,1,141.749995674133,2|0,1:2|0:0,0:0:0:0:
237,372,89417,1,10,0:0:0:0:
135,190,89604,2,0,P|198:196|238:243,1,94.499997116089,2|0,0:0|0:0,0:0:0:0:
66,309,89979,1,0,1:0:0:0:
16,147,90167,2,0,L|-6:275,1,94.499997116089,10|0,0:0|0:0,0:0:0:0:
274,94,90542,6,0,B|207:64|189:59|189:59|171:67|102:114,2,188.999994232178,2|8|2,1:2|0:0|0:0,0:0:0:0:
184,227,91479,1,0,1:0:0:0:
343,264,91667,2,0,P|274:268|236:305,1,94.499997116089,8|0,0:0|0:0,0:0:0:0:
439,374,92042,6,0,B|467:334|467:334|424:243|424:243|436:173,1,178.500003404617,2|0,1:2|0:0,0:0:0:0:
479,161,92323,6,0,P|406:181|337:134,1,120.750002303124,2|0,0:0|0:0,0:0:0:0:
322,111,92604,6,0,P|340:81|400:131,1,78.7500030040742,2|0,0:0|0:0,0:0:0:0:
270,187,92792,6,0,B|183:189|229:140|124:135,1,136.499993751526,2|0,0:0|1:0,0:0:0:0:
271,360,93167,1,10,0:0:0:0:
351,252,93354,1,0,1:0:0:0:
170,33,93542,5,4,1:2:0:0:
170,33,93917,2,0,P|83:49|53:53,1,94.499997116089,10|2,0:0|0:0,0:0:0:0:
220,167,94292,1,2,0:0:0:0:
290,118,94479,1,0,1:0:0:0:
397,283,94667,1,10,0:0:0:0:
321,253,94854,1,2,0:0:0:0:
469,60,95042,6,0,L|488:215,1,141.749995674133,2|0,1:2|0:0,0:0:0:0:
488,225,95417,1,10,0:0:0:0:
318,113,95604,2,0,P|335:58|373:10,1,94.499997116089,2|0,0:0|0:0,0:0:0:0:
192,281,95979,1,2,1:2:0:0:
176,116,96167,2,0,P|201:155|214:200,1,94.499997116089,10|0,0:2|0:0,0:0:0:0:
40,92,96542,6,0,P|123:79|247:54,1,188.999994232178,0|10,1:0|0:0,0:0:0:0:
318,166,97104,1,2,0:0:0:0:
239,215,97292,1,2,0:0:0:0:
434,357,97479,1,0,1:0:0:0:
469,197,97667,2,0,P|487:283|496:329,1,94.499997116089,10|0,0:0|0:0,0:0:0:0:
310,137,98042,6,0,P|354:86|444:102,1,141.749995674133,2|0,1:2|0:0,0:0:0:0:
445,108,98417,1,10,0:0:0:0:
305,234,98604,2,0,B|200:221|261:155|133:144,1,188.999994232178,2|2,0:0|1:2,0:0:0:0:
56,270,99167,2,0,P|127:249|189:238,1,94.499997116089,10|0,0:2|0:0,0:0:0:0:
361,351,99542,6,0,P|316:336|213:315,1,141.749995674133,0|0,1:0|0:0,0:0:0:0:
145,349,99917,2,0,P|141:286|216:328,1,188.999994232178,10|2,0:0|0:0,0:0:0:0:
308,252,100479,1,0,1:0:0:0:
150,159,100667,2,0,P|224:142|280:127,1,94.499997116089,10|2,0:0|0:0,0:0:0:0:
460,47,101042,6,0,B|387:33|387:33|358:50|358:50|273:35,1,188.999994232178,0|10,1:0|0:0,0:0:0:0:
384,225,101604,2,0,P|400:151|427:102,1,94.499997116089,2|0,0:0|0:0,0:0:0:0:
440,306,101979,1,2,1:2:0:0:
289,236,102167,2,0,P|242:243|198:260,1,94.499997116089,10|0,0:2|0:0,0:0:0:0:
11,158,102542,6,0,P|111:167|181:176,1,141.749995674133,2|0,1:2|0:0,0:0:0:0:
216,135,102917,2,0,P|220:72|186:26,1,94.499997116089,8|0,0:0|0:0,0:0:0:0:
309,256,103292,1,2,0:0:0:0:
361,186,103479,1,0,1:0:0:0:
485,350,103667,2,0,P|418:334|359:326,1,94.499997116089,8|0,0:0|0:0,0:0:0:0:
191,245,104042,6,0,B|221:208|221:208|243:297|243:297|217:372,1,178.500003404617,2|0,1:2|0:0,0:0:0:0:
175,384,104323,6,0,P|89:354|25:345,1,120.750002303124,2|0,0:0|0:0,0:0:0:0:
0,302,104604,6,0,P|24:267|66:279,1,78.7500030040742,2|0,0:0|0:0,0:0:0:0:
102,210,104792,6,0,B|48:153|105:141|33:72,1,136.499993751526,2|0,0:0|1:0,0:0:0:0:
199,276,105167,2,0,B|253:219|196:207|268:138,1,136.499993751526,10|0,0:0|0:0,0:0:0:0:
60,348,105542,5,4,1:2:0:0:
60,348,105917,1,10,0:0:0:0:
123,228,106104,1,2,0:0:0:0:
256,192,106292,1,2,0:0:0:0:
383,239,106479,1,2,1:2:0:0:
123,228,106667,1,10,0:0:0:0:
316,350,106854,1,2,0:0:0:0:
316,350,106948,1,2,0:0:0:0:
316,350,107042,6,0,P|235:335|188:337,1,105,2|0,1:2|0:0,0:0:0:0:
414,132,107417,2,0,P|399:213|401:260,1,105,10|0,0:2|0:0,0:0:0:0:
196,34,107792,2,0,P|277:49|324:47,1,105,2|2,0:0|1:2,0:0:0:0:
98,252,108167,2,0,P|113:171|111:124,1,105,10|2,0:2|0:0,0:0:0:0:
410,243,108542,5,2,1:2:0:0:
255,305,108729,1,0,0:0:0:0:
194,116,108917,1,10,0:2:0:0:
295,143,109104,1,0,0:0:0:0:
261,66,109292,1,2,0:0:0:0:
229,205,109479,1,2,1:2:0:0:
487,136,109667,1,10,0:2:0:0:
358,84,109854,1,2,0:0:0:0:
358,84,110042,6,0,P|430:72|463:71,1,105,2|2,1:2|0:0,0:0:0:0:
232,0,110417,1,10,0:2:0:0:
295,143,110604,2,0,P|312:192|323:243,1,105,2|2,0:0|0:0,0:0:0:0:
162,117,110979,1,2,1:2:0:0:
90,298,111167,2,0,P|101:247|120:198,1,105,10|2,0:2|0:0,0:0:0:0:
295,143,111542,6,0,B|171:130|243:53|85:58,1,210,2|10,1:2|0:0,0:0:0:0:
31,220,112104,1,2,0:0:0:0:
120,198,112292,1,2,0:0:0:0:
59,336,112479,1,2,1:2:0:0:
5,105,112667,1,10,0:2:0:0:
120,198,112854,1,2,0:0:0:0:
192,128,113042,6,0,P|139:102|66:117,1,105,2|0,1:2|0:0,0:0:0:0:
352,224,113417,2,0,P|405:250|478:235,1,105,10|0,0:2|0:0,0:0:0:0:
224,256,113792,2,0,P|198:309|213:382,1,105,2|2,0:0|1:2,0:0:0:0:
331,110,114167,2,0,P|357:57|342:-16,1,105,10|2,0:2|0:0,0:0:0:0:
94,104,114542,5,2,1:2:0:0:
262,48,114729,1,0,0:0:0:0:
224,256,114917,1,10,0:2:0:0:
181,161,115104,1,0,0:0:0:0:
146,232,115292,1,2,0:0:0:0:
261,184,115479,1,2,1:2:0:0:
79,169,115667,1,10,0:2:0:0:
340,249,115854,1,2,0:0:0:0:
340,249,116042,6,0,P|262:266|218:293,1,105,2|0,1:2|0:0,0:0:0:0:
443,139,116417,1,10,0:2:0:0:
343,231,116604,1,2,0:2:0:0:
477,214,116792,1,2,0:2:0:0:
305,151,116979,1,2,1:2:0:0:
466,289,117167,1,10,0:2:0:0:
322,71,117354,1,2,0:2:0:0:
320,380,117542,6,0,B|320:334|320:334|346:298|346:298|341:202,1,157.5,6|0,1:2|0:0,0:0:0:0:
339,189,117917,1,10,0:0:0:0:
243,305,118104,1,2,0:0:0:0:
251,184,118292,1,2,0:0:0:0:
143,236,118479,1,2,1:2:0:0:
408,351,118667,1,10,0:0:0:0:
315,141,118854,1,2,0:0:0:0:
315,141,118948,1,2,0:0:0:0:
315,141,119042,5,2,1:2:0:0:
337,238,119229,1,0,0:0:0:0:
131,107,119417,1,10,0:0:0:0:
229,85,119604,1,0,0:0:0:0:
110,288,119792,1,2,0:0:0:0:
87,190,119979,1,2,1:2:0:0:
286,322,120167,1,10,0:2:0:0:
194,163,120354,1,2,0:0:0:0:
385,190,120542,6,0,B|438:187|501:215,1,105,2|0,1:2|0:0,0:0:0:0:
227,95,120917,2,0,B|276:72|329:75,1,105,10|0,0:2|0:0,0:0:0:0:
127,177,121292,1,2,0:0:0:0:
20,92,121479,1,2,1:2:0:0:
92,297,121667,1,10,0:2:0:0:
127,177,121854,1,2,0:0:0:0:
187,267,122042,6,0,P|212:330|215:386,1,105,2|2,1:2|0:0,0:0:0:0:
339,171,122417,2,0,P|314:234|311:290,1,105,10|2,0:2|0:0,0:0:0:0:
195,101,122792,1,2,0:0:0:0:
232,179,122979,1,2,1:2:0:0:
346,17,123167,1,10,0:0:0:0:
178,95,123354,1,2,0:0:0:0:
412,88,123542,6,0,P|465:97|523:122,1,105,2|0,1:2|0:0,0:0:0:0:
264,5,123917,1,10,0:2:0:0:
339,171,124104,1,2,0:0:0:0:
371,77,124292,1,2,0:0:0:0:
232,179,124479,1,2,1:2:0:0:
386,290,124667,2,0,P|465:295|502:277,1,105,10|2,0:2|0:0,0:0:0:0:
508,273,124948,1,2,0:0:0:0:
512,249,125042,6,0,P|452:229|371:347,1,210,2|10,1:2|0:0,0:0:0:0:
247,208,125604,1,0,0:0:0:0:
388,171,125792,1,2,0:0:0:0:
171,130,125979,1,2,1:2:0:0:
436,63,126167,2,0,P|392:49|316:43,1,105,10|2,0:2|0:0,0:0:0:0:
105,59,126542,5,2,1:2:0:0:
263,136,126729,1,0,0:0:0:0:
83,256,126917,1,10,0:2:0:0:
227,226,127104,1,0,0:0:0:0:
66,144,127292,1,2,0:0:0:0:
186,312,127479,1,2,1:2:0:0:
194,67,127667,1,10,0:2:0:0:
83,256,127854,1,2,0:0:0:0:
377,154,128042,5,0,1:0:0:0:
63,33,128417,5,8,0:0:0:0:
237,269,128792,5,8,0:0:0:0:
90,201,128979,1,0,1:0:0:0:
108,363,129167,5,8,0:0:0:0:
220,106,129354,1,8,0:0:0:0:
220,106,129448,1,8,0:0:0:0:
220,106,129542,6,0,P|288:114|330:156,1,110.249996635437,6|0,1:2|0:0,0:0:0:0:
425,192,129917,6,0,P|370:189|325:158,1,110.249996635437,10|0,1:2|0:0,0:0:0:0:
210,131,130292,6,0,B|332:107|292:238|436:212,1,251.999992309571,2|8,1:2|1:2,0:0:0:0:
166,318,130854,6,0,L|63:341,1,105,2|0,0:0|1:0,0:0:0:0:
237,219,131229,2,0,L|134:195,1,105,2|8,0:0|1:2,0:0:0:0:
343,159,131604,2,0,L|259:93,1,105,2|0,0:0|1:0,0:0:0:0:
464,149,131979,5,2,0:0:0:0:
270,300,132167,1,10,1:2:0:0:
213,229,132354,1,2,0:0:0:0:
326,62,132542,6,0,B|272:76|272:76|193:48,1,110.249996635437,2|0,1:2|0:0,0:0:0:0:
91,55,132917,6,0,B|142:36|142:36|196:50,1,110.249996635437,10|0,1:2|0:0,0:0:0:0:
331,83,133292,6,0,B|271:103|271:103|153:64|153:64|88:86,1,251.999992309571,2|8,1:2|1:2,0:0:0:0:
149,277,133854,6,0,P|144:214|164:149,1,105,2|0,0:0|1:0,0:0:0:0:
68,342,134229,2,0,P|36:287|27:219,1,105,2|8,0:0|1:2,0:0:0:0:
217,384,134604,2,0,P|239:324|284:274,1,105,2|0,0:0|1:0,0:0:0:0:
419,291,134979,5,2,0:0:0:0:
249,147,135167,1,10,1:2:0:0:
334,103,135354,1,2,0:0:0:0:
180,253,135542,6,0,P|143:217|126:148,1,110.249996635437,2|0,1:2|0:0,0:0:0:0:
71,253,135917,6,0,P|108:217|125:148,1,110.249996635437,10|0,1:2|0:0,0:0:0:0:
192,232,136292,6,0,B|140:186|122:129|122:129|102:186|52:236,1,251.999992309571,2|8,1:2|1:2,0:0:0:0:
275,359,136854,6,0,P|325:344|414:324,1,105,2|0,0:0|1:0,0:0:0:0:
210,206,137229,2,0,P|261:218|348:245,1,105,2|8,0:0|1:2,0:0:0:0:
412,84,137604,2,0,P|361:96|274:123,1,105,2|0,0:0|1:0,0:0:0:0:
92,239,137979,5,2,0:0:0:0:
122,0,138167,1,10,1:2:0:0:
202,64,138354,1,2,0:0:0:0:
458,4,138542,6,0,B|436:93|436:93|451:121,1,110.249996635437,2|0,1:2|0:0,0:0:0:0:
444,234,138917,6,0,B|466:145|466:145|457:128,1,110.249996635437,10|0,1:2|0:0,0:0:0:0:
428,2,139292,6,0,B|409:87|409:87|434:137|434:137|409:244,1,251.999992309571,2|8,1:2|1:2,0:0:0:0:
233,171,139854,6,0,P|353:161|369:173,1,105,2|0,0:0|1:0,0:0:0:0:
150,203,140229,2,0,P|106:174|83:127,1,105,2|8,0:0|1:2,0:0:0:0:
221,258,140604,2,0,P|217:309|188:353,1,105,2|0,0:0|1:0,0:0:0:0:
171,123,140979,5,2,0:0:0:0:
299,349,141167,1,10,1:2:0:0:
132,282,141354,1,2,0:0:0:0:
263,66,141542,1,4,1:2:0:0:
376,257,141729,5,2,0:0:0:0:
512,142,141917,1,10,1:2:0:0:
449,85,142104,2,0,P|377:78|327:107,1,115.50000352478,2|0,0:0|1:0,0:0:0:0:
258,258,142479,1,2,0:0:0:0:
100,66,142667,1,10,1:2:0:0:
57,132,142854,2,0,P|85:202|94:248,1,115.50000352478,2|0,0:0|1:0,0:0:0:0:
240,142,143229,5,2,0:0:0:0:
178,359,143417,1,10,1:2:0:0:
257,287,143604,1,2,0:0:0:0:
402,380,143792,2,0,L|421:245,1,115.50000352478,2|0,1:2|0:0,0:0:0:0:
480,218,144073,1,2,0:0:0:0:
494,191,144167,2,0,L|485:133,1,57.7500017623902,10|0,1:2|0:0,0:0:0:0:
326,0,144354,1,2,0:0:0:0:
260,51,144542,1,0,1:0:0:0:
364,188,144729,5,2,0:0:0:0:
206,296,144917,1,10,1:2:0:0:
149,241,145104,2,0,P|154:165|147:99,1,115.50000352478,2|0,0:0|1:0,0:0:0:0:
322,272,145479,1,2,0:0:0:0:
342,23,145667,1,10,1:2:0:0:
399,77,145854,2,0,P|463:65|525:53,1,115.50000352478,2|0,0:0|1:0,0:0:0:0:
324,168,146229,5,2,0:0:0:0:
405,355,146417,1,10,1:2:0:0:
330,293,146604,1,2,0:0:0:0:
143,384,146792,2,0,P|208:361|240:310,1,115.50000352478,2|0,1:2|0:0,0:0:0:0:
220,243,147073,1,2,0:0:0:0:
198,223,147167,2,0,P|133:237|110:272,1,57.7500017623902,10|0,1:2|0:0,0:0:0:0:
46,384,147354,1,2,0:0:0:0:
0,318,147542,1,0,1:0:0:0:
174,141,147729,5,2,0:0:0:0:
335,311,147917,1,10,1:2:0:0:
399,250,148104,2,0,L|382:121,1,115.50000352478,2|0,0:0|1:0,0:0:0:0:
247,360,148479,1,2,0:0:0:0:
111,212,148667,1,10,1:2:0:0:
51,270,148854,2,0,L|35:384,1,115.50000352478,2|0,0:0|1:0,0:0:0:0:
214,237,149229,5,2,0:0:0:0:
29,124,149417,1,10,1:2:0:0:
100,66,149604,1,2,0:0:0:0:
322,137,149792,1,2,1:2:0:0:
322,137,149885,2,0,L|429:95,1,115.50000352478,2|2,0:0|0:0,0:0:0:0:
451,89,150167,1,10,1:2:0:0:
375,286,150354,2,0,L|514:333,1,115.50000352478,2|0,0:0|1:0,0:0:0:0:
309,160,150729,5,2,0:0:0:0:
182,363,150917,1,10,1:2:0:0:
123,304,151104,2,0,P|64:296|-6:331,1,115.50000352478,2|0,0:0|1:0,0:0:0:0:
238,254,151479,1,2,0:0:0:0:
34,140,151667,1,10,1:2:0:0:
107,86,151854,2,0,P|166:78|236:113,1,115.50000352478,2|8,0:0|1:2,0:0:0:0:
373,271,152229,5,2,1:2:0:0:
152,173,152417,1,10,1:2:0:0:
417,111,152604,1,2,1:2:0:0:
266,328,152792,5,10,1:2:0:0:
241,293,152885,1,0,1:0:0:0:
204,279,152979,1,0,1:0:0:0:
141,309,153073,5,2,1:2:0:0:
106,327,153167,1,8,1:2:0:0:
61,320,153260,1,0,1:0:0:0:
8,266,153354,5,2,1:2:0:0:
1,190,153448,1,2,1:2:0:0:
54,136,153542,1,4,1:2:0:0:
316,69,154292,6,0,B|257:50|257:50|190:93,1,125.999996154785,8|0,0:2|0:0,0:0:0:0:
360,302,155042,6,0,P|386:288|393:286,1,28.8750008811951,0|0,1:0|0:0,0:0:0:0:
353,311,155135,2,0,P|368:285|373:280,1,28.8750008811951,0|0,3:0|0:0,0:0:0:0:
350,320,155229,2,0,P|350:290|352:283,1,28.8750008811951,0|0,3:0|0:0,0:0:0:0:
352,329,155323,2,0,P|342:300|341:293,1,28.8750008811951,0|0,3:0|0:0,0:0:0:0:
359,334,155417,2,0,P|336:314|332:308,1,28.8750008811951,0|0,1:0|0:0,0:0:0:0:
498,250,155604,1,2,0:0:0:0:
343,189,155792,6,0,L|336:226,1,36.75,4|0,0:3|0:0,0:0:0:0:
321,242,156542,6,0,B|302:129|302:129|326:101|326:101|383:119,1,188.999994232178,6|0,1:2|0:0,0:0:0:0:
417,159,156917,2,0,L|392:19,1,125.999996154785,10|0,0:2|0:0,0:0:0:0:
222,229,157292,1,2,1:2:0:0:
263,97,157479,1,0,1:0:0:0:
382,314,157667,2,0,B|344:284|344:284|239:318,1,125.999996154785,10|2,0:2|1:2,0:0:0:0:
67,338,158042,6,0,B|159:327|120:237|233:234,1,188.999994232178,2|0,1:2|0:0,0:0:0:0:
284,222,158417,2,0,P|238:224|205:235,1,62.9999980773926,10|0,0:0|0:0,0:0:0:0:
110,273,158604,2,0,L|91:100,1,125.999996154785,2|0,0:0|1:0,0:0:0:0:
0,226,158979,1,2,1:2:0:0:
182,115,159167,2,0,B|290:95|252:164|357:142,1,173.250005287171,8|0,0:0|0:0,0:0:0:0:
382,76,159542,6,0,P|297:90|300:202,1,188.999994232178,2|0,1:2|0:0,0:0:0:0:
343,229,159917,2,0,B|284:202|284:202|215:225,1,125.999996154785,10|0,0:2|0:0,0:0:0:0:
56,292,160292,1,2,1:2:0:0:
167,345,160479,1,0,1:0:0:0:
310,103,160667,2,0,L|153:143,1,125.999996154785,10|0,0:2|1:0,0:0:0:0:
4,10,161042,6,0,B|115:-11|71:76|210:53,1,188.999994232178,2|0,1:2|0:0,0:0:0:0:
222,0,161417,2,0,L|198:81,1,62.9999980773926,10|0,0:2|0:0,0:0:0:0:
187,134,161604,2,0,P|265:97|314:108,1,125.999996154785,2|0,0:0|1:0,0:0:0:0:
460,27,161979,1,2,1:2:0:0:
268,186,162167,1,8,0:0:0:0:
393,275,162354,1,0,1:0:0:0:
450,203,162542,6,0,B|307:175|354:275|209:272,1,251.999992309571,2|8,1:2|0:0,0:0:0:0:
33,127,163104,6,0,B|104:130|158:169|158:169|190:235|266:257,1,272.999987503052,2|0,0:0|1:0,0:0:0:0:
505,58,163667,6,0,B|417:94|417:94|378:187|378:187|272:250,1,293.999991027832,10|0,0:0|1:0,0:0:0:0:
95,249,164229,1,2,0:0:0:0:
278,130,164417,1,10,0:0:0:0:
319,259,164604,1,2,0:0:0:0:
114,18,164792,1,2,1:2:0:0:
52,176,164979,1,2,1:2:0:0:
299,24,165167,2,0,B|365:3|365:3|438:19,1,125.999996154785,8|0,0:0|1:0,0:0:0:0:
512,233,165542,6,0,B|470:191|470:191|418:210|418:210|348:109|229:168,1,315.000012016297,2|8,1:2|0:0,0:0:0:0:
312,363,166104,2,0,P|428:292|368:150,1,315.000012016297,2|0,0:0|1:0,0:0:0:0:
144,312,166667,2,0,L|305:270,1,157.500006008148,10|0,0:2|1:0,0:0:0:0:
0,192,167042,5,0,1:0:0:0:
0,192,167417,5,2,0:0:0:0:
57,135,167604,5,2,0:0:0:0:
153,132,167792,5,2,0:0:0:0:
238,185,167979,5,2,0:0:0:0:
363,208,168167,5,2,0:0:0:0:
491,159,168354,5,2,0:0:0:0:
317,83,168542,6,0,B|202:64|250:151|93:140,1,188.999994232178,4|0,1:2|0:0,0:0:0:0:
67,100,168917,2,0,P|157:68|217:170,1,204.749990627289,10|0,0:0|0:0,0:0:0:0:
210,214,169292,1,2,1:2:0:0:
238,129,169479,1,0,1:0:0:0:
114,348,169667,1,10,0:2:0:0:
89,217,169854,1,0,1:0:0:0:
256,354,170042,6,0,B|322:380|322:380|397:333,1,136.499993751526,2|0,1:2|0:0,0:0:0:0:
349,58,170417,2,0,B|283:32|283:32|208:79,1,136.499993751526,10|0,0:2|0:0,0:0:0:0:
416,208,170792,1,2,1:2:0:0:
448,118,170979,1,0,1:0:0:0:
138,136,171167,2,0,B|220:139|208:203|295:213,1,173.250005287171,10|0,0:2|0:0,0:0:0:0:
291,207,171542,6,0,B|257:199|237:179|237:179|250:256|223:325,1,204.749990627289,2|0,1:2|0:0,0:0:0:0:
184,384,171917,2,0,P|228:345|308:357,1,136.499993751526,8|2,0:0|0:0,0:0:0:0:
339,374,172198,1,2,0:0:0:0:
339,374,172292,1,0,1:0:0:0:
291,207,172479,1,0,1:0:0:0:
71,384,172667,1,8,0:0:0:0:
115,156,172854,1,0,1:0:0:0:
198,200,173042,6,0,P|130:248|25:184,1,204.749990627289,0|0,1:0|0:0,0:0:0:0:
32,114,173417,2,0,P|114:62|198:113,1,204.749990627289,8|0,0:0|0:0,0:0:0:0:
213,157,173792,1,0,1:0:0:0:
261,49,173979,1,0,1:0:0:0:
458,173,174167,2,0,B|382:172|409:132|315:136,1,125.999996154785,8|0,0:0|1:0,0:0:0:0:
115,156,174542,6,0,L|321:126,1,188.999994232178,0|0,1:0|0:0,0:0:0:0:
280,213,174917,2,0,P|217:139|259:52,1,204.749990627289,10|0,0:0|0:0,0:0:0:0:
334,39,175292,1,2,1:2:0:0:
202,0,175479,1,0,1:0:0:0:
426,173,175667,1,10,0:2:0:0:
302,213,175854,1,0,1:0:0:0:
482,53,176042,6,0,P|512:126|502:191,1,136.499993751526,2|0,1:2|0:0,0:0:0:0:
184,237,176417,2,0,P|154:164|164:99,1,136.499993751526,10|0,0:2|0:0,0:0:0:0:
345,221,176792,1,2,1:2:0:0:
366,101,176979,1,0,1:0:0:0:
232,306,177167,2,0,B|174:326|174:326|95:274,1,115.50000352478,10|0,0:2|1:0,0:0:0:0:
345,221,177542,6,0,B|416:187|469:238|469:238|456:305|362:316,1,272.999987503052,2|8,1:2|0:0,0:0:0:0:
251,217,178104,1,2,0:0:0:0:
251,217,178198,1,2,0:0:0:0:
251,217,178292,1,0,1:0:0:0:
367,315,178479,1,0,1:0:0:0:
489,111,178667,1,10,0:0:0:0:
337,193,178854,1,0,1:0:0:0:
238,87,179042,6,0,B|357:64|315:148|433:143,1,204.749990627289,0|0,1:0|0:0,0:0:0:0:
489,111,179417,1,8,0:0:0:0:
289,249,179604,1,0,1:0:0:0:
272,281,179698,2,0,P|258:321|266:370,1,68.2499968757631,0|0,1:0|0:0,0:0:0:0:
387,182,179885,1,0,1:0:0:0:
410,224,179979,2,0,P|424:264|416:313,1,78.7500030040742,0|0,1:0|0:0,0:0:0:0:
220,113,180167,1,0,1:0:0:0:
403,52,180354,1,0,1:0:0:0:
106,32,180542,6,0,B|236:-20|193:126|337:70,1,251.999992309571,4|8,1:2|0:0,0:0:0:0:
512,0,181104,1,0,0:0:0:0:
416,252,181292,2,0,B|379:189|379:189|387:101,1,136.499993751526,2|0,1:2|1:0,0:0:0:0:
143,19,181667,2,0,B|180:82|180:82|172:170,1,136.499993751526,10|0,0:2|1:0,0:0:0:0:
24,289,182042,6,0,B|139:250|104:335|253:327,1,204.749990627289,2|0,1:2|0:0,0:0:0:0:
286,332,182417,2,0,P|230:256|151:305,1,204.749990627289,10|0,0:0|0:0,0:0:0:0:
131,379,182792,1,2,1:2:0:0:
289,351,182979,1,0,1:0:0:0:
57,196,183167,2,0,P|40:278|59:389,1,173.250005287171,10|0,0:0|0:0,0:0:0:0:
44,380,183542,6,0,B|35:350|32:320|32:320|212:362,1,204.749990627289,2|0,1:2|0:0,0:0:0:0:
241,372,183917,2,0,P|208:294|270:219,1,136.499993751526,8|2,0:0|0:0,0:0:0:0:
254,216,184198,1,2,0:0:0:0:
254,216,184292,1,0,1:0:0:0:
377,340,184479,1,0,1:0:0:0:
488,115,184667,1,8,0:0:0:0:
325,258,184854,1,0,1:0:0:0:
213,92,185042,6,0,B|303:33|303:33|398:79,1,204.749990627289,0|0,1:0|0:0,0:0:0:0:
409,166,185417,2,0,B|318:224|318:224|223:178,1,204.749990627289,8|0,0:0|0:0,0:0:0:0:
160,153,185792,1,0,1:0:0:0:
311,127,185979,1,0,1:0:0:0:
47,20,186167,2,0,B|118:9|110:51|199:31,1,125.999996154785,8|0,0:0|1:0,0:0:0:0:
356,8,186542,6,0,L|337:202,1,188.999994232178,0|0,1:0|0:0,0:0:0:0:
337,267,186917,2,0,P|271:191|161:201,1,204.749990627289,10|0,0:0|0:0,0:0:0:0:
110,226,187292,1,2,1:2:0:0:
149,112,187479,1,0,1:0:0:0:
291,350,187667,1,10,0:2:0:0:
243,197,187854,1,0,1:0:0:0:
59,324,188042,6,0,B|119:360|119:360|206:346,1,136.499993751526,2|0,1:2|0:0,0:0:0:0:
247,55,188417,2,0,B|186:18|186:18|99:32,1,136.499993751526,10|0,0:0|0:0,0:0:0:0:
243,197,188792,1,2,1:2:0:0:
106,146,188979,1,0,1:0:0:0:
335,90,189167,2,0,P|393:87|445:134,1,115.50000352478,10|0,0:2|1:0,0:0:0:0:
339,370,189542,6,0,B|316:291|316:291|343:219|343:219|317:96,1,272.999987503052,2|8,1:2|0:0,0:0:0:0:
152,38,190104,1,2,0:0:0:0:
152,38,190198,1,2,0:0:0:0:
152,38,190292,1,0,1:0:0:0:
113,182,190479,1,0,1:0:0:0:
290,3,190667,1,10,0:0:0:0:
352,218,190854,1,0,1:0:0:0:
196,96,191042,6,0,B|306:50|292:155|444:106,1,220.499993270874,0|2,1:0|0:0,0:0:0:0:
484,52,191417,2,0,P|433:131|449:198,1,146.999995513916,8|2,0:0|1:2,0:0:0:0:
144,229,191792,1,0,1:0:0:0:
188,217,191885,1,0,1:0:0:0:
240,204,191979,1,0,1:0:0:0:
59,136,192167,1,0,1:0:0:0:
342,221,192354,1,0,1:0:0:0:
37,340,192542,5,6,1:2:0:0:
37,340,192917,5,8,1:2:0:0:
87,273,193104,2,0,P|79:226|55:186,2,94.499997116089,2|0|0,0:0|1:0|0:0,0:0:0:0:
256,139,193667,2,0,P|190:128|156:120,1,94.499997116089,10|0,1:2|0:0,0:0:0:0:
349,52,194042,5,2,1:2:0:0:
413,129,194229,1,2,0:0:0:0:
302,281,194417,1,10,1:2:0:0:
240,177,194604,5,2,0:0:0:0:
350,214,194792,1,2,1:2:0:0:
392,360,194979,1,2,0:0:0:0:
212,297,195167,5,10,1:2:0:0:
374,234,195354,1,2,0:0:0:0:
137,112,195542,5,2,1:2:0:0:
137,112,195917,5,8,1:2:0:0:
205,55,196104,2,0,P|295:64|313:88,2,94.499997116089,2|0|0,0:0|1:0|0:0,0:0:0:0:
348,252,196667,2,0,P|360:186|373:141,1,94.499997116089,10|0,1:2|0:0,0:0:0:0:
405,342,197042,5,2,1:2:0:0:
314,379,197229,1,2,0:0:0:0:
177,223,197417,1,10,1:2:0:0:
259,180,197604,5,2,0:0:0:0:
204,366,197792,1,2,1:2:0:0:
114,333,197979,1,2,0:0:0:0:
166,136,198167,5,10,1:2:0:0:
250,310,198354,1,2,0:0:0:0:
347,49,198542,5,2,1:2:0:0:
347,49,198917,5,8,1:2:0:0:
477,72,199104,2,0,P|415:104|381:147,2,94.499997116089,2|0|0,0:0|1:0|0:0,0:0:0:0:
384,304,199667,2,0,P|367:255|339:176,1,94.499997116089,10|0,1:2|0:0,0:0:0:0:
150,115,200042,5,2,1:2:0:0:
79,219,200229,1,2,0:0:0:0:
198,349,200417,1,10,1:2:0:0:
280,233,200604,5,2,0:0:0:0:
190,190,200792,1,2,1:2:0:0:
77,339,200979,1,2,0:0:0:0:
223,330,201167,5,10,1:2:0:0:
72,234,201354,1,2,0:0:0:0:
306,103,201542,5,2,1:2:0:0:
55,31,201917,5,8,1:2:0:0:
266,259,202292,5,0,1:0:0:0:
390,61,202667,5,10,1:2:0:0:
92,278,203042,5,0,1:0:0:0:
248,237,203229,2,0,P|165:205|122:161,1,115.50000352478,0|0,1:0|0:0,0:0:0:0:
309,349,203604,5,0,1:0:0:0:
402,164,203792,2,0,P|378:216|372:273,1,115.50000352478,0|0,1:0|1:0,0:0:0:0:
216,108,204167,6,0,B|262:97|262:97|278:104|278:104|335:90,1,110.249996635437,8|0,0:0|0:0,0:0:0:0:
322,93,204542,1,4,1:2:0:0:
149,254,204917,6,0,P|64:257|15:361,1,210,10|2,0:0|0:0,0:0:0:0:
232,228,205479,1,0,1:2:0:0:
99,159,205667,2,0,P|165:136|225:104,1,105,10|0,0:0|0:0,0:0:0:0:
438,276,206042,6,0,B|326:275|370:195|236:207,1,210,2|10,1:2|0:0,0:0:0:0:
403,79,206604,2,0,P|425:147|437:215,1,105,2|0,0:0|0:0,0:0:0:0:
271,307,206979,1,0,1:2:0:0:
187,100,207167,2,0,P|198:48|215:0,1,105,10|0,0:0|0:0,0:0:0:0:
227,224,207542,6,0,B|131:176|131:176|39:255,1,210,2|10,1:2|0:0,0:0:0:0:
131,310,208104,1,0,0:0:0:0:
324,205,208292,1,2,0:0:0:0:
377,297,208479,1,2,1:2:0:0:
453,139,208667,2,0,P|445:86|434:-12,1,105,10|0,0:2|0:0,0:0:0:0:
216,185,209042,5,2,1:2:0:0:
344,220,209229,1,2,0:0:0:0:
241,32,209417,1,10,0:2:0:0:
143,283,209604,2,0,P|78:252|12:226,1,105,2|0,0:0|0:0,0:0:0:0:
215,375,209979,1,2,1:2:0:0:
324,205,210167,2,0,P|389:174|455:148,1,105,10|0,0:2|0:0,0:0:0:0:
229,4,210542,6,0,P|202:233|201:252,1,210,0|10,1:2|0:2,0:0:0:0:
269,320,211104,1,0,0:0:0:0:
400,147,211292,2,0,P|434:154|482:244,1,105,2|0,0:0|1:2,0:0:0:0:
243,115,211667,2,0,P|273:73|322:57,1,105,10|0,0:2|0:0,0:0:0:0:
182,239,212042,6,0,B|61:228|140:156|-4:142,1,210,2|10,1:2|0:2,0:0:0:0:
105,355,212604,2,0,P|173:272|264:311,1,210,2|0,0:0|1:2,0:0:0:0:
343,123,213167,2,0,P|264:141|208:159,1,105,10|0,0:0|0:0,0:0:0:0:
410,364,213542,5,2,1:2:0:0:
410,364,213917,2,0,P|413:284|445:195,1,157.5,8|0,0:0|0:0,0:0:0:0:
436,210,214292,1,2,0:0:0:0:
324,314,214479,1,0,1:2:0:0:
207,69,214667,2,0,P|220:119|228:171,1,105,8|0,0:0|0:0,0:0:0:0:
36,237,215042,6,0,P|98:140|139:211,1,178.500003404617,2|0,1:2|0:0,0:0:0:0:
152,221,215323,6,0,B|144:282|144:282|209:267,1,120.750002303124,2|0,0:0|0:0,0:0:0:0:
243,189,215604,6,0,P|287:263|286:282,1,78.7500030040742,2|0,0:0|0:0,0:0:0:0:
262,327,215792,6,0,B|341:296|289:267|382:239,1,136.499993751526,2|0,0:0|1:2,0:0:0:0:
121,363,216167,2,0,B|43:340|95:311|16:280,1,136.499993751526,10|0,0:0|1:2,0:0:0:0:
380,102,216542,5,4,1:2:0:0:
380,102,216917,1,10,0:0:0:0:
276,47,217104,1,2,0:0:0:0:
498,3,217292,2,0,L|474:138,1,105,2|0,0:0|1:2,0:0:0:0:
286,300,217667,2,0,B|377:260|366:335|474:333,1,157.5,10|0,0:0|0:0,0:0:0:0:
466,329,218042,6,0,L|439:182,1,105,2|0,1:2|0:0,0:0:0:0:
216,376,218417,1,10,0:2:0:0:
237,238,218604,2,0,L|260:108,1,105,2|0,0:0|0:0,0:0:0:0:
120,191,218979,1,0,1:2:0:0:
340,121,219167,2,0,L|179:92,1,157.5,10|0,0:0|0:0,0:0:0:0:
127,55,219542,6,0,P|153:147|95:202,1,157.5,2|0,1:2|0:0,0:0:0:0:
51,210,219917,1,10,0:2:0:0:
193,359,220104,1,2,0:0:0:0:
326,275,220292,2,0,P|268:235|224:241,1,105,2|0,0:0|1:2,0:0:0:0:
277,56,220667,2,0,L|438:39,1,157.5,10|0,0:0|0:0,0:0:0:0:
509,10,221042,6,0,B|459:60|459:60|478:169,1,157.5,2|0,1:2|0:0,0:0:0:0:
489,219,221417,1,10,0:2:0:0:
354,184,221604,2,0,L|380:323,1,105,2|0,0:0|0:0,0:0:0:0:
473,145,221979,1,2,1:2:0:0:
209,95,222167,2,0,L|244:282,1,157.5,10|0,0:2|0:0,0:0:0:0:
287,298,222542,6,0,B|194:273|228:358|108:330,1,157.5,0|0,1:2|0:0,0:0:0:0:
101,369,222917,2,0,P|83:224|79:206,1,157.5,10|0,0:0|0:0,0:0:0:0:
65,177,223292,1,2,0:0:0:0:
17,297,223479,1,0,1:2:0:0:
209,95,223667,2,0,L|235:234,1,105,10|0,0:0|0:0,0:0:0:0:
409,16,224042,6,0,B|291:-3|335:82|205:86,1,210,2|10,1:2|0:0,0:0:0:0:
10,97,224604,2,0,L|113:116,1,105,2|0,0:0|0:0,0:0:0:0:
332,158,224979,1,0,1:2:0:0:
28,210,225167,2,0,L|131:190,1,105,10|0,0:0|0:0,0:0:0:0:
354,76,225542,6,0,P|279:96|262:203,1,157.5,2|0,1:2|0:0,0:0:0:0:
205,220,225917,2,0,P|266:217|323:248,1,105,8|0,0:0|0:0,0:0:0:0:
464,325,226292,1,2,0:0:0:0:
431,192,226479,1,0,1:2:0:0:
208,355,226667,2,0,P|269:358|326:327,1,105,8|0,0:0|0:0,0:0:0:0:
337,124,227042,6,0,B|306:88|306:88|241:134|285:212,1,168,2|0,1:2|0:0,0:0:0:0:
341,250,227323,6,0,L|166:235,1,136.499993751526,2|0,0:0|0:0,0:0:0:0:
116,227,227604,6,0,P|143:269|128:322,1,78.7500030040742,2|0,0:0|0:0,0:0:0:0:
119,369,227792,6,0,B|56:347|96:295|-31:278,1,136.499993751526,2|0,1:2|1:2,0:0:0:0:
390,326,228167,2,0,B|452:304|412:252|540:235,1,136.499993751526,10|0,0:0|0:0,0:0:0:0:
53,169,228542,5,4,1:2:0:0:
512,38,229292,5,8,0:0:0:0:
91,71,230042,5,0,1:2:0:0:
130,61,230135,1,0,3:0:0:0:
180,48,230229,1,0,3:0:0:0:
219,38,230323,1,0,3:0:0:0:
288,23,230417,6,0,P|252:11|207:21,1,68.2499968757631,2|0,1:2|0:0,0:0:0:0:
216,110,230604,2,0,P|251:121|297:112,1,68.2499968757631,2|0,3:2|0:0,0:0:0:0:
441,45,230792,5,2,1:2:0:0:
470,235,230979,1,0,1:2:0:0:
470,235,231073,1,0,1:2:0:0:
430,214,231167,5,2,1:2:0:0:
386,232,231260,5,0,1:2:0:0:
370,284,231354,5,0,1:2:0:0:
412,336,231448,5,0,1:2:0:0:
484,320,231542,6,0,B|322:320|429:214|259:225,1,236.250009012223,6|0,1:2|0:0,0:0:0:0:
244,285,231917,2,0,L|228:153,1,115.50000352478,10|0,0:2|0:0,0:0:0:0:
8,262,232292,2,0,P|43:268|87:295,1,73.4999977569581,2|0,1:2|0:0,0:0:0:0:
137,118,232479,2,0,P|104:135|68:141,1,73.4999977569581,2|0,1:2|0:0,0:0:0:0:
227,318,232667,2,0,L|212:191,1,105,10|0,0:2|1:0,0:0:0:0:
512,105,233042,6,0,B|455:86|455:86|425:94|425:94|353:69,1,157.5,2|0,1:2|0:0,0:0:0:0:
317,22,233417,2,0,P|366:37|371:97,1,78.7500030040742,10|0,0:2|0:0,0:0:0:0:
324,220,233604,2,0,P|301:154|284:108,1,84,2|0,0:0|1:0,0:0:0:0:
219,335,233979,1,2,1:2:0:0:
139,136,234167,2,0,P|156:86|174:37,1,105,8|0,0:0|0:0,0:0:0:0:
37,278,234542,6,0,P|162:180|235:236,1,236.250009012223,2|0,1:2|0:0,0:0:0:0:
270,256,234917,2,0,P|335:249|282:149,1,173.250005287171,10|0,0:2|0:0,0:0:0:0:
332,158,235292,1,2,1:2:0:0:
440,74,235479,1,0,1:0:0:0:
512,328,235667,1,10,0:2:0:0:
378,250,235854,1,2,1:2:0:0:
181,381,236042,6,0,P|62:364|12:357,1,125.999996154785,2|2,1:2|0:0,0:0:0:0:
284,242,236417,1,10,0:2:0:0:
119,104,236604,2,0,P|67:151|54:227,1,105,2|0,0:0|1:0,0:0:0:0:
190,342,236979,1,2,1:2:0:0:
276,118,237167,1,8,0:0:0:0:
158,199,237354,1,0,1:0:0:0:
363,384,237542,6,0,B|468:344|382:290|499:244,1,204.749990627289,2|0,1:2|0:0,0:0:0:0:
498,244,237917,1,8,0:0:0:0:
356,112,238104,6,0,P|286:194|333:292,1,228.375006969452,2|0,0:0|0:0,0:0:0:0:
333,292,238479,1,0,1:0:0:0:
156,293,238667,6,0,B|251:269|251:269|280:227|280:227|387:201,1,252,10|0,0:2|0:0,0:0:0:0:
380,202,239042,1,0,1:0:0:0:
207,85,239229,5,2,0:0:0:0:
349,0,239417,1,10,0:0:0:0:
464,170,239604,1,2,0:0:0:0:
288,73,239792,1,2,1:2:0:0:
161,310,239979,1,2,1:2:0:0:
28,95,240167,1,8,0:0:0:0:
265,151,240354,1,0,1:0:0:0:
49,342,240542,6,0,B|9:277|9:277|4:203|38:185|38:185|94:211|142:173,1,236.250009012223,2|0,1:2|0:0,0:0:0:0:
95,194,240917,1,8,0:0:0:0:
333,110,241104,6,0,P|254:68|200:195,1,236.250009012223,2|0,0:0|0:0,0:0:0:0:
188,172,241479,1,0,1:0:0:0:
368,275,241667,6,0,B|433:238|433:238|521:296,1,157.500006008148,10|0,0:0|1:0,0:0:0:0:
376,0,242042,5,0,1:0:0:0:
376,0,242417,5,2,0:0:0:0:
290,32,242604,5,2,0:0:0:0:
264,131,242792,5,2,0:0:0:0:
362,207,242979,5,2,0:0:0:0:
384,324,243167,5,2,0:0:0:0:
279,384,243354,5,2,0:0:0:0:
157,299,243542,6,0,B|282:284|200:198|341:194,1,220.499993270874,4|0,1:2|0:0,0:0:0:0:
404,231,243917,2,0,P|434:175|346:205,1,188.999994232178,10|0,0:0|0:0,0:0:0:0:
344,172,244292,1,2,1:2:0:0:
236,82,244479,1,0,1:0:0:0:
145,324,244667,1,10,0:2:0:0:
252,271,244854,1,0,1:0:0:0:
25,84,245042,6,0,P|-8:161|40:224,1,136.499993751526,2|0,1:2|0:0,0:0:0:0:
328,324,245417,2,0,P|348:261|315:203,1,136.499993751526,10|0,0:2|0:0,0:0:0:0:
157,73,245792,1,2,1:2:0:0:
75,147,245979,1,0,1:0:0:0:
226,200,246167,2,0,P|311:165|375:137,1,141.749995674133,10|0,0:2|0:0,0:0:0:0:
429,155,246542,6,0,B|356:87|356:87|268:167,1,204.749990627289,2|0,1:2|0:0,0:0:0:0:
232,211,246917,2,0,L|245:53,1,115.50000352478,8|2,0:0|0:0,0:0:0:0:
69,12,247292,1,0,1:0:0:0:
0,103,247479,1,0,1:0:0:0:
195,288,247667,1,8,0:0:0:0:
151,182,247854,1,0,1:0:0:0:
36,329,248042,6,0,P|115:355|190:243,1,220.499993270874,2|0,1:2|0:0,0:0:0:0:
164,187,248417,2,0,P|85:161|10:273,1,220.499993270874,10|0,0:0|0:0,0:0:0:0:
7,255,248792,1,2,1:2:0:0:
127,341,248979,1,2,1:2:0:0:
305,124,249167,1,10,0:0:0:0:
163,170,249354,1,2,1:2:0:0:
353,384,249542,6,0,B|366:315|366:315|359:297|359:297|372:225,1,157.5,2|0,1:2|0:0,0:0:0:0:
416,175,249917,2,0,B|344:203|344:203|273:113,1,157.500006008148,8|0,0:0|0:0,0:0:0:0:
84,332,250292,1,2,1:2:0:0:
0,258,250479,1,0,1:0:0:0:
134,85,250667,2,0,P|184:130|187:211,1,115.50000352478,10|0,0:2|1:0,0:0:0:0:
487,86,251042,6,0,L|327:50,1,136.499993751526,2|0,1:2|0:0,0:0:0:0:
213,332,251417,2,0,L|373:296,1,136.499993751526,10|0,0:0|0:0,0:0:0:0:
111,200,251792,1,2,1:2:0:0:
37,335,251979,1,0,1:0:0:0:
265,196,252167,1,10,0:2:0:0:
31,68,252354,1,0,1:0:0:0:
222,358,252542,6,0,P|298:286|378:323,1,173.250005287171,2|0,1:2|0:0,0:0:0:0:
408,351,252917,2,0,B|368:289|368:289|415:210,1,146.999995513916,8|2,0:0|0:0,0:0:0:0:
512,70,253292,1,0,1:0:0:0:
433,0,253479,1,0,1:0:0:0:
286,180,253667,2,0,P|231:159|151:140,1,115.50000352478,10|0,0:0|1:0,0:0:0:0:
359,301,254042,6,0,B|478:263|378:188|525:151,1,220.499993270874,0|0,1:0|0:0,0:0:0:0:
505,247,254417,2,0,P|427:203|417:136,1,125.999996154785,8|0,0:0|1:0,0:0:0:0:
270,32,254792,1,0,1:0:0:0:
270,32,254885,1,0,1:0:0:0:
270,32,254979,2,0,P|287:70|297:97,1,52.5,0|0,1:0|0:0,0:0:0:0:
149,198,255167,1,0,1:0:0:0:
149,198,255260,1,0,1:0:0:0:
149,198,255354,2,0,P|164:160|187:125,1,73.4999977569581,0|0,1:0|0:0,0:0:0:0:
367,282,255542,6,0,B|311:258|294:250|294:250|280:259|221:295,1,157.5,4|0,1:2|0:0,0:0:0:0:
195,360,255917,2,0,P|137:372|60:314,1,136.499993751526,8|0,0:0|0:0,0:0:0:0:
189,147,256292,1,2,1:2:0:0:
244,298,256479,1,0,1:0:0:0:
348,100,256667,1,10,0:2:0:0:
167,28,256854,1,0,1:0:0:0:
104,257,257042,6,0,P|209:191|272:227,1,165.374994953156,2|0,1:2|0:0,0:0:0:0:
306,246,257417,2,0,P|416:248|480:157,1,220.499993270874,10|0,0:2|0:0,0:0:0:0:
478,166,257792,1,2,1:2:0:0:
382,80,257979,1,0,1:0:0:0:
231,212,258167,2,0,P|222:292|216:354,1,118.125004506111,10|0,0:2|0:0,0:0:0:0:
166,376,258542,6,0,B|255:363|255:363|280:338|280:338|374:323,1,220.499993270874,2|0,1:2|0:0,0:0:0:0:
410,382,258917,2,0,L|423:252,1,115.50000352478,8|2,0:0|0:0,0:0:0:0:
307,44,259292,1,0,1:0:0:0:
247,203,259479,1,0,1:0:0:0:
494,132,259667,1,10,0:0:0:0:
428,40,259854,1,0,1:0:0:0:
283,264,260042,6,0,B|222:239|222:239|151:279,1,136.499993751526,0|0,1:0|0:0,0:0:0:0:
332,61,260417,2,0,B|393:86|393:86|464:46,1,136.499993751526,8|0,0:0|0:0,0:0:0:0:
334,182,260792,1,2,1:2:0:0:
212,93,260979,1,2,1:2:0:0:
74,330,261167,1,10,0:2:0:0:
189,279,261354,1,2,1:2:0:0:
32,76,261542,6,0,P|-9:154|31:233,1,157.5,2|0,1:2|0:0,0:0:0:0:
78,247,261917,2,0,B|198:208|80:155|254:106,1,220.499993270874,10|0,0:2|0:0,0:0:0:0:
236,111,262292,1,2,1:2:0:0:
354,188,262479,1,0,1:0:0:0:
225,384,262667,1,10,0:2:0:0:
170,291,262854,1,0,1:0:0:0:
411,136,263042,6,0,P|390:240|377:335,1,188.999994232178,2|0,1:2|0:0,0:0:0:0:
427,380,263417,2,0,P|417:324|292:317,1,157.500006008148,8|0,0:0|0:0,0:0:0:0:
149,384,263792,1,2,1:2:0:0:
64,286,263979,1,0,1:0:0:0:
209,106,264167,1,8,0:0:0:0:
258,235,264354,1,0,1:0:0:0:
35,95,264542,6,0,P|209:64|272:50,1,231.000007049561,2|8,1:2|0:0,0:0:0:0:
384,115,265104,1,2,0:0:0:0:
240,255,265292,2,0,P|184:221|91:226,1,115.50000352478,0|0,1:0|1:0,0:0:0:0:
354,380,265667,2,0,P|410:371|458:340,1,115.50000352478,10|0,0:0|1:0,0:0:0:0:
235,138,266042,5,0,1:0:0:0:
88,376,266323,1,0,1:0:0:0:
78,366,266417,2,0,P|85:316|94:251,1,68.2499968757631,8|0,0:0|0:0,0:0:0:0:
227,151,266604,2,0,P|222:117|216:65,1,78.7500030040742,0|0,1:0|0:0,0:0:0:0:
91,186,266792,1,0,1:0:0:0:
91,186,266885,1,0,1:0:0:0:
91,186,266979,2,0,P|140:205|180:204,1,60.3750011515618,0|0,1:0|0:0,0:0:0:0:
256,26,267167,2,0,P|215:58|195:94,1,60.3750011515618,0|0,1:0|0:0,0:0:0:0:
317,252,267354,2,0,P|308:200|288:165,1,60.3750011515618,0|0,1:0|0:0,0:0:0:0:
222,156,267542,5,2,3:2:0:0:
218,176,267917,1,0,3:0:0:0:
215,196,268292,2,0,P|291:174|327:174,1,105,8|0,0:3|3:0,0:0:0:0:
463,117,269042,5,2,3:2:0:0:
466,135,269417,1,0,3:0:0:0:
469,153,269792,2,0,P|400:133|368:133,1,94.499997116089,8|0,0:3|3:0,0:0:0:0:
146,150,270542,5,2,3:2:0:0:
143,166,270917,1,0,3:0:0:0:
140,182,271292,2,0,P|201:164|230:164,1,84,8|0,0:3|3:0,0:0:0:0:
464,198,272042,5,0,3:0:0:0:
467,214,272417,1,0,3:0:0:0:
470,230,272792,2,0,P|408:212|379:212,1,84,8|0,0:3|3:0,0:0:0:0:
124,251,273542,5,2,3:2:0:0:
121,265,273917,1,0,3:0:0:0:
118,279,274292,2,0,P|173:262|199:262,1,73.4999977569581,8|0,0:3|3:0,0:0:0:0:
462,278,275042,5,2,3:2:0:0:
464,290,275417,1,0,3:0:0:0:
467,303,275792,2,0,P|417:288|393:288,1,62.9999980773926,8|0,0:3|3:0,0:0:0:0:
101,348,276542,5,2,3:2:0:0:
99,358,276917,1,0,3:0:0:0:
96,370,277292,2,0,P|137:358|156:358,1,52.5,8|0,0:3|3:0,0:0:0:0:
456,372,278042,6,0,P|421:375|395:358,1,63,4|0,0:3|0:0,0:0:0:0:
399,362,279542,6,0,L|409:307,1,42,6|0,3:2|0:0,0:0:0:0:
421,245,279917,2,0,L|431:190,1,42,0|0,3:0|0:0,0:0:0:0:
303,384,280292,6,0,L|293:329,1,42,10|0,0:3|0:0,0:0:0:0:
273,225,280667,2,0,L|280:266,1,42,0|0,3:0|0:0,0:0:0:0:
158,308,281042,6,0,L|151:350,1,42,2|0,3:0|0:0,0:0:0:0:
180,191,281417,2,0,L|173:233,1,42,0|0,3:0|0:0,0:0:0:0:
37,384,281792,6,0,L|27:329,1,42,10|0,0:3|0:0,0:0:0:0:
7,225,282167,2,0,L|14:266,1,42,0|0,3:0|0:0,0:0:0:0:
98,241,282542,5,2,3:3:0:0:
122,167,282729,1,0,0:0:0:0:
48,148,282917,2,0,L|-11:132,1,42,0|0,3:0|0:0,0:0:0:0:
206,64,283292,5,10,0:3:0:0:
135,86,283479,1,0,0:0:0:0:
216,86,283667,1,0,3:0:0:0:
122,57,283854,1,0,0:0:0:0:
214,120,284042,6,0,L|231:174,1,42,2|0,3:0|0:0,0:0:0:0:
294,214,284417,2,0,L|277:268,1,42,0|0,3:0|0:0,0:0:0:0:
219,384,284792,2,0,P|235:336|273:334,1,84,10|0,0:3|0:0,0:0:0:0:
369,364,285354,1,0,0:0:0:0:
369,364,285542,6,0,L|379:289,1,52.5,2|0,3:0|0:0,0:0:0:0:
385,233,285917,2,0,L|392:181,1,52.5,0|0,3:0|0:0,0:0:0:0:
244,65,286292,6,0,L|254:140,1,52.5,10|0,0:3|0:0,0:0:0:0:
260,195,286667,2,0,L|267:248,1,52.5,0|0,3:0|0:0,0:0:0:0:
1,138,287042,6,0,L|54:145,1,52.5,2|0,3:0|0:0,0:0:0:0:
133,154,287417,2,0,L|185:160,1,52.5,0|0,3:0|0:0,0:0:0:0:
428,43,287792,6,0,L|375:49,1,52.5,10|0,0:3|0:0,0:0:0:0:
296,58,288167,2,0,L|243:64,1,52.5,0|0,3:0|0:0,0:0:0:0:
90,32,288542,5,2,3:0:0:0:
107,112,288729,1,0,0:0:0:0:
126,197,288917,2,0,L|142:267,1,52.5,0|0,3:0|0:0,0:0:0:0:
324,251,289292,5,10,0:3:0:0:
306,347,289479,1,0,0:0:0:0:
218,234,289667,1,0,3:0:0:0:
200,330,289854,1,0,0:0:0:0:
262,290,290042,5,2,3:0:0:0:
262,290,290417,5,0,3:0:0:0:
262,290,290792,6,0,P|251:228|142:224,1,183.75,10|0,0:3|0:0,0:0:0:0:
112,238,291542,6,0,P|101:206|111:166,1,62.9999980773926,6|0,3:2|0:0,0:0:0:0:
41,124,291917,2,0,P|65:101|106:93,1,62.9999980773926,0|0,3:0|0:0,0:0:0:0:
122,9,292292,2,0,P|152:22|176:56,1,62.9999980773926,10|0,0:3|0:0,0:0:0:0:
263,26,292667,2,0,P|263:59|241:94,1,62.9999980773926,0|0,3:0|0:0,0:0:0:0:
291,229,293042,6,0,P|290:198|304:170,1,62.9999980773926,2|0,3:0|0:0,0:0:0:0:
432,245,293417,2,0,P|403:233|383:210,1,62.9999980773926,0|0,3:0|0:0,0:0:0:0:
512,131,293792,2,0,P|489:152|460:162,1,62.9999980773926,10|0,0:3|0:0,0:0:0:0:
441,17,294167,2,0,P|451:46|448:78,1,62.9999980773926,0|0,3:0|0:0,0:0:0:0:
323,7,294542,5,2,3:0:0:0:
342,3,294729,1,0,0:0:0:0:
285,15,294917,5,0,3:0:0:0:
304,11,295104,1,0,0:0:0:0:
247,23,295292,5,10,0:3:0:0:
266,19,295479,1,0,0:0:0:0:
209,32,295667,5,0,3:0:0:0:
228,27,295854,1,0,0:0:0:0:
169,49,296042,5,2,3:0:0:0:
191,37,296229,1,0,0:0:0:0:
164,115,296417,5,0,3:0:0:0:
157,78,296604,1,0,0:0:0:0:
195,199,296792,5,10,0:3:0:0:
190,150,296979,1,0,0:0:0:0:
123,267,297167,5,0,3:0:0:0:
179,251,297354,1,0,0:0:0:0:
58,245,297542,6,0,P|24:231|-21:224,1,62.9999980773926,2|0,3:0|0:0,0:0:0:0:
121,299,297917,2,0,P|137:325|148:355,1,62.9999980773926,0|0,3:0|0:0,0:0:0:0:
116,177,298292,6,0,P|85:156|54:123,1,62.9999980773926,10|0,0:3|0:0,0:0:0:0:
195,199,298667,2,0,P|226:197|257:190,1,62.9999980773926,0|0,3:0|0:0,0:0:0:0:
410,234,299042,6,0,P|358:238|329:249,1,62.9999980773926,2|0,3:0|0:0,0:0:0:0:
269,281,299417,2,0,P|242:297|218:318,1,62.9999980773926,0|0,3:0|0:0,0:0:0:0:
305,103,299792,6,0,P|259:127|237:148,1,62.9999980773926,10|0,0:3|0:0,0:0:0:0:
195,199,300167,2,0,P|176:224|163:253,1,62.9999980773926,0|0,3:0|0:0,0:0:0:0:
179,56,300542,6,0,P|189:26|206:0,3,62.9999980773926,2|0|0|0,3:0|0:0|3:0|0:0,0:0:0:0:
99,118,301292,6,0,P|88:88|71:61,3,62.9999980773926,10|0|0|0,0:3|0:0|3:0|0:0,0:0:0:0:
215,168,302042,5,2,3:0:0:0:
208,186,302229,1,2,0:3:0:0:
166,116,302417,5,2,0:3:0:0:
206,137,302604,1,2,0:3:0:0:
97,207,302792,5,2,0:3:0:0:
114,140,302979,1,2,0:3:0:0:
176,342,303167,5,2,0:3:0:0:
166,243,303354,1,2,0:3:0:0:
56,384,303542,6,0,P|38:298|29:251,1,105,6|0,1:2|0:0,0:0:0:0:
182,182,303917,2,0,P|173:214|166:249,1,62.9999980773926,10|2,0:0|0:0,0:0:0:0:
0,97,304292,1,2,0:0:0:0:
55,47,304479,1,2,1:2:0:0:
137,102,304667,1,10,0:0:0:0:
123,115,304854,1,2,0:0:0:0:
249,17,305042,6,0,P|302:29|338:97,1,105,2|0,1:2|0:0,0:0:0:0:
199,162,305417,2,0,P|218:136|246:123,1,62.9999980773926,10|0,0:0|0:0,0:0:0:0:
374,164,305792,1,2,0:0:0:0:
416,226,305979,1,2,1:2:0:0:
325,299,306167,1,10,0:2:0:0:
330,285,306354,1,2,0:0:0:0:
492,367,306542,6,0,B|441:350|441:350|383:374,1,105,2|0,1:2|0:0,0:0:0:0:
251,269,306917,2,0,B|282:278|282:278|334:263,1,62.9999980773926,10|0,0:2|0:0,0:0:0:0:
239,140,307292,1,2,0:0:0:0:
174,176,307479,1,2,1:2:0:0:
62,134,307667,1,10,0:2:0:0:
51,152,307854,1,2,0:0:0:0:
0,255,308042,6,0,L|20:376,1,105,2|2,1:2|0:0,0:0:0:0:
151,226,308417,2,0,L|165:140,1,62.9999980773926,10|2,0:2|0:0,0:0:0:0:
228,39,308792,1,2,0:0:0:0:
299,8,308979,1,2,1:2:0:0:
372,67,309167,1,10,0:0:0:0:
334,162,309354,1,2,0:0:0:0:
457,273,309542,5,2,1:2:0:0:
473,257,309729,1,2,0:0:0:0:
426,153,309917,1,10,0:2:0:0:
320,237,310104,1,2,0:0:0:0:
394,349,310292,1,2,0:0:0:0:
409,339,310479,1,2,1:2:0:0:
345,170,310667,1,10,0:2:0:0:
224,222,310854,1,2,0:0:0:0:
302,369,311042,6,0,P|326:321|308:261,1,115.50000352478,2|0,1:2|0:0,0:0:0:0:
155,122,311417,2,0,P|130:70|146:16,1,115.50000352478,10|0,0:0|0:0,0:0:0:0:
286,144,311792,1,2,0:0:0:0:
222,194,311979,1,2,1:2:0:0:
85,188,312167,1,10,0:2:0:0:
73,202,312354,1,2,0:0:0:0:
188,341,312542,5,2,1:2:0:0:
262,285,312729,1,2,0:0:0:0:
163,139,312917,1,10,0:2:0:0:
153,149,313104,1,2,0:0:0:0:
75,285,313292,1,2,0:0:0:0:
0,219,313479,1,2,1:2:0:0:
74,78,313667,1,10,0:2:0:0:
86,69,313854,1,2,0:0:0:0:
254,168,314042,5,0,1:0:0:0:
66,355,314417,5,8,0:0:0:0:
491,384,314792,5,8,0:0:0:0:
417,202,314979,1,0,1:0:0:0:
176,314,315167,1,8,0:0:0:0:
333,371,315354,1,8,0:0:0:0:
333,371,315448,1,8,0:0:0:0:
333,371,315542,6,0,P|343:293|313:249,1,126,6|0,1:2|0:0,0:0:0:0:
319,127,315917,6,0,P|292:182|307:243,1,126,10|0,1:2|0:0,0:0:0:0:
450,171,316292,6,0,P|339:135|344:252,1,272.999987503052,2|8,1:2|1:2,0:0:0:0:
223,376,316854,6,0,P|111:359|85:358,1,105,2|0,0:0|1:0,0:0:0:0:
0,256,317229,2,0,P|111:239|137:238,1,105,2|8,0:0|1:2,0:0:0:0:
305,159,317604,2,0,P|193:142|167:141,1,105,2|0,0:0|1:0,0:0:0:0:
30,71,317979,5,2,0:0:0:0:
196,0,318167,1,10,1:2:0:0:
259,44,318354,1,2,0:0:0:0:
288,273,318542,6,0,L|417:307,1,126,2|0,1:2|0:0,0:0:0:0:
512,261,318917,6,0,L|383:295,1,126,10|0,1:2|0:0,0:0:0:0:
375,179,319292,6,0,B|498:243|498:243|363:280,1,272.999987503052,2|8,1:2|1:2,0:0:0:0:
282,144,319854,6,0,P|278:75|325:18,1,105,2|0,0:0|1:0,0:0:0:0:
200,192,320229,2,0,P|138:160|112:91,1,105,2|8,0:0|1:2,0:0:0:0:
200,287,320604,2,0,P|142:324|69:312,1,105,2|0,0:0|1:0,0:0:0:0:
133,135,320979,5,2,0:0:0:0:
307,311,321167,1,10,1:2:0:0:
396,255,321354,1,2,0:0:0:0:
305,48,321542,6,0,P|269:119|311:182,1,126,2|0,1:2|0:0,0:0:0:0:
374,177,321917,6,0,P|408:126|395:66,1,126,10|0,1:2|0:0,0:0:0:0:
276,177,322292,6,0,P|353:146|381:314,1,272.999987503052,2|8,1:2|1:2,0:0:0:0:
224,362,322854,6,0,B|205:313|205:313|221:264,1,105,2|0,0:0|1:0,0:0:0:0:
265,66,323229,2,0,B|281:115|281:115|262:164,1,105,2|8,0:0|1:2,0:0:0:0:
211,372,323604,2,0,B|192:323|192:323|208:274,1,105,2|0,0:0|1:0,0:0:0:0:
346,186,323979,5,2,0:0:0:0:
165,54,324167,1,10,1:2:0:0:
102,121,324354,1,2,0:0:0:0:
220,268,324542,6,0,B|160:245|160:245|92:319,1,126,2|0,1:2|0:0,0:0:0:0:
8,298,324917,6,0,B|68:321|68:321|136:247,1,126,10|0,1:2|0:0,0:0:0:0:
40,191,325292,6,0,B|-18:270|-18:270|59:299|59:299|132:209,1,272.999987503052,2|8,1:2|1:2,0:0:0:0:
276,79,325854,6,0,P|340:129|343:192,1,105,2|0,0:0|1:0,0:0:0:0:
142,245,326229,2,0,P|202:190|264:198,1,105,2|8,0:0|1:2,0:0:0:0:
327,378,326604,2,0,P|283:309|302:248,1,105,2|0,0:0|1:0,0:0:0:0:
366,141,326979,1,2,0:0:0:0:
500,354,327167,1,10,1:2:0:0:
404,322,327354,1,2,0:0:0:0:
486,89,327542,1,4,1:2:0:0:
512,185,327729,5,2,0:0:0:0:
220,63,327917,1,10,1:2:0:0:
321,31,328104,2,0,L|297:135,1,94.499997116089,2|0,0:0|1:0,0:0:0:0:
263,275,328479,1,2,0:0:0:0:
31,122,328667,1,10,1:2:0:0:
132,90,328854,2,0,L|108:194,1,94.499997116089,2|0,0:0|1:0,0:0:0:0:
74,321,329229,5,2,0:0:0:0:
284,190,329417,1,10,1:2:0:0:
192,160,329604,1,2,0:0:0:0:
283,300,329792,2,0,L|376:284,1,94.499997116089,2|0,1:2|0:0,0:0:0:0:
464,263,330073,1,2,0:0:0:0:
475,237,330167,2,0,P|483:210|480:178,1,47.2499985580445,10|0,1:2|0:0,0:0:0:0:
392,110,330354,2,0,P|368:110|346:117,1,47.2499985580445,2|0,0:0|0:0,0:0:0:0:
284,190,330542,1,0,1:0:0:0:
240,94,330729,5,2,0:0:0:0:
134,342,330917,1,10,1:2:0:0:
65,269,331104,2,0,B|106:240|106:240|156:244,1,94.499997116089,2|0,0:0|1:0,0:0:0:0:
343,265,331479,1,2,0:0:0:0:
94,137,331667,1,10,1:2:0:0:
167,68,331854,2,0,B|196:109|196:109|192:159,1,94.499997116089,2|0,0:0|1:0,0:0:0:0:
161,325,332229,5,2,0:0:0:0:
306,92,332417,1,10,1:2:0:0:
347,190,332604,1,2,0:0:0:0:
226,91,332792,2,0,B|222:46|222:46|251:5,1,94.499997116089,2|0,1:2|0:0,0:0:0:0:
344,5,333073,1,2,0:0:0:0:
325,9,333167,2,0,L|269:20,1,47.2499985580445,10|0,1:2|0:0,0:0:0:0:
384,88,333354,2,0,L|440:99,1,47.2499985580445,2|0,0:0|0:0,0:0:0:0:
280,189,333542,1,0,1:0:0:0:
379,324,333729,5,2,0:0:0:0:
130,224,333917,1,10,1:2:0:0:
211,162,334104,2,0,P|235:191|226:274,1,94.499997116089,2|0,0:0|1:0,0:0:0:0:
164,372,334479,1,2,0:0:0:0:
436,238,334667,1,10,1:2:0:0:
363,172,334854,2,0,P|328:206|327:271,1,94.499997116089,2|0,0:0|1:0,0:0:0:0:
384,364,335229,5,2,0:0:0:0:
490,107,335417,1,10,1:2:0:0:
363,172,335604,1,2,0:0:0:0:
436,238,335792,2,0,P|446:188|364:140,1,141.749995674133,2|2,1:2|0:0,0:0:0:0:
299,155,336167,2,0,L|248:141,1,47.2499985580445,10|0,1:2|0:0,0:0:0:0:
134,108,336354,2,0,L|179:95,1,47.2499985580445,2|0,0:0|0:0,0:0:0:0:
298,65,336542,1,0,1:0:0:0:
83,44,336729,5,2,0:0:0:0:
293,246,336917,1,10,1:2:0:0:
225,307,337104,2,0,P|191:304|123:335,1,94.499997116089,2|0,0:0|1:0,0:0:0:0:
53,220,337479,1,2,0:0:0:0:
314,335,337667,1,10,1:2:0:0:
293,246,337854,1,2,0:0:0:0:
198,384,338042,5,8,1:2:0:0:
317,245,338229,1,2,1:2:0:0:
122,145,338417,5,10,1:2:0:0:
343,243,338604,1,2,1:2:0:0:
156,275,338792,5,10,1:2:0:0:
128,280,338885,1,0,1:0:0:0:
99,285,338979,1,0,1:0:0:0:
70,290,339073,1,2,1:2:0:0:
41,294,339167,5,8,1:2:0:0:
88,241,339260,1,0,1:0:0:0:
158,231,339354,1,2,1:2:0:0:
226,250,339448,1,0,1:0:0:0:
279,296,339542,1,4,1:2:0:0:
374,166,339729,5,2,0:0:0:0:
118,380,339917,2,0,L|92:253,1,115.50000352478,10|2,1:2|0:0,0:0:0:0:
14,63,340292,2,0,P|129:99|150:84,1,115.50000352478,2|0,1:2|0:0,0:0:0:0:
211,41,340573,1,2,0:0:0:0:
185,60,340667,2,0,P|180:90|185:125,1,57.7500017623902,8|0,1:2|0:0,0:0:0:0:
339,160,340854,2,0,P|341:131|336:102,1,57.7500017623902,2|0,0:0|0:0,0:0:0:0:
272,4,341042,1,0,1:2:0:0:
116,175,341229,5,2,0:0:0:0:
407,88,341417,2,0,L|283:69,1,115.50000352478,10|2,1:2|0:0,0:0:0:0:
234,192,341792,2,0,P|309:175|351:188,1,115.50000352478,2|0,1:2|0:0,0:0:0:0:
412,236,342073,1,2,0:0:0:0:
412,236,342167,2,0,L|393:299,1,57.7500017623902,8|0,1:2|0:0,0:0:0:0:
295,373,342354,2,0,L|278:317,1,57.7500017623902,2|0,0:0|0:0,0:0:0:0:
234,192,342542,1,0,1:2:0:0:
359,51,342729,5,2,0:0:0:0:
510,304,342917,2,0,L|369:288,1,115.50000352478,10|2,1:2|0:0,0:0:0:0:
106,198,343292,2,0,P|144:245|156:328,1,115.50000352478,2|0,1:2|0:0,0:0:0:0:
143,374,343573,1,2,0:0:0:0:
143,374,343667,2,0,L|57:357,1,57.7500017623902,8|0,1:2|0:0,0:0:0:0:
11,216,343854,2,0,L|97:199,1,57.7500017623902,2|0,0:0|0:0,0:0:0:0:
226,175,344042,1,0,1:2:0:0:
82,96,344229,5,2,0:0:0:0:
389,0,344417,2,0,L|369:140,1,115.50000352478,10|2,1:2|0:0,0:0:0:0:
433,289,344792,2,0,P|365:263|294:273,1,115.50000352478,2|0,1:2|0:0,0:0:0:0:
286,369,345073,1,2,0:0:0:0:
278,321,345167,2,0,L|257:198,1,115.50000352478,10|2,1:2|0:0,0:0:0:0:
16,292,345542,6,0,B|132:285|61:214|210:208,1,188.999994232178,6|0,1:2|0:0,0:0:0:0:
256,194,345917,2,0,L|126:170,1,125.999996154785,10|0,0:2|0:0,0:0:0:0:
330,66,346292,1,2,1:2:0:0:
215,97,346479,1,2,1:2:0:0:
475,214,346667,2,0,L|489:87,1,125.999996154785,10|0,0:2|1:0,0:0:0:0:
280,205,347042,5,2,1:2:0:0:
371,116,347229,1,2,0:0:0:0:
501,331,347417,1,10,0:2:0:0:
344,288,347604,2,0,L|473:248,1,125.999996154785,2|0,0:0|1:0,0:0:0:0:
257,194,347979,1,2,1:2:0:0:
442,139,348167,2,0,P|413:57|315:62,1,173.250005287171,8|0,0:0|0:0,0:0:0:0:
280,94,348542,5,2,1:2:0:0:
230,0,348729,1,2,0:0:0:0:
5,124,348917,2,0,B|112:114|65:200|186:216,1,188.999994232178,10|0,0:2|0:0,0:0:0:0:
199,273,349292,2,0,L|212:132,1,125.999996154785,2|0,1:2|1:0,0:0:0:0:
352,346,349667,1,10,0:2:0:0:
328,212,349854,1,2,1:2:0:0:
135,357,350042,5,2,1:2:0:0:
281,295,350229,1,2,0:0:0:0:
38,260,350417,1,10,0:2:0:0:
210,147,350604,2,0,P|293:109|373:107,1,125.999996154785,2|0,0:0|1:0,0:0:0:0:
510,127,350979,1,2,1:2:0:0:
372,0,351167,2,0,L|347:132,1,125.999996154785,8|0,0:0|1:0,0:0:0:0:
336,206,351448,1,0,1:0:0:0:
336,206,351542,6,0,B|216:152|217:297|76:273,1,251.999992309571,2|8,1:2|0:0,0:0:0:0:
412,320,352104,6,0,P|450:261|372:64,1,272.999987503052,2|0,0:0|1:0,0:0:0:0:
38,124,352667,6,0,B|135:76|135:76|201:126|201:126|342:107,1,293.999991027832,10|0,0:2|1:0,0:0:0:0:
501,89,353229,1,2,0:0:0:0:
252,44,353417,1,10,0:0:0:0:
383,180,353604,1,2,0:0:0:0:
362,0,353792,1,2,1:2:0:0:
213,252,353979,1,2,1:2:0:0:
35,57,354167,2,0,P|102:34|160:59,1,115.50000352478,8|0,0:0|1:0,0:0:0:0:
144,328,354542,6,0,B|75:375|7:309|7:309|38:223|109:228,1,293.999991027832,2|8,1:2|0:0,0:0:0:0:
384,261,355104,6,0,P|463:227|338:116,1,315.000012016297,2|0,0:0|1:0,0:0:0:0:
0,47,355667,6,0,L|196:27,1,168,10|0,0:0|1:0,0:0:0:0:
512,0,356042,5,0,1:0:0:0:
512,0,356417,5,2,0:0:0:0:
424,0,356604,5,2,0:0:0:0:
334,45,356792,5,2,0:0:0:0:
272,130,356979,5,2,0:0:0:0:
159,199,357167,5,2,0:0:0:0:
8,148,357354,5,2,0:0:0:0:
220,52,357542,6,0,B|259:102|259:102|242:262,1,204.749990627289,4|0,1:2|0:0,0:0:0:0:
244,242,357917,1,10,0:0:0:0:
342,306,358104,1,2,0:0:0:0:
499,170,358292,1,2,1:2:0:0:
422,87,358479,1,2,1:2:0:0:
283,166,358667,1,10,0:0:0:0:
412,279,358854,1,2,1:2:0:0:
202,369,359042,6,0,B|80:352|173:274|38:254,1,204.749990627289,2|0,1:2|0:0,0:0:0:0:
47,255,359417,1,8,0:0:0:0:
178,57,359604,2,0,P|242:101|234:184,2,115.50000352478,2|0|0,0:0|1:2|1:2,0:0:0:0:
287,257,360167,2,0,P|339:235|364:184,1,115.50000352478,10|0,0:0|0:0,0:0:0:0:
52,165,360542,6,0,B|150:152|150:152|171:129|171:129|282:115,1,220.499993270874,4|0,1:2|0:0,0:0:0:0:
260,117,360917,1,10,0:0:0:0:
335,41,361104,1,2,0:0:0:0:
474,141,361292,1,2,1:2:0:0:
360,220,361479,1,2,1:2:0:0:
174,89,361667,1,10,0:0:0:0:
356,116,361854,1,2,1:2:0:0:
165,317,362042,6,0,P|120:275|195:312,1,293.999991027832,2|8,1:2|0:0,0:0:0:0:
26,213,362604,2,0,P|37:140|85:84,2,115.50000352478,2|0|0,0:0|1:2|1:2,0:0:0:0:
268,106,363167,2,0,P|257:33|209:-23,1,115.50000352478,10|0,0:0|1:2,0:0:0:0:
172,265,363542,5,4,1:2:0:0:
172,265,363917,2,0,L|245:280,1,57.7500017623902,10|0,0:0|0:0,0:0:0:0:
318,114,364104,2,0,L|245:129,1,57.7500017623902,2|0,0:0|0:0,0:0:0:0:
342,333,364292,1,2,1:2:0:0:
413,228,364479,1,2,1:2:0:0:
180,94,364667,1,10,0:0:0:0:
264,205,364854,1,2,1:2:0:0:
439,35,365042,6,0,B|356:-5|356:-5|252:56,1,173.250005287171,2|0,1:2|0:0,0:0:0:0:
286,36,365417,1,8,0:0:0:0:
425,251,365604,2,0,L|440:130,2,115.50000352478,2|0|0,0:0|1:2|1:2,0:0:0:0:
179,196,366167,2,0,L|164:75,1,115.50000352478,10|0,0:0|1:2,0:0:0:0:
18,258,366542,6,0,B|132:243|83:339|241:301,1,204.749990627289,4|0,1:2|0:0,0:0:0:0:
208,307,366917,1,10,0:0:0:0:
144,190,367104,1,2,0:0:0:0:
322,124,367292,1,2,1:2:0:0:
380,189,367479,1,2,1:2:0:0:
330,261,367667,1,10,0:0:0:0:
208,149,367854,1,2,1:2:0:0:
408,1,368042,6,0,P|421:72|432:137,1,105,2|2,1:2|0:0,0:0:0:0:
426,104,368323,1,2,0:0:0:0:
426,104,368417,1,10,0:0:0:0:
241,42,368604,2,0,P|294:31|325:41,1,52.5,0|0,1:2|0:0,0:0:0:0:
162,210,368792,1,2,1:2:0:0:
153,200,368885,1,0,1:2:0:0:
144,190,368979,2,0,L|127:102,1,78.7500030040742,0|0,1:2|0:0,0:0:0:0:
254,251,369167,2,0,L|186:309,1,78.7500030040742,2|0,1:2|0:0,0:0:0:0:
251,125,369354,2,0,L|335:154,1,78.7500030040742,0|0,1:2|0:0,0:0:0:0:
437,366,369542,6,0,P|407:308|427:143,1,188.999994232178,4|0,1:2|0:0,0:0:0:0:
429,115,369917,1,10,0:0:0:0:
467,229,370104,1,2,0:0:0:0:
298,279,370292,1,2,1:2:0:0:
325,150,370479,1,2,1:2:0:0:
149,48,370667,1,10,0:0:0:0:
205,263,370854,1,2,1:2:0:0:
334,142,371042,6,0,B|215:97|266:188|126:146,1,188.999994232178,2|0,1:2|0:0,0:0:0:0:
83,131,371417,1,8,0:0:0:0:
216,255,371604,2,0,P|241:308|251:382,1,115.50000352478,2|0,0:0|1:2,0:0:0:0:
345,134,371979,1,0,1:2:0:0:
379,364,372167,2,0,P|386:290|459:210,1,157.5,10|0,0:0|0:0,0:0:0:0:
502,195,372542,6,0,B|418:185|418:185|384:209|384:209|313:211,1,188.999994232178,4|0,1:2|0:0,0:0:0:0:
249,216,372917,1,10,0:0:0:0:
350,295,373104,1,2,0:0:0:0:
244,171,373292,1,2,1:2:0:0:
103,232,373479,1,2,1:2:0:0:
238,119,373667,1,10,0:0:0:0:
419,217,373854,1,2,1:2:0:0:
230,48,374042,6,0,P|161:23|66:169,1,251.999992309571,2|8,1:2|0:0,0:0:0:0:
283,140,374604,2,0,L|148:115,1,125.999996154785,2|0,0:0|1:2,0:0:0:0:
342,68,374979,1,0,1:2:0:0:
103,232,375167,1,10,0:0:0:0:
308,216,375354,1,0,1:2:0:0:
308,216,375448,1,0,1:0:0:0:
308,216,375542,6,0,B|408:174|398:276|521:295,1,188.999994232178,4|0,1:2|0:0,0:0:0:0:
508,293,375917,1,10,0:0:0:0:
474,197,376104,1,2,0:0:0:0:
339,315,376292,1,2,1:2:0:0:
355,141,376479,1,2,1:2:0:0:
215,348,376667,1,10,0:0:0:0:
177,101,376854,1,2,1:2:0:0:
31,287,377042,6,0,B|138:229|131:326|224:322,1,188.999994232178,2|0,1:2|0:0,0:0:0:0:
232,319,377417,1,8,0:0:0:0:
151,164,377604,2,0,B|91:154|91:154|37:192,1,125.999996154785,2|0,0:0|1:2,0:0:0:0:
100,52,377979,1,0,1:2:0:0:
319,212,378167,2,0,B|378:221|378:221|432:183,1,125.999996154785,10|0,0:0|1:2,0:0:0:0:
274,44,378542,6,0,P|244:134|235:261,1,188.999994232178,4|0,1:2|0:0,0:0:0:0:
234,301,378917,1,10,0:0:0:0:
130,226,379104,1,2,0:0:0:0:
348,139,379292,1,2,1:2:0:0:
331,302,379479,1,2,1:2:0:0:
97,120,379667,1,10,0:0:0:0:
373,29,379854,1,2,1:2:0:0:
302,133,380042,6,0,B|266:112|266:112|254:55|314:22,1,136.499993751526,2|0,1:2|0:0,0:0:0:0:
373,29,380292,6,0,B|442:58|442:58|424:179,1,181.999991668702,2|0,0:0|0:0,0:0:0:0:
416,241,380604,6,0,L|328:189,1,68.2499968757631,2|0,1:2|0:0,0:0:0:0:
299,159,380792,5,2,1:2:0:0:
299,159,380885,1,0,1:2:0:0:
299,159,380979,1,0,1:2:0:0:
512,229,381167,1,2,1:2:0:0:
321,382,381354,1,0,1:2:0:0:
321,382,381448,1,0,1:0:0:0:
321,382,381542,6,0,L|311:294,1,68.2499968757631,4|0,1:2|0:0,0:0:0:0:
306,201,381729,1,2,0:0:0:0:
37,231,381917,1,10,1:2:0:0:
157,283,382104,1,2,0:0:0:0:
291,79,382292,2,0,P|230:124|231:208,1,136.499993751526,2|2,1:2|0:0,0:0:0:0:
234,255,382573,1,2,0:0:0:0:
234,255,382667,1,8,1:2:0:0:
118,145,382854,1,2,0:0:0:0:
398,60,383042,6,0,L|377:155,1,68.2499968757631,0|0,1:2|0:0,0:0:0:0:
363,224,383229,1,2,0:0:0:0:
129,70,383417,1,10,1:2:0:0:
234,28,383604,1,2,0:0:0:0:
6,0,383792,2,0,L|44:155,1,136.499993751526,2|2,1:2|0:0,0:0:0:0:
59,212,384073,1,2,0:0:0:0:
59,212,384167,1,8,1:2:0:0:
188,99,384354,1,2,0:0:0:0:
311,295,384542,6,0,L|229:277,1,68.2499968757631,0|0,1:2|0:0,0:0:0:0:
129,255,384729,1,2,0:0:0:0:
467,201,384917,1,10,1:2:0:0:
339,168,385104,1,2,0:0:0:0:
512,54,385292,2,0,P|429:101|370:96,1,136.499993751526,2|2,1:2|0:0,0:0:0:0:
315,85,385573,1,2,0:0:0:0:
315,85,385667,1,8,1:2:0:0:
486,197,385854,1,2,0:0:0:0:
196,327,386042,6,0,L|270:309,1,68.2499968757631,0|0,1:2|0:0,0:0:0:0:
384,286,386229,1,2,0:0:0:0:
22,148,386417,1,10,1:2:0:0:
83,276,386604,1,2,0:0:0:0:
240,0,386792,2,0,P|216:79|206:141,1,136.499993751526,2|2,1:2|0:0,0:0:0:0:
199,213,387073,1,2,0:0:0:0:
199,213,387167,2,0,L|288:190,1,68.2499968757631,10|0,1:2|0:0,0:0:0:0:
393,123,387354,2,0,L|304:100,1,68.2499968757631,2|0,0:0|0:0,0:0:0:0:
117,52,387542,6,0,P|136:5|145:47,1,118.125004506111,4|0,1:3|0:0,0:0:0:0:
133,108,387917,6,0,L|52:85,1,78.7500030040742,10|0,0:0|0:0,0:0:0:0:
229,170,388104,5,0,1:0:0:0:
190,183,388198,2,0,L|92:214,1,78.7500030040742,10|0,0:0|0:0,0:0:0:0:
342,160,388385,5,0,1:0:0:0:
327,210,388479,2,0,L|296:308,1,78.7500030040742,10|0,0:0|0:0,0:0:0:0:
430,74,388667,6,0,L|443:156,1,78.7500030040742,2|0,1:2|0:0,0:0:0:0:
457,254,388854,2,0,L|469:331,1,78.7500030040742,10|0,0:0|0:0,0:0:0:0:
229,170,389042,6,0,P|200:158|232:197,1,118.125004506111,4|0,1:3|0:0,0:0:0:0:
276,212,389417,6,0,L|262:121,1,84,10|0,0:2|0:0,0:0:0:0:
77,270,389604,5,0,1:0:0:0:
86,206,389698,2,0,L|100:115,1,84,10|0,0:2|0:0,0:0:0:0:
323,383,389885,5,0,1:0:0:0:
314,309,389979,2,0,L|300:218,1,84,10|0,0:2|0:0,0:0:0:0:
29,372,390167,6,0,L|43:281,1,84,2|0,1:2|0:0,0:0:0:0:
198,152,390354,2,0,L|185:68,1,84,10|0,0:2|0:0,0:0:0:0:
417,346,390542,6,0,B|401:273|326:196|233:222|233:222|271:250|108:173|176:338|84:381|-47:345|-97:233|-48:161|83:128|125:260|119:363|119:363|62:280|152:164|152:164|152:150|152:150|161:150|161:150|203:99|173:-1|173:-1|215:80|291:51|325:115|325:115|339:70|300:23|300:23|360:110|459:126|495:131|514:106|520:73|511:41|511:41|503:43|503:43|489:34|456:29|416:49|430:115|437:229|437:229|471:223|486:227|486:227|461:171|255:194|287:383|287:383|291:349|330:330|330:330|280:348|230:328,1,2604,4|0,1:3|0:0,0:0:0:0:
