osu file format v14

[General]
AudioFilename: audio.mp3
AudioLeadIn: 0
PreviewTime: -1
Countdown: 0
SampleSet: Soft
StackLeniency: 0.7
Mode: 0
LetterboxInBreaks: 1
WidescreenStoryboard: 1

[Editor]
DistanceSpacing: 0.8
BeatDivisor: 4
GridSize: 4
TimelineZoom: 0.9800001

[Metadata]
Title:Devil Trigger
TitleUnicode:Devil Trigger
Artist:Casey Edwards feat. Ali Edwards
ArtistUnicode:Casey Edwards feat. Ali Edwards
Creator:Roberthin05
Version:Hard
Source:Devil May Cry 5
Tags:Devil May Cry 5, DMC 5, OST
BeatmapID:1763186
BeatmapSetID:842657

[Difficulty]
HPDrainRate:6
CircleSize:4.3
OverallDifficulty:6
ApproachRate:7.7
SliderMultiplier:1.3
SliderTickRate:1

[Events]
//Background and Video events
0,0,"BackGroundDMC5.jpg",0,0
//Break Periods
2,66243,76993
//Storyboard Layer 0 (Background)
//Storyboard Layer 1 (Fail)
//Storyboard Layer 2 (Pass)
//Storyboard Layer 3 (Foreground)
//Storyboard Sound Samples

[TimingPoints]
43,375,4,2,0,70,1,0
43,-100,4,2,0,70,0,0
12043,-100,4,2,0,70,0,0
18043,-100,4,2,0,70,0,0
30043,-100,4,2,0,70,0,0
42043,-100,4,2,0,70,0,0
51043,-125,4,2,0,70,0,0
52543,-100,4,2,0,70,0,0
63043,-125,4,2,0,70,0,0
64543,-100,4,2,0,70,0,0
81043,-90.9090909090909,4,2,0,70,0,1
87043,-71.4285714285714,4,2,0,70,0,1
88543,-90.9090909090909,4,2,0,70,0,1
90043,-71.4285714285714,4,2,0,70,0,1
91543,-90.9090909090909,4,2,0,70,0,0
93043,-90.9090909090909,4,2,0,70,0,1
105793,-90.9090909090909,4,2,0,70,0,1
117043,-100,4,2,0,70,0,0

[Colours]
Combo1 : 240,21,27
Combo2 : 0,168,168

[HitObjects]
40,160,12043,6,0,B|96:104|184:104|184:104,2,130,0|0|0,0:0|0:0|0:0,0:0:0:0:
136,248,13168,1,0,0:0:0:0:
264,240,13543,2,0,B|320:176|400:192|400:192,2,130,0|0|0,0:0|0:0|0:0,0:0:0:0:
136,248,14668,1,0,0:0:0:0:
256,192,15043,12,0,17668,0:0:0:0:
80,273,18043,5,0,0:0:0:0:
80,143,18418,1,0,0:0:0:0:
171,68,18793,2,0,P|248:48|320:64,1,130,0|0,0:0|0:0,0:0:0:0:
420,104,19543,2,0,P|428:176|424:188,1,65,0|0,0:0|0:0,0:0:0:0:
429,232,19918,2,0,B|392:289|301:280|301:280,2,130,0|0|0,0:0|0:0|0:0,0:0:0:0:
272,232,21043,6,0,L|144:160,1,130
112,124,21605,1,0,0:0:0:0:
106,56,21793,2,0,L|242:56,1,130
341,97,22543,2,0,P|408:144|421:201,1,130
374,233,23105,1,0,0:0:0:0:
327,279,23293,1,0,0:0:0:0:
281,324,23480,2,0,L|192:296,1,65,0|0,0:0|0:0,0:0:0:0:
86,314,24043,6,0,P|96:264|126:234,1,65,0|0,0:0|0:0,0:0:0:0:
80,192,24418,2,0,P|120:128|200:112,1,130,0|0,0:0|0:0,0:0:0:0:
272,32,25168,2,0,L|352:80,1,65,0|0,0:0|0:0,0:0:0:0:
304,128,25543,2,0,L|384:176,1,65,0|0,0:0|0:0,0:0:0:0:
328,224,25918,2,0,B|412:280|412:280|456:272,1,130
437,164,26668,1,0,0:0:0:0:
352,64,27043,6,0,L|256:64,1,65,0|0,0:0|0:0,0:0:0:0:
248,120,27418,2,0,P|144:128|96:144,1,130,0|0,0:0|0:0,0:0:0:0:
119,265,28168,2,0,L|199:265,1,65,0|0,0:0|0:0,0:0:0:0:
249,265,28543,2,0,P|337:265|329:265,1,65,0|0,0:0|0:0,0:0:0:0:
379,265,28918,2,0,P|416:248|467:153,1,130,0|0,0:0|0:0,0:0:0:0:
464,45,29668,1,0,0:0:0:0:
399,45,29855,1,0,0:0:0:0:
334,45,30043,5,0,0:0:0:0:
208,48,30418,2,0,P|128:64|104:128,1,130,0|0,0:0|0:0,0:0:0:0:
104,232,31168,2,0,P|128:304|176:320,1,130,0|0,0:0|0:0,0:0:0:0:
220,273,31730,1,0,0:0:0:0:
288,272,31918,6,0,L|398:176,1,130,0|0,0:0|0:0,0:0:0:0:
385,121,32480,1,0,0:0:0:0:
385,56,32668,2,0,L|238:56,1,130,0|0,0:0|0:0,0:0:0:0:
128,56,33418,1,0,0:0:0:0:
88,176,33793,2,0,L|152:248,1,65,0|0,0:0|0:0,0:0:0:0:
200,216,34168,2,0,L|264:280,1,65,0|0,0:0|0:0,0:0:0:0:
312,240,34543,2,0,B|420:240|420:240|444:224,1,130
472,172,35105,1,0,0:0:0:0:
444,112,35293,2,0,P|364:72|316:64,1,130
400,168,36043,6,0,L|344:232,1,65,0|0,0:0|0:0,0:0:0:0:
296,232,36418,2,0,B|280:267|228:302|174:313,1,130
88,256,37168,2,0,L|88:184,1,65,0|0,0:0|0:0,0:0:0:0:
153,175,37543,2,0,L|152:88,1,65,0|0,0:0|0:0,0:0:0:0:
152,44,37918,2,0,P|256:40|288:56,1,130,0|0,0:0|0:0,0:0:0:0:
336,80,38480,1,0,0:0:0:0:
356,144,38668,1,0,0:0:0:0:
240,204,39043,6,0,B|200:208|200:208|152:248,1,65
184,288,39418,2,0,L|336:288,1,130
408,196,40168,1,0,0:0:0:0:
356,156,40355,1,0,0:0:0:0:
342,88,40543,1,0,0:0:0:0:
296,42,40730,1,0,0:0:0:0:
230,42,40918,2,0,B|192:80|192:80|152:72|152:72|134:122|134:122|152:184|152:184|221:213,1,260
196,202,42043,6,0,L|232:120,1,65
248,84,42418,2,0,P|330:68|390:100,1,130
368,148,42980,2,0,P|352:184|316:212,1,65
280,244,43355,1,0,0:0:0:0:
216,244,43543,2,0,P|232:168|204:104,1,130
152,108,44105,2,0,L|44:164,2,65
188,52,44668,1,0,0:0:0:0:
232,160,45043,6,0,L|296:160,1,65
297,223,45418,2,0,L|380:224,1,65
428,228,45793,2,0,B|472:200|496:152|452:88,1,130
352,160,46543,1,0,0:0:0:0:
260,251,46918,1,0,0:0:0:0:
212,208,47105,2,0,L|103:100,1,130
112,52,47668,2,0,P|240:56|268:68,1,130
364,104,48418,6,0,B|376:156|376:156|296:260,1,130
268,236,48980,1,0,0:0:0:0:
204,232,49168,2,0,B|140:200|140:200|132:132,1,130
176,90,49730,1,0,0:0:0:0:
222,43,49918,1,0,0:0:0:0:
288,40,50105,2,0,B|320:40|344:48|368:80|364:128,1,130
364,183,50668,1,0,0:0:0:0:
364,183,51043,2,0,P|256:276|144:176,1,312
145,183,52543,5,0,0:0:0:0:
218,109,52730,1,0,0:0:0:0:
426,109,53105,1,0,0:0:0:0:
356,178,53293,1,0,0:0:0:0:
145,183,53668,1,0,0:0:0:0:
264,236,54043,5,0,0:0:0:0:
355,144,54418,2,0,P|444:176|476:228,1,130
444,264,54980,2,0,L|388:344,2,65
397,217,55543,2,0,L|296:240,2,65
448,172,56105,1,0,0:0:0:0:
464,104,56293,2,0,P|380:60|320:88,2,130
388,212,57418,5,0,0:0:0:0:
336,248,57605,1,0,0:0:0:0:
272,256,57793,1,0,0:0:0:0:
142,256,58168,2,0,P|81:200|72:160,1,65
68,156,58543,2,0,L|132:108,2,65
267,59,59293,2,0,L|392:60,2,65
221,104,59855,1,0,0:0:0:0:
267,150,60043,5,0,0:0:0:0:
376,84,60418,2,0,L|452:84,1,65
440,152,60793,2,0,L|340:152,1,65
309,152,61168,2,0,L|308:256,1,65
376,240,61543,2,0,B|308:312|308:312|232:232,1,195
241,242,62480,1,0,0:0:0:0:
241,176,62668,1,0,0:0:0:0:
304,96,63043,2,0,P|397:204|297:316,1,312
184,312,64543,5,0,0:0:0:0:
110,239,64730,1,0,0:0:0:0:
110,31,65105,1,0,0:0:0:0:
183,105,65293,1,0,0:0:0:0:
184,312,65668,1,0,0:0:0:0:
184,104,66043,1,0,0:0:0:0:
256,192,78043,12,0,80668,0:0:0:0:
48,96,81043,6,0,B|96:80|96:80|136:104,1,71.5000021820069
176,128,81418,2,0,B|196:200|196:200|280:208,1,143.000004364014
315,277,81980,1,0,0:0:0:0:
365,226,82168,1,0,0:0:0:0:
284,108,82543,2,0,B|360:124|360:124|424:72,2,143.000004364014
220,136,83480,1,0,0:0:0:0:
156,168,83668,1,0,0:0:0:0:
284,108,84043,6,0,B|332:92|332:92|372:116,1,71.5000021820069
380,168,84418,2,0,B|368:240|368:240,2,71.5000021820069
349,102,84980,1,0,0:0:0:0:
298,51,85168,1,0,0:0:0:0:
155,51,85543,2,0,L|7:51,2,143.000004364014
226,51,86480,1,0,0:0:0:0:
298,51,86668,1,0,0:0:0:0:
348,184,87043,6,0,B|336:220|336:220|348:244|348:244|332:280|332:280|292:288|292:288|236:252,1,178.750005455017
232,256,87605,2,0,B|244:220|244:220|232:196|232:196|248:160|248:160|288:152|288:152|344:188,1,178.750005455017
348,184,88168,2,0,B|336:220|336:220|348:244|348:244|332:280|332:280|292:288|292:288|236:252,1,178.750005455017
134,269,88918,5,0,0:0:0:0:
83,218,89105,1,0,0:0:0:0:
83,146,89293,1,0,0:0:0:0:
83,74,89480,1,0,0:0:0:0:
164,200,90043,6,0,B|176:164|176:164|164:140|164:140|180:104|180:104|220:96|220:96|248:114,1,178.750005455017
280,128,90605,2,0,B|268:164|268:164|280:188|280:188|264:224|264:224|224:232|224:232|195:213,1,178.750005455017
164,200,91168,2,0,B|176:164|176:164|164:140|164:140|180:104|180:104|220:96|220:96|248:114,1,178.750005455017
388,114,91918,6,0,B|368:68|336:56|336:56,1,71.5000021820069
277,125,92293,2,0,B|248:168|216:176|216:176,1,71.5000021820069
158,238,92668,2,0,B|96:236|72:176|84:124|84:124,1,143.000004364014
280,52,93418,5,0,0:0:0:0:
280,52,93605,1,0,0:0:0:0:
356,128,93793,1,0,0:0:0:0:
356,128,93980,1,0,0:0:0:0:
356,235,94168,1,0,0:0:0:0:
356,235,94355,1,0,0:0:0:0:
248,235,94543,1,0,0:0:0:0:
248,235,94730,1,0,0:0:0:0:
171,158,94918,1,0,0:0:0:0:
171,158,95105,1,0,0:0:0:0:
247,81,95293,6,0,P|304:64|336:80,1,71.5000021820069
376,124,95668,1,0,0:0:0:0:
385,231,96043,2,0,P|340:288|264:308,1,143.000004364014
203,308,96605,2,0,B|64:360|24:232|-24:0|260:0|496:12|504:80|508:140|372:264|148:220|128:172,1,929.50002836609
160,192,99418,6,0,L|256:192,1,71.5000021820069
264,272,99793,2,0,L|324:232,1,71.5000021820069
376,164,100168,2,0,L|324:88,1,71.5000021820069
256,132,100543,2,0,L|212:72,1,71.5000021820069
152,136,100918,2,0,L|84:200,1,71.5000021820069
132,264,101293,2,0,L|232:264,1,71.5000021820069
256,200,101668,1,0,0:0:0:0:
256,200,102043,2,0,B|399:220|399:220|371:140,2,214.500006546021
241,204,103355,2,0,B|180:256|136:188|136:116|200:80|288:60|364:88|404:160|400:264|352:344|240:356|136:352|84:228|88:188|88:188|88:156|96:128,1,786.500024002076
160,52,105793,5,0,0:0:0:0:
224,56,105980,1,0,0:0:0:0:
260,104,106168,1,0,0:0:0:0:
284,156,106355,1,0,0:0:0:0:
328,192,106543,1,0,0:0:0:0:
384,184,106730,1,0,0:0:0:0:
408,132,106918,1,0,0:0:0:0:
364,92,107105,1,0,0:0:0:0:
308,92,107293,1,0,0:0:0:0:
264,128,107480,1,0,0:0:0:0:
212,148,107668,2,0,P|176:140|164:120,2,35.7500010910034
155,71,108043,6,0,P|232:68|304:88,1,143.000004364014
295,84,108605,2,0,B|323:68|344:40|364:44|410:37|423:78|442:100|443:174|430:247|410:289|348:312|289:347|186:325|108:293|76:192|74:160|56:136|56:116|84:120|108:104|156:100|192:120|188:164|232:184|280:176|324:148,1,858.000026184083
448,312,111418,2,0,B|472:292|472:292|472:248,1,71.5000021820069
420,184,111793,2,0,B|376:180|376:180|364:156,1,71.5000021820069
292,112,112168,2,0,B|248:124|248:124|240:148,1,71.5000021820069
256,232,112543,2,0,B|296:240|296:240|308:288,1,71.5000021820069
388,260,112918,2,0,B|416:220|416:220|404:180,1,71.5000021820069
368,124,113293,2,0,B|340:92|340:92|308:100,1,71.5000021820069
228,124,113668,1,0,0:0:0:0:
228,124,113761,1,0,0:0:0:0:
228,124,113855,1,0,0:0:0:0:
256,192,114043,12,0,117043,0:0:0:0:
