osu file format v14

[General]
AudioFilename: audio.mp3
AudioLeadIn: 0
PreviewTime: 231526
Countdown: 0
SampleSet: Soft
StackLeniency: 0.7
Mode: 0
LetterboxInBreaks: 0
WidescreenStoryboard: 1

[Editor]
Bookmarks: 48526,57526,78526,81526,129526,141526,153526,192526,204526,228526,231526,267526,279526,291526,303526,315526,357526,381526,387526,390526,401026
DistanceSpacing: 1.6
BeatDivisor: 4
GridSize: 32
TimelineZoom: 3.299999

[Metadata]
Title:Devil Trigger
TitleUnicode:Devil Trigger
Artist:Casey Edwards feat. Ali Edwards
ArtistUnicode:Casey Edwards feat. Ali Edwards
Creator:Kanda Sorata
Version:Dante Must Die
Source:Devil May Cry 5
Tags:
BeatmapID:1967438
BeatmapSetID:942247

[Difficulty]
HPDrainRate:5.5
CircleSize:4
OverallDifficulty:8.8
ApproachRate:9.4
SliderMultiplier:2
SliderTickRate:1

[Events]
//Background and Video events
0,0,"devil-may-cry-5-1920x1080-dante-nero-e3-2018-4k-8k-2019-games-14498.jpg",0,0
//Break Periods
//Storyboard Layer 0 (Background)
//Storyboard Layer 1 (Fail)
//Storyboard Layer 2 (Pass)
//Storyboard Layer 3 (Foreground)
//Storyboard Sound Samples

[TimingPoints]
48526,375,4,2,1,60,1,0
48526,-166.666666666667,4,2,1,60,0,0
50026,-100,4,2,1,60,0,0
51151,-125,4,2,1,60,0,0
51526,-90.9090909090909,4,2,1,70,0,0
55276,-166.666666666667,4,2,1,70,0,0
56026,-90.9090909090909,4,2,1,70,0,0
81151,-125,4,2,1,70,0,0
81526,-83.3333333333333,4,2,1,80,0,1
105526,-90.9090909090909,4,2,1,70,0,0
153526,-100,4,2,1,60,0,0
156526,-83.3333333333333,4,2,1,80,0,1
192526,-90.9090909090909,4,2,1,70,0,0
228526,-111.111111111111,4,2,1,50,0,0
229276,-100,4,2,1,60,0,0
230026,-90.9090909090909,4,2,1,70,0,0
231526,-83.3333333333333,4,2,1,80,0,1
267526,-125,4,2,1,40,0,0
279526,-111.111111111111,4,2,1,50,0,0
291526,-100,4,2,1,60,0,0
303526,-90.9090909090909,4,2,1,70,0,0
345526,-83.3333333333333,4,2,1,80,0,1
381526,-90.9090909090909,4,2,1,70,0,0
390526,-100,4,2,1,60,0,0

[HitObjects]
326,188,48526,6,0,P|376:206|456:93,1,209.999993591309,8|0,0:0|0:0,0:0:0:0:
377,121,49276,6,0,P|309:106|248:217,1,209.999993591309,8|0,0:0|0:0,0:0:0:0:
259,243,50026,6,0,L|147:247,1,100,8|0,0:0|0:0,0:0:0:0:
12,158,50401,2,0,L|124:162,1,100,8|0,0:0|0:0,0:0:0:0:
106,329,50776,1,2,0:0:0:0:
73,292,50869,1,2,0:0:0:0:
62,243,50963,1,2,0:0:0:0:
76,196,51057,1,2,0:0:0:0:
111,161,51151,6,0,L|101:33,1,120,8|0,0:0|0:0,0:0:0:0:
139,4,51526,6,0,L|149:124,1,110.000003356934,8|0,0:0|0:0,0:0:0:0:
159,246,51901,1,8,0:0:0:0:
268,130,52088,1,0,0:0:0:0:
293,272,52276,1,2,0:0:0:0:
342,282,52369,1,2,0:0:0:0:
390,267,52463,1,2,0:0:0:0:
424,231,52557,1,2,0:0:0:0:
436,183,52651,2,0,B|430:131|430:131|442:66|442:66|436:7,1,165.000005035401,8|0,0:0|0:0,0:0:0:0:
391,4,53026,6,0,B|397:64|397:64|385:125,1,110.000003356934,8|0,0:0|0:0,0:0:0:0:
338,195,53401,1,8,0:0:0:0:
262,47,53588,1,0,0:0:0:0:
245,192,53776,1,2,0:0:0:0:
207,158,53869,1,2,0:0:0:0:
157,147,53963,1,2,0:0:0:0:
110,161,54057,1,2,0:0:0:0:
75,197,54151,2,0,B|81:265|81:265|67:313|67:313|73:374,1,165.000005035401,8|0,0:0|0:0,0:0:0:0:
74,384,54526,5,8,0:0:0:0:
159,246,54713,1,2,0:0:0:0:
218,334,54901,2,0,P|286:340|334:318,1,110.000003356934,8|0,0:0|0:0,0:0:0:0:
415,210,55276,6,0,P|369:201|330:332,1,209.999993591309,8|0,0:0|0:0,0:0:0:0:
378,275,56026,6,0,P|440:281|484:235,1,110.000003356934,8|0,0:0|0:0,0:0:0:0:
444,114,56401,2,0,P|407:164|425:225,1,110.000003356934,8|0,0:0|0:0,0:0:0:0:
510,80,56776,1,8,0:0:0:0:
484,51,56869,1,2,0:0:0:0:
448,39,56963,1,2,0:0:0:0:
410,47,57057,1,2,0:0:0:0:
382,72,57151,1,2,0:0:0:0:
353,96,57245,1,2,0:0:0:0:
315,104,57339,1,2,0:0:0:0:
279,92,57433,1,2,0:0:0:0:
254,64,57526,6,0,L|137:61,1,110.000003356934,2|0,0:0|0:0,0:0:0:0:
28,58,57901,1,8,0:0:0:0:
88,147,58088,2,0,P|106:221|88:267,1,110.000003356934,0|2,0:0|0:0,0:0:0:0:
36,334,58463,1,0,0:0:0:0:
96,251,58651,2,0,L|218:255,1,110.000003356934,8|0,0:0|0:0,0:0:0:0:
366,336,59026,6,0,L|244:340,1,110.000003356934,2|0,0:0|0:0,0:0:0:0:
239,174,59401,2,0,P|293:246|291:273,1,110.000003356934,8|0,0:0|0:0,0:0:0:0:
205,254,59776,1,2,0:0:0:0:
179,88,59963,1,0,0:0:0:0:
348,177,60151,2,0,L|226:173,1,110.000003356934,8|0,0:0|0:0,0:0:0:0:
368,90,60526,6,0,P|433:171|378:258,1,220.000006713867,2|8,0:0|0:0,0:0:0:0:
294,175,61088,2,0,P|264:230|266:295,1,110.000003356934,0|2,0:0|0:0,0:0:0:0:
338,363,61463,1,0,0:0:0:0:
378,258,61651,1,8,0:0:0:0:
451,343,61838,1,0,0:0:0:0:
261,276,62026,6,0,L|196:285,1,55.0000016784668,2|0,0:0|0:0,0:0:0:0:
239,182,62213,2,0,L|293:174,1,55.0000016784668,0|0,0:0|0:0,0:0:0:0:
410,155,62401,1,8,0:0:0:0:
252,97,62588,1,0,0:0:0:0:
282,213,62776,2,0,L|390:197,1,110.000003356934,2|0,0:0|0:0,0:0:0:0:
252,97,63151,2,0,P|180:119|156:216,1,165.000005035401,8|0,0:0|0:0,0:0:0:0:
160,226,63526,5,2,0:0:0:0:
241,360,63713,1,0,0:0:0:0:
160,226,63901,2,0,L|46:224,1,110.000003356934,8|0,0:0|0:0,0:0:0:0:
241,360,64276,2,0,L|350:358,1,110.000003356934,2|0,0:0|0:0,0:0:0:0:
454,354,64651,1,8,0:0:0:0:
336,205,64838,1,0,0:0:0:0:
350,358,65026,5,2,0:0:0:0:
460,157,65213,1,0,0:0:0:0:
336,205,65401,2,0,P|272:211|206:167,1,110.000003356934,8|0,0:0|0:0,0:0:0:0:
249,20,65776,2,0,P|284:63|292:116,1,110.000003356934,2|0,0:0|0:0,0:0:0:0:
132,187,66151,2,0,P|152:136|194:102,1,110.000003356934,8|0,0:0|0:0,0:0:0:0:
231,193,66526,5,2,0:0:0:0:
113,57,66713,1,0,0:0:0:0:
23,194,66901,2,0,L|143:186,1,110.000003356934,8|0,0:0|0:0,0:0:0:0:
223,64,67276,2,0,L|113:56,1,110.000003356934,2|0,0:0|0:0,0:0:0:0:
13,47,67651,1,8,0:0:0:0:
132,186,67838,1,0,0:0:0:0:
169,61,68026,5,2,0:0:0:0:
3,197,68213,1,0,0:0:0:0:
88,295,68401,2,0,P|150:303|206:276,1,110.000003356934,8|0,0:0|0:0,0:0:0:0:
345,181,68776,2,0,P|283:173|227:200,1,110.000003356934,2|0,0:0|0:0,0:0:0:0:
291,378,69151,2,0,B|306:341|306:341|299:272,1,110.000003356934,8|0,0:0|0:0,0:0:0:0:
293,172,69526,6,0,B|370:169|370:169|438:183|438:183|538:180,1,220.000006713867,2|8,0:0|0:0,0:0:0:0:
423,101,70088,1,0,0:0:0:0:
386,256,70276,1,2,0:0:0:0:
292,86,70463,1,0,0:0:0:0:
292,86,70651,2,0,P|234:108|208:156,1,110.000003356934,8|0,0:0|0:0,0:0:0:0:
33,90,71026,6,0,P|97:153|103:233,1,165.000005035401,2|0,0:0|0:0,0:0:0:0:
102,241,71401,2,0,B|94:280|94:280|112:363,1,110.000003356934,8|0,0:0|0:0,0:0:0:0:
193,286,71776,1,2,0:0:0:0:
22,343,71963,1,0,0:0:0:0:
201,386,72151,2,0,P|261:360|292:304,1,110.000003356934,8|0,0:0|0:0,0:0:0:0:
278,220,72526,5,2,0:0:0:0:
422,361,72713,1,0,0:0:0:0:
476,263,72901,2,0,L|352:272,1,110.000003356934,8|0,0:0|0:0,0:0:0:0:
293,172,73276,2,0,L|417:181,1,110.000003356934,2|0,0:0|0:0,0:0:0:0:
240,101,73651,2,0,P|205:167|232:237,1,110.000003356934,8|0,0:0|0:0,0:0:0:0:
274,265,74026,5,2,0:0:0:0:
402,179,74213,1,0,0:0:0:0:
240,101,74401,2,0,L|127:104,1,110.000003356934,8|0,0:0|0:0,0:0:0:0:
32,248,74776,2,0,P|85:238|127:203,1,110.000003356934,2|0,0:0|0:0,0:0:0:0:
55,48,75151,2,0,P|36:98|45:152,1,110.000003356934,8|0,0:0|0:0,0:0:0:0:
127,203,75526,5,2,0:0:0:0:
54,47,75713,1,0,0:0:0:0:
133,213,75901,2,0,L|242:210,1,110.000003356934,8|0,0:0|0:0,0:0:0:0:
426,253,76276,2,0,P|373:253|304:313,1,110.000003356934,2|0,0:0|0:0,0:0:0:0:
399,350,76651,1,8,0:0:0:0:
337,169,76838,1,0,0:0:0:0:
306,378,77026,5,2,0:0:0:0:
480,182,77213,1,0,0:0:0:0:
508,359,77401,2,0,L|387:349,1,110.000003356934,8|0,0:0|0:0,0:0:0:0:
215,290,77776,2,0,L|336:280,1,110.000003356934,2|0,0:0|0:0,0:0:0:0:
396,113,78151,2,0,P|346:161|340:221,1,110.000003356934,8|0,0:0|0:0,0:0:0:0:
438,203,78526,5,2,0:0:0:0:
324,50,78713,1,0,0:0:0:0:
227,205,78901,2,0,L|350:198,1,110.000003356934,8|0,0:0|0:0,0:0:0:0:
240,101,79276,2,0,L|117:94,1,110.000003356934,2|0,0:0|0:0,0:0:0:0:
30,89,79651,1,8,0:0:0:0:
133,213,79838,1,0,0:0:0:0:
189,0,80026,5,2,0:0:0:0:
26,185,80213,2,0,P|29:254|99:319,1,165.000005035401,2|0,0:0|0:0,0:0:0:0:
119,324,80588,2,0,B|158:318|158:318|238:325,1,110.000003356934,2|0,0:0|0:0,0:0:0:0:
329,336,80963,1,2,0:0:0:0:
422,255,81151,6,0,P|363:219|296:220,1,120,0|0,0:0|0:0,0:0:0:0:
293,248,81526,6,0,B|285:185|285:185|298:117|298:117|288:32,1,179.999994506836,2|0,0:0|0:0,0:0:0:0:
289,42,81901,2,0,B|338:33|338:33|428:42,1,119.999996337891,8|0,0:0|0:0,0:0:0:0:
291,160,82276,1,0,0:0:0:0:
501,15,82463,1,2,0:0:0:0:
454,180,82651,2,0,L|327:167,1,119.999996337891,8|0,0:0|0:0,0:0:0:0:
175,117,83026,6,0,B|153:167|170:208|170:208|187:251|166:300,1,179.999994506836,2|0,0:0|0:0,0:0:0:0:
163,314,83401,2,0,B|123:326|123:326|28:321,1,119.999996337891,8|0,0:0|0:0,0:0:0:0:
170,204,83776,1,2,0:0:0:0:
242,379,83963,1,2,0:0:0:0:
74,233,84151,2,0,P|77:164|129:114,1,119.999996337891,8|0,0:0|0:0,0:0:0:0:
210,116,84526,5,2,0:0:0:0:
293,248,84713,1,0,0:0:0:0:
262,21,84901,2,0,P|198:7|135:37,1,119.999996337891,8|0,0:0|0:0,0:0:0:0:
107,125,85276,1,0,0:0:0:0:
262,21,85463,1,2,0:0:0:0:
334,183,85651,2,0,L|468:179,1,119.999996337891,8|0,0:0|0:0,0:0:0:0:
275,103,86026,6,0,P|233:184|297:275,1,179.999994506836,2|0,0:0|0:0,0:0:0:0:
289,273,86401,2,0,L|423:269,1,119.999996337891,8|0,0:0|0:0,0:0:0:0:
512,267,86776,1,2,0:0:0:0:
334,183,86963,1,2,0:0:0:0:
255,349,87151,2,0,L|121:345,1,119.999996337891,8|0,0:0|0:0,0:0:0:0:
0,273,87526,6,0,B|67:276|67:276|124:259|124:259|186:261,1,179.999994506836,2|0,0:0|0:0,0:0:0:0:
203,262,87901,2,0,P|225:213|205:142,1,119.999996337891,8|0,0:0|0:0,0:0:0:0:
156,60,88276,1,0,0:0:0:0:
91,269,88463,1,2,0:0:0:0:
91,269,88651,2,0,P|122:343|165:371,1,119.999996337891,8|0,0:0|0:0,0:0:0:0:
