osu file format v14

[General]
AudioFilename: audio.mp3
AudioLeadIn: 0
PreviewTime: -1
Countdown: 1
SampleSet: Soft
StackLeniency: 0.7
Mode: 0
LetterboxInBreaks: 0
WidescreenStoryboard: 0

[Editor]
DistanceSpacing: 1
BeatDivisor: 4
GridSize: 8
TimelineZoom: 1.5

[Metadata]
Title:Emotional (remix)
TitleUnicode:Emotional (remix)
Artist:Casely ft. Flo Rida
ArtistUnicode:Casely ft. Flo Rida
Creator:TJay93
Version:Insane
Source:
Tags:
BeatmapID:1549342
BeatmapSetID:734284

[Difficulty]
HPDrainRate:5
CircleSize:4
OverallDifficulty:6
ApproachRate:9.5
SliderMultiplier:1.4
SliderTickRate:1

[Events]
//Background and Video events
0,0,"bg.jpg",0,0
//Break Periods
2,41304,42841
2,68923,77246
//Storyboard Layer 0 (Background)
//Storyboard Layer 1 (Fail)
//Storyboard Layer 2 (Pass)
//Storyboard Layer 3 (Foreground)
//Storyboard Sound Samples

[TimingPoints]
2056.76856205615,476.190476190476,4,2,0,100,1,0

[Colours]
Combo1 : 255,0,0
Combo2 : 158,138,229
Combo3 : 253,255,255
Combo4 : 106,234,124
Combo5 : 74,134,255
Combo6 : 0,0,255

[HitObjects]
256,192,2056,5,0,2:0:0:0:
352,136,3723,1,0,2:0:0:0:
352,192,3961,1,0,2:0:0:0:
160,136,5628,5,0,2:0:0:0:
160,192,5866,1,0,2:0:0:0:
304,120,7532,1,0,2:0:0:0:
304,192,7771,1,0,2:0:0:0:
176,112,9437,1,0,2:0:0:0:
224,80,9675,1,0,2:0:0:0:
248,152,9913,1,0,2:0:0:0:
280,184,10152,1,0,2:0:0:0:
152,192,11341,5,0,2:0:0:0:
200,240,11579,1,0,2:0:0:0:
256,208,11818,1,0,2:0:0:0:
296,168,12056,1,0,2:0:0:0:
176,168,13245,1,0,2:0:0:0:
176,104,13484,1,0,2:0:0:0:
240,104,13722,1,0,2:0:0:0:
240,40,13961,1,0,2:0:0:0:
248,184,14437,1,0,2:0:0:0:
256,192,15390,12,0,16821,2:0:0:0:
96,232,17651,5,0,2:0:0:0:
136,168,17770,1,0,2:0:0:0:
192,112,17889,1,0,2:0:0:0:
256,64,18008,1,0,2:0:0:0:
328,40,18128,1,0,2:0:0:0:
408,32,18247,1,0,2:0:0:0:
400,144,18484,1,0,2:0:0:0:
400,192,18604,1,0,2:0:0:0:
328,304,18961,5,0,2:0:0:0:
328,304,19081,1,0,2:0:0:0:
328,304,19200,1,0,2:0:0:0:
272,248,19319,1,0,2:0:0:0:
224,192,19438,1,0,2:0:0:0:
200,120,19557,1,0,2:0:0:0:
192,48,19677,1,0,2:0:0:0:
192,48,19796,1,0,2:0:0:0:
192,48,19915,1,0,2:0:0:0:
192,48,20034,1,0,2:0:0:0:
232,112,20154,1,0,2:0:0:0:
296,168,20273,1,0,2:0:0:0:
352,112,20392,1,0,2:0:0:0:
288,64,20509,1,0,2:0:0:0:
168,112,20863,5,0,2:0:0:0:
320,240,21101,1,0,2:0:0:0:
168,240,21340,1,0,2:0:0:0:
312,112,21578,1,0,2:0:0:0:
280,160,21698,5,0,2:0:0:0:
248,208,21817,1,0,2:0:0:0:
216,256,21936,1,0,2:0:0:0:
192,296,22055,1,0,2:0:0:0:
168,184,22294,1,0,2:0:0:0:
168,184,22413,1,0,2:0:0:0:
272,200,22652,5,0,2:0:0:0:
320,112,22890,1,0,2:0:0:0:
232,88,23125,1,0,2:0:0:0:
200,136,23245,1,0,2:0:0:0:
168,184,23364,1,0,2:0:0:0:
136,232,23483,1,0,2:0:0:0:
272,176,23721,5,0,2:0:0:0:
320,88,23960,1,0,2:0:0:0:
352,136,24079,1,0,2:0:0:0:
384,184,24198,1,0,2:0:0:0:
416,232,24318,1,0,2:0:0:0:
224,80,24673,5,0,2:0:0:0:
192,160,24793,1,0,2:0:0:0:
256,216,24912,1,0,2:0:0:0:
328,144,25150,1,0,2:0:0:0:
96,144,25389,1,0,2:0:0:0:
144,224,25627,1,0,2:0:0:0:
144,224,25746,1,0,2:0:0:0:
144,224,25866,1,0,2:0:0:0:
144,224,25985,1,0,2:0:0:0:
144,232,26104,1,0,2:0:0:0:
144,240,26223,1,0,2:0:0:0:
152,152,26461,6,0,L|72:176,1,70,0|0,2:0|2:0,2:0:0:0:
256,144,26938,1,0,2:0:0:0:
344,160,27176,2,0,L|424:184,1,70,0|0,2:0|2:0,2:0:0:0:
416,248,27653,2,0,L|376:266,1,35,0|0,2:0|2:0,2:0:0:0:
288,280,28011,1,0,2:0:0:0:
288,280,28130,1,0,2:0:0:0:
152,248,28368,1,0,2:0:0:0:
152,248,28488,1,0,2:0:0:0:
152,256,28607,1,0,2:0:0:0:
152,256,28726,1,0,2:0:0:0:
128,208,28961,5,0,2:0:0:0:
112,128,29080,1,0,2:0:0:0:
144,40,29199,1,0,2:0:0:0:
344,48,29441,1,0,2:0:0:0:
368,144,29561,1,0,2:0:0:0:
336,240,29680,1,0,2:0:0:0:
248,240,29799,6,0,L|248:192,1,35,0|0,2:0|2:0,2:0:0:0:
248,240,30038,6,0,L|248:280,1,35,0|0,2:0|2:0,2:0:0:0:
192,144,30395,6,0,L|152:144,1,35,0|0,2:0|2:0,2:0:0:0:
296,144,30634,2,0,L|336:144,1,35
192,144,30872,2,0,L|152:120,1,35
296,144,31111,2,0,L|344:120,1,35
280,72,31349,2,0,L|344:56,1,35
272,168,31588,2,0,P|240:184|184:168,1,70
206,181,31945,1,0,0:0:0:0:
256,192,32065,12,0,32541,0:0:0:0:
160,144,32899,5,0,0:0:0:0:
160,144,33018,1,0,0:0:0:0:
256,256,33257,1,0,0:0:0:0:
400,152,33495,1,0,0:0:0:0:
360,96,33614,1,0,0:0:0:0:
312,48,33734,1,0,0:0:0:0:
312,48,33853,1,0,0:0:0:0:
144,72,34091,5,0,0:0:0:0:
144,208,34211,1,0,0:0:0:0:
56,144,34449,1,0,0:0:0:0:
208,272,34794,5,0,0:0:0:0:
264,216,34913,1,0,0:0:0:0:
312,152,35032,1,0,0:0:0:0:
352,80,35152,1,0,0:0:0:0:
120,72,35390,1,0,0:0:0:0:
200,248,36699,5,0,0:0:0:0:
288,96,36858,1,0,0:0:0:0:
368,240,37017,1,0,0:0:0:0:
280,192,37136,1,0,0:0:0:0:
128,80,37294,5,0,0:0:0:0:
200,248,37771,1,0,0:0:0:0:
288,96,37946,1,0,0:0:0:0:
368,240,38105,1,0,0:0:0:0:
296,272,38247,5,0,0:0:0:0:
174,145,38422,1,0,0:0:0:0:
334,109,38564,1,0,0:0:0:0:
238,279,38723,5,0,0:0:0:0:
220,104,38899,1,0,0:0:0:0:
368,174,39058,1,0,0:0:0:0:
256,192,39199,1,0,0:0:0:0:
120,64,39675,5,0,0:0:0:0:
272,152,39833,1,0,0:0:0:0:
128,232,39992,1,0,0:0:0:0:
96,160,40134,5,0,0:0:0:0:
223,38,40309,1,0,0:0:0:0:
259,198,40451,1,0,0:0:0:0:
89,102,40610,5,0,0:0:0:0:
264,84,40786,1,0,0:0:0:0:
194,232,40945,1,0,0:0:0:0:
176,120,41104,1,0,0:0:0:0:
320,80,43366,5,0,0:0:0:0:
305,108,43485,1,0,0:0:0:0:
288,144,43604,1,0,0:0:0:0:
270,180,43723,1,0,0:0:0:0:
249,223,43842,1,0,0:0:0:0:
207,310,44080,1,0,0:0:0:0:
120,280,44318,5,0,0:0:0:0:
136,252,44437,1,0,0:0:0:0:
157,218,44556,1,0,0:0:0:0:
177,183,44675,1,0,0:0:0:0:
202,142,44794,1,0,0:0:0:0:
251,60,45032,1,0,0:0:0:0:
320,272,45271,6,0,L|368:240,1,35
408,200,45509,2,0,L|424:152,1,35
440,96,45747,1,0,0:0:0:0:
440,96,45985,1,0,0:0:0:0:
256,192,46342,12,0,47296,0:0:0:0:
88,152,47771,5,0,0:0:0:0:
192,64,48247,1,0,0:0:0:0:
320,128,48485,1,0,0:0:0:0:
288,176,48604,1,0,0:0:0:0:
240,216,48724,1,0,0:0:0:0:
192,248,48843,1,0,0:0:0:0:
136,272,48962,1,0,0:0:0:0:
96,224,49081,1,0,0:0:0:0:
64,168,49201,1,0,0:0:0:0:
80,112,49320,1,0,0:0:0:0:
128,72,49439,2,0,P|160:72|184:112,1,70
192,232,50628,5,0,0:0:0:0:
192,232,51342,1,0,0:0:0:0:
192,232,51580,1,0,0:0:0:0:
104,232,52532,5,0,0:0:0:0:
176,272,52652,1,0,0:0:0:0:
256,296,52771,1,0,0:0:0:0:
336,288,52890,1,0,0:0:0:0:
408,256,53009,1,0,0:0:0:0:
456,200,53128,1,0,0:0:0:0:
472,128,53247,2,0,P|448:80|432:80,1,70
192,192,55152,5,0,0:0:0:0:
312,96,55390,1,0,0:0:0:0:
152,72,55628,5,0,0:0:0:0:
288,192,55866,1,0,0:0:0:0:
152,192,56104,6,0,L|168:272,1,70
192,272,56818,5,0,0:0:0:0:
192,344,57056,1,0,0:0:0:0:
344,344,57294,2,0,L|344:264,1,70
344,216,57771,5,0,0:0:0:0:
344,216,58009,1,0,0:0:0:0:
264,216,58247,2,0,P|216:216|208:192,1,70
256,192,63009,5,0,0:0:0:0:
88,88,63485,1,0,0:0:0:0:
104,168,63723,5,0,0:0:0:0:
152,192,63842,1,0,0:0:0:0:
200,208,63961,1,0,0:0:0:0:
256,216,64080,1,0,0:0:0:0:
312,216,64199,1,0,0:0:0:0:
368,208,64318,1,0,0:0:0:0:
416,184,64437,1,0,0:0:0:0:
400,104,64675,6,0,L|344:96,1,35
365,99,64913,5,0,0:0:0:0:
152,144,65747,1,0,0:0:0:0:
176,192,65866,1,0,0:0:0:0:
208,232,65985,1,0,0:0:0:0:
248,264,66104,1,0,0:0:0:0:
280,96,66342,1,0,0:0:0:0:
328,168,66580,2,0,L|368:168,1,35
424,168,66818,1,0,0:0:0:0:
400,128,67652,5,0,0:0:0:0:
360,168,67771,1,0,0:0:0:0:
312,192,67890,1,0,0:0:0:0:
264,208,68009,1,0,0:0:0:0:
208,216,68128,1,0,0:0:0:0:
152,208,68247,1,0,0:0:0:0:
112,112,68485,6,0,L|72:112,1,35
77,112,68723,5,0,0:0:0:0:
136,200,77771,5,0,0:0:0:0:
256,80,78009,1,0,0:0:0:0:
384,192,78247,1,0,0:0:0:0:
256,288,78485,1,0,0:0:0:0:
256,288,78723,1,0,0:0:0:0:
384,192,78961,2,0,L|320:192,1,35
136,200,79199,1,0,0:0:0:0:
328,120,79675,5,0,0:0:0:0:
320,256,79913,1,0,0:0:0:0:
168,144,80152,1,0,0:0:0:0:
104,208,80866,6,0,L|104:160,1,35
104,112,81104,1,0,0:0:0:0:
256,152,81580,5,0,0:0:0:0:
256,232,81818,1,0,0:0:0:0:
256,152,82056,1,0,0:0:0:0:
256,192,83009,1,0,0:0:0:0:
112,192,83485,5,0,0:0:0:0:
184,72,83723,1,0,0:0:0:0:
360,104,83961,1,0,0:0:0:0:
424,200,84199,1,0,0:0:0:0:
352,272,84437,1,0,0:0:0:0:
184,272,84675,1,0,0:0:0:0:
112,136,84913,1,0,0:0:0:0:
296,104,85390,1,0,0:0:0:0:
248,232,85628,6,0,L|288:232,1,35
288,232,85866,5,0,0:0:0:0:
400,304,86104,1,0,0:0:0:0:
360,144,86342,1,0,0:0:0:0:
88,80,86818,1,0,0:0:0:0:
128,248,87056,1,0,0:0:0:0:
128,248,87175,1,0,0:0:0:0:
128,248,87294,1,0,0:0:0:0:
272,152,87532,6,0,L|272:192,1,35
272,248,87771,1,0,0:0:0:0:
376,192,88009,1,0,0:0:0:0:
160,192,88247,1,0,0:0:0:0:
256,192,88723,5,0,0:0:0:0:
168,96,88961,1,0,0:0:0:0:
240,232,89199,1,0,0:0:0:0:
408,216,89437,1,0,0:0:0:0:
264,136,89675,1,0,0:0:0:0:
256,64,89913,1,0,0:0:0:0:
120,136,90152,1,0,0:0:0:0:
328,168,90271,2,0,L|368:168,1,35
363,168,90628,1,0,0:0:0:0:
304,224,91104,5,0,0:0:0:0:
112,112,91342,1,0,0:0:0:0:
376,200,91580,1,0,0:0:0:0:
472,80,91818,1,0,0:0:0:0:
184,272,92056,1,0,0:0:0:0:
88,144,92294,1,0,0:0:0:0:
160,328,92532,1,0,0:0:0:0:
384,216,93009,1,0,0:0:0:0:
144,128,93485,5,0,0:0:0:0:
368,64,93723,1,0,0:0:0:0:
408,264,93961,1,0,0:0:0:0:
152,296,94199,1,0,0:0:0:0:
56,120,94437,1,0,0:0:0:0:
136,88,94913,5,0,0:0:0:0:
160,96,95152,1,0,0:0:0:0:
160,96,95271,1,0,0:0:0:0:
168,96,95390,1,0,0:0:0:0:
168,96,95628,1,0,0:0:0:0:
200,80,95866,1,0,0:0:0:0:
240,56,96104,1,0,0:0:0:0:
272,152,96342,1,0,0:0:0:0:
352,240,96818,1,0,0:0:0:0:
352,240,97056,5,0,0:0:0:0:
352,240,97175,1,0,0:0:0:0:
352,240,97294,1,0,0:0:0:0:
360,240,97532,1,0,0:0:0:0:
368,192,97771,1,0,0:0:0:0:
368,96,98009,1,0,0:0:0:0:
336,80,98247,1,0,0:0:0:0:
176,112,98723,1,0,0:0:0:0:
144,136,98961,1,0,0:0:0:0:
96,176,99199,1,0,0:0:0:0:
224,80,99675,1,0,0:0:0:0:
232,64,99913,1,0,0:0:0:0:
344,200,100152,1,0,0:0:0:0:
72,176,100866,5,0,0:0:0:0:
184,256,101104,1,0,0:0:0:0:
408,104,101342,1,0,0:0:0:0:
112,48,101580,1,0,0:0:0:0:
64,224,102056,1,0,0:0:0:0:
224,272,102532,1,0,0:0:0:0:
384,200,102771,1,0,0:0:0:0:
408,144,103009,1,0,0:0:0:0:
400,96,103247,1,0,0:0:0:0:
328,72,103485,1,0,0:0:0:0:
176,96,103961,5,0,0:0:0:0:
112,176,104437,1,0,0:0:0:0:
144,200,104675,1,0,0:0:0:0:
160,216,104913,1,0,0:0:0:0:
176,248,105152,1,0,0:0:0:0:
184,256,105390,1,0,0:0:0:0:
336,160,105866,1,0,0:0:0:0:
200,184,106342,5,0,0:0:0:0:
200,184,106580,1,0,0:0:0:0:
152,104,106818,1,0,0:0:0:0:
144,80,107056,1,0,0:0:0:0:
88,48,107294,1,0,0:0:0:0:
256,184,108723,5,0,0:0:0:0:
219,62,110390,2,0,L|178:57,1,35
96,152,110628,5,0,2:0:0:0:
136,216,110747,1,0,2:0:0:0:
192,272,110866,1,0,2:0:0:0:
271,326,110985,1,0,2:0:0:0:
281,323,111104,5,0,0:0:0:0:
242,304,111224,1,0,2:0:0:0:
202,279,111342,1,0,2:0:0:0:
155,243,111461,1,0,2:0:0:0:
112,201,111580,1,0,0:0:0:0:
81,155,111699,1,0,0:0:0:0:
94,102,111818,1,0,0:0:0:0:
169,60,111937,5,0,0:0:0:0:
295,42,112056,1,0,0:0:0:0:
256,192,114437,5,0,0:0:0:0:
256,200,116342,5,0,0:0:0:0:
256,200,118247,5,0,0:0:0:0:
256,200,120152,5,0,0:0:0:0:
256,200,122056,5,0,0:0:0:0:
256,192,123961,5,0,0:0:0:0:
176,192,125866,5,0,0:0:0:0:
336,192,126104,1,0,0:0:0:0:
256,96,126342,1,0,0:0:0:0:
256,184,126580,1,0,0:0:0:0:
256,208,126699,1,0,0:0:0:0:
256,232,126818,1,0,0:0:0:0:
160,240,127056,1,0,0:0:0:0:
352,240,127294,1,0,0:0:0:0:
72,272,129437,6,0,L|72:232,1,35
72,176,129675,1,0,0:0:0:0:
120,80,129913,1,0,0:0:0:0:
184,280,130152,5,0,0:0:0:0:
264,216,130390,1,0,0:0:0:0:
336,144,130628,1,0,0:0:0:0:
416,168,130866,5,0,0:0:0:0:
416,208,130985,1,0,0:0:0:0:
416,248,131104,2,0,L|416:320,1,70
256,152,131818,5,0,0:0:0:0:
256,208,131937,1,0,0:0:0:0:
256,256,132056,1,0,0:0:0:0:
248,344,132294,2,0,L|304:344,1,35
336,344,132532,1,0,0:0:0:0:
400,264,132771,1,0,0:0:0:0:
416,216,132890,1,0,0:0:0:0:
424,168,133009,1,0,0:0:0:0:
335,180,133247,5,0,0:0:0:0:
352,123,133366,1,0,0:0:0:0:
366,65,133485,1,0,0:0:0:0:
256,192,136342,12,0,137294,0:0:0:0:
