osu file format v14

[General]
AudioFilename: Nightcore - Why you had to leave.mp3
AudioLeadIn: 0
PreviewTime: 101839
Countdown: 0
SampleSet: Soft
StackLeniency: 0.7
Mode: 0
LetterboxInBreaks: 0
EpilepsyWarning: 1
WidescreenStoryboard: 1

[Editor]
DistanceSpacing: 1
BeatDivisor: 2
GridSize: 8
TimelineZoom: 1

[Metadata]
Title:Why You Had To Leave(Nightcore Mix)
TitleUnicode:Why You Had To Leave(Nightcore Mix)
Artist:Cascada
ArtistUnicode:Cascada
Creator:Slvr99
Version:Leaving
Source:
Tags:cascada nightcore
BeatmapID:783569
BeatmapSetID:351796

[Difficulty]
HPDrainRate:4
CircleSize:4
OverallDifficulty:5
ApproachRate:6
SliderMultiplier:1.4
SliderTickRate:1

[Events]
//Background and Video events
0,0,"boy-girl-sad-sunset-sea-1280x800.jpg",0,0
//Break Periods
//Storyboard Layer 0 (Background)
//Storyboard Layer 1 (Fail)
//Storyboard Layer 2 (Pass)
//Storyboard Layer 3 (Foreground)
//Storyboard Sound Samples

[TimingPoints]
2229.91596370339,390.625,4,2,1,100,1,0
39729,-66.6666666666667,4,2,1,100,0,1
52225,-66.6666666666667,4,2,1,100,0,0
52229,-66.6666666666667,4,2,1,100,0,1
64729,-100,4,2,1,100,0,0
102229,-66.6666666666667,4,2,1,100,0,1
114725,-66.6666666666667,4,2,1,100,0,0
114729,-66.6666666666667,4,2,1,100,0,1
127229,-66.6666666666667,4,2,1,100,0,0
139729,-100,4,2,1,100,0,0
152229,-66.6666666666667,4,2,1,100,0,1
164725,-66.6666666666667,4,2,1,100,0,0
164729,-66.6666666666667,4,2,1,100,0,1
177229,-100,4,2,1,100,0,0

[Colours]
Combo1 : 0,0,255
Combo2 : 0,202,0
Combo3 : 18,124,255
Combo4 : 242,24,57
Combo5 : 255,192,0
Combo6 : 128,128,128

[HitObjects]
216,128,2815,6,0,P|240:80|272:96,1,70,2|2,0:0|0:0,0:0:0:0:
120,296,3597,2,0,P|80:240|88:160,2,140,2|2|2,0:0|0:0|0:0,0:0:0:0:
256,200,4768,2,0,L|176:176,2,70,2|0|2,0:0|0:0|0:0,0:0:0:0:
336,232,5354,1,2,0:0:0:0:
120,104,5940,5,0,0:0:0:0:
200,88,6136,2,0,P|272:72|352:88,1,140,2|0,0:0|0:0,0:0:0:0:
328,168,6722,2,0,P|280:152|176:176,1,140,2|0,0:0|0:0,0:0:0:0:
136,232,7308,1,0,0:0:0:0:
72,280,7503,2,0,P|48:224|112:160,2,140,2|2|2,0:0|0:0|0:0,0:0:0:0:
408,288,9065,6,0,B|464:240|464:184|456:136,1,140,2|2,0:0|0:0,0:0:0:0:
408,96,9651,1,0,0:0:0:0:
328,104,9847,2,0,B|280:64|248:96|208:104|168:72,1,140,2|2,0:0|0:0,0:0:0:0:
120,112,10433,1,0,0:0:0:0:
160,176,10628,2,0,P|208:152|200:224,2,140,2|2|2,0:0|0:0|0:0,0:0:0:0:
256,56,11800,5,0,0:0:0:0:
352,176,12190,2,0,P|304:152|312:224,2,140,2|2|2,0:0|0:0|0:0,0:0:0:0:
256,56,13362,1,0,0:0:0:0:
168,184,13753,1,0,0:0:0:0:
296,264,14143,2,0,P|328:240|328:216,2,35,8|0|0,0:0|0:0|0:0,0:0:0:0:
216,272,14534,2,0,P|152:264|136:248,1,70,0|8,0:0|0:0,0:0:0:0:
128,112,15120,5,0,1:0:0:0:
200,80,15315,2,0,P|240:72|272:96,1,70,0|8,0:0|0:0,0:0:0:0:
256,256,15901,1,0,1:0:0:0:
176,256,16097,2,0,P|112:232|96:160,1,140
240,112,16878,2,0,P|320:136|328:216,1,140
256,184,17464,2,0,L|184:192,2,70,0|0|8,1:0|0:0|0:0,0:0:0:0:
104,184,18245,5,0,1:0:0:0:
160,136,18440,1,0,0:0:0:0:
224,96,18636,2,0,P|280:80|384:112,1,140,8|0,0:0|1:0,0:0:0:0:
368,176,19222,2,0,P|312:160|224:200,1,140
176,240,19808,1,0,1:0:0:0:
240,280,20003,2,0,P|312:256|392:280,2,140
256,48,21370,5,0,1:0:0:0:
320,96,21565,2,0,B|256:160|200:88|160:104,1,140
200,184,22151,1,0,1:0:0:0:
264,224,22347,2,0,P|216:256|120:216,1,140
112,312,22933,1,0,1:0:0:0:
184,328,23128,2,0,P|256:320|320:256,2,140
256,192,24300,5,0,0:0:0:0:
256,40,24690,2,0,P|184:48|112:120,2,140
256,192,25862,1,0,0:0:0:0:
224,40,26253,6,0,L|304:40,2,70,0|8|0,0:0|0:0|0:0,0:0:0:0:
256,112,26839,1,0,1:0:0:0:
256,192,27034,1,0,0:0:0:0:
200,248,27229,2,0,P|264:280|328:168,2,210,10|2|0,0:0|0:0|1:0,0:0:0:0:
184,96,28792,5,8,0:0:0:0:
336,96,29183,1,0,1:0:0:0:
256,224,29573,1,8,0:0:0:0:
264,72,29964,1,0,1:0:0:0:
192,208,30354,2,0,P|256:280|328:200,2,210,10|2|0,0:0|0:0|1:0,0:0:0:0:
256,72,31917,5,8,0:0:0:0:
136,168,32308,1,0,1:0:0:0:
280,232,32698,1,8,0:0:0:0:
376,112,33089,1,0,1:0:0:0:
232,168,33479,2,0,B|168:152|184:272|72:320,2,210,10|2|0,0:0|0:0|1:0,0:0:0:0:
352,264,35042,5,8,0:0:0:0:
368,112,35433,1,0,1:0:0:0:
288,112,35628,1,0,0:0:0:0:
208,112,35823,2,0,L|208:184,2,70,8|0|0,0:0|0:0|1:0,0:0:0:0:
128,112,36409,1,0,0:0:0:0:
256,192,36604,12,4,38167,0:0:0:0:
256,192,39339,5,4,0:0:0:0:
256,192,39729,2,0,P|168:192|128:80,2,210.000008010865,12|4|8,0:0|1:0|0:0,0:0:0:0:
432,304,40901,1,4,1:0:0:0:
432,200,41097,2,0,P|424:128|280:48,2,210.000008010865,2|2|2,0:0|0:0|0:0,0:0:0:0:
336,160,42073,2,0,B|312:208|224:192|184:312,2,210.000008010865,8|4|8,0:0|1:0|0:0,0:0:0:0:
128,136,43245,5,4,1:0:0:0:
288,272,43636,1,8,0:0:0:0:
80,280,44026,1,4,1:0:0:0:
184,280,44222,2,0,B|160:192|288:168|224:40,2,210.000008010865,2|2|2,0:0|0:0|0:0,0:0:0:0:
288,288,45198,5,0,0:0:0:0:
376,96,45589,1,4,1:0:0:0:
168,96,45979,1,8,0:0:0:0:
120,304,46370,2,0,B|48:240|112:112|224:184,1,210.000008010865,4|8,1:0|0:0,0:0:0:0:
352,48,47151,1,4,1:0:0:0:
208,200,47542,6,0,B|288:232|304:216|368:144|424:208,1,210.000008010865,8|4,0:0|1:0,0:0:0:0:
320,128,48128,2,0,B|272:152|232:168|216:88|104:120,1,210.000008010865,2|0,0:0|0:0,0:0:0:0:
72,208,48714,1,4,1:0:0:0:
256,192,48909,12,4,51448,0:0:0:0:
288,192,52229,6,0,P|240:120|232:200,2,210.000008010865,12|4|8,0:0|1:0|0:0,0:0:0:0:
256,344,53401,1,4,1:0:0:0:
352,312,53597,2,0,P|248:264|168:312,2,210.000008010865,2|2|2,0:0|0:0|0:0,0:0:0:0:
248,344,54573,1,8,0:0:0:0:
256,136,54964,1,4,1:0:0:0:
64,216,55354,6,0,B|152:176|208:248|280:208,2,210.000008010865,8|4|8,0:0|1:0|0:0,0:0:0:0:
256,296,56526,1,4,1:0:0:0:
360,288,56722,2,0,B|304:224|392:160|312:64,2,210.000008010865,2|2|2,0:0|0:0|0:0,0:0:0:0:
432,208,57698,1,8,0:0:0:0:
224,192,58089,5,4,1:0:0:0:
120,192,58284,2,0,B|104:120|88:64|256:88,1,210.000008010865,2|0,0:0|0:0,0:0:0:0:
320,144,58870,2,0,P|384:96|384:208,2,210.000008010865,4|8|4,1:0|0:0|1:0,0:0:0:0:
152,264,60042,6,0,B|208:232|48:136|200:48,1,210.000008010865,10|4,0:0|1:0,0:0:0:0:
272,88,60628,2,0,B|208:152|320:240|248:312,1,210.000008010865,2|0,0:0|0:0,0:0:0:0:
368,288,61214,1,4,1:0:0:0:
256,192,61409,12,4,64339,0:0:0:0:
256,272,64729,5,4,0:0:0:0:
376,200,65120,2,0,B|272:160|208:224|72:200,1,280,2|0,0:0|0:0,0:0:0:0:
136,72,66292,2,0,P|224:88|296:64,1,140,2|0,0:0|0:0,0:0:0:0:
176,184,67073,2,0,P|264:160|336:192,1,140,2|0,0:0|0:0,0:0:0:0:
256,224,67659,2,0,L|288:296,1,70,0|2,0:0|0:0,0:0:0:0:
392,200,68245,1,0,0:0:0:0:
280,112,68636,6,0,B|224:88|184:72|152:120,1,140,2|0,0:0|0:0,0:0:0:0:
208,168,69222,2,0,B|296:208|328:192|368:96,1,210,2|0,0:0|0:0,0:0:0:0:
224,88,70198,2,0,P|144:96|128:168,2,140,0|0|8,0:0|0:0|0:0,0:0:0:0:
256,224,71370,2,0,L|256:144,2,70,8|0|8,0:0|0:0|0:0,0:0:0:0:
128,160,72151,2,0,P|88:184|72:224,2,70,10|2|10,0:0|0:0|0:0,0:0:0:0:
256,96,72933,1,10,0:0:0:0:
328,104,73128,2,0,P|392:112|432:184,2,140,2|2|2,0:0|0:0|0:0,0:0:0:0:
256,224,74300,5,0,0:0:0:0:
184,104,74690,2,0,P|120:112|80:184,2,140,2|2|2,0:0|0:0|0:0,0:0:0:0:
248,224,75862,1,0,0:0:0:0:
256,80,76253,1,0,0:0:0:0:
128,136,76643,1,8,0:0:0:0:
128,208,76839,1,0,1:0:0:0:
160,272,77034,1,4,3:0:0:0:
224,296,77229,1,8,0:0:0:0:
360,304,77620,6,0,L|432:240,1,70,0|2,1:0|0:0,0:0:0:0:
256,120,78401,1,0,1:0:0:0:
200,80,78597,2,0,P|128:64|48:96,2,140,2|2|2,0:0|0:0|0:0,0:0:0:0:
344,80,79768,2,0,P|400:80|408:112,3,70,2|0|2|10,0:0|1:0|0:0|0:0,0:0:0:0:
288,160,80745,5,0,1:0:0:0:
240,208,80940,1,2,0:0:0:0:
224,272,81136,2,0,P|176:248|200:160,2,140,10|0|8,0:0|1:0|0:0,0:0:0:0:
256,136,82308,1,0,1:0:0:0:
192,96,82503,2,0,P|248:64|328:112,2,140,2|2|2,0:0|0:0|0:0,0:0:0:0:
256,224,83675,1,2,0:0:0:0:
328,224,83870,6,0,L|328:136,2,70,0|2|10,1:0|0:0|0:0,0:0:0:0:
376,280,84456,1,2,0:0:0:0:
328,336,84651,1,0,1:0:0:0:
256,336,84847,2,0,P|144:304|128:272,2,140,2|2|2,0:0|0:0|0:0,0:0:0:0:
256,192,86018,1,2,0:0:0:0:
256,56,86409,2,0,P|352:64|392:120,2,140,2|2|2,0:0|0:0|0:0,0:0:0:0:
256,192,87581,12,10,89729,0:0:0:0:
136,256,90315,6,0,P|256:304|352:288,2,210,2|0|2,0:0|1:0|0:0,0:0:0:0:
184,56,92073,1,10,0:0:0:0:
328,56,92464,1,0,1:0:0:0:
368,192,92854,2,0,P|264:144|160:192,2,210,10|2|0,0:0|0:0|1:0,0:0:0:0:
192,304,94612,1,2,0:0:0:0:
136,104,95198,2,0,P|96:184|112:248,2,140,10|0|10,0:0|1:0|0:0,0:0:0:0:
264,56,96370,2,0,P|312:72|320:96,2,70,8|0|8,0:0|0:0|0:0,0:0:0:0:
208,184,97151,2,0,P|192:232|200:264,2,70,8|0|8,0:0|0:0|0:0,0:0:0:0:
352,192,97933,1,8,0:0:0:0:
336,264,98128,1,2,0:0:0:0:
280,312,98323,1,10,0:0:0:0:
208,328,98518,2,0,L|128:328,2,70,2|10|2,0:0|0:0|0:0,0:0:0:0:
256,192,99104,12,4,101839,0:0:0:0:
256,56,102229,5,12,0:0:0:0:
424,184,102620,2,0,P|392:288|296:328,1,210.000008010865,4|8,1:0|0:0,0:0:0:0:
96,288,103401,1,4,1:0:0:0:
280,192,103792,2,0,L|96:64,2,210.000008010865,8|4|8,0:0|1:0|0:0,0:0:0:0:
440,56,104964,1,4,1:0:0:0:
280,192,105354,5,8,0:0:0:0:
136,136,105745,2,0,P|104:200|128:240,2,105.000004005432,4|0|8,1:0|0:0|0:0,0:0:0:0:
256,312,106526,1,4,1:0:0:0:
360,128,106917,2,0,P|416:192|344:304,2,210.000008010865,8|4|8,0:0|1:0|0:0,0:0:0:0:
160,192,108089,1,4,1:0:0:0:
304,40,108479,2,0,P|288:136|240:272,2,210.000008010865,8|4|8,0:0|1:0|0:0,0:0:0:0:
448,192,109651,1,4,1:0:0:0:
288,328,110042,2,0,B|216:280|144:352|56:280,1,210.000008010865,8|4,0:0|1:0,0:0:0:0:
80,88,110823,2,0,B|184:48|240:120|312:64,1,210.000008010865,8|4,0:0|1:0,0:0:0:0:
256,192,111409,12,4,114339,1:0:0:0:
184,120,114729,6,0,B|256:192|256:192|336:112,2,210.000008010865,8|4|8,0:0|1:0|0:0,0:0:0:0:
256,320,115901,1,4,1:0:0:0:
408,176,116292,2,0,P|392:80|272:40,2,210.000008010865,8|4|8,0:0|1:0|0:0,0:0:0:0:
200,152,117464,2,0,P|192:200|192:264,2,105.000004005432,4|8|8,1:0|0:0|0:0,0:0:0:0:
312,328,118245,2,0,P|264:208|296:128,2,210.000008010865,4|8|4,1:0|0:0|1:0,0:0:0:0:
176,168,119417,6,0,L|24:24,2,210.000008010865,8|4|8,0:0|1:0|0:0,0:0:0:0:
384,192,120589,1,4,1:0:0:0:
192,104,120979,2,0,P|296:80|416:112,1,210.000008010865,8|4,0:0|1:0,0:0:0:0:
296,288,121761,2,0,P|232:208|88:184,1,210.000008010865,8|4,0:0|1:0,0:0:0:0:
104,80,122542,2,0,B|240:64|280:112|328:40,1,210.000008010865,8|4,0:0|1:0,0:0:0:0:
312,272,123323,2,0,B|248:304|160:256|80:272,1,210.000008010865,8|4,0:0|1:0,0:0:0:0:
256,192,123909,12,4,127229,3:0:0:0:
256,40,127620,5,4,1:0:0:0:
400,192,128011,1,8,0:0:0:0:
256,344,128401,1,4,1:0:0:0:
88,216,128792,2,0,P|104:160|120:240,1,210.000008010865,8|4,0:0|1:0,0:0:0:0:
352,232,129573,2,0,P|384:184|408:24,2,210.000008010865,8|4|8,0:0|1:0|0:0,0:0:0:0:
256,48,130745,1,4,1:0:0:0:
160,232,131136,2,0,P|128:184|104:24,2,210.000008010865,8|4|8,0:0|1:0|0:0,0:0:0:0:
256,48,132308,1,4,1:0:0:0:
184,248,132698,6,0,P|280:312|328:232,2,210.000008010865,8|4|8,0:0|1:0|0:0,0:0:0:0:
88,56,133870,2,0,B|144:232|320:40|456:264,1,420.000016021729,4|4,1:0|1:0,0:0:0:0:
240,304,135042,2,0,P|184:296|80:152,1,210.000008010865,8|4,0:0|1:0,0:0:0:0:
264,80,135823,2,0,P|352:96|416:240,1,210.000008010865,8|4,0:0|1:0,0:0:0:0:
256,192,136604,12,4,138167,0:0:0:0:
72,80,138753,6,0,P|144:112|288:80,2,210.000008010865,2|2|2,0:0|0:0|0:0,0:0:0:0:
40,144,139729,1,8,0:0:0:0:
136,240,140120,2,0,P|184:200|272:176,2,140,8|8|8,0:0|0:0|0:0,0:0:0:0:
128,104,141292,1,8,0:0:0:0:
256,48,141683,1,8,0:0:0:0:
384,112,142073,6,0,P|408:160|392:248,1,140,8|8,0:0|0:0,0:0:0:0:
256,248,142854,2,0,P|288:200|240:112,1,140,8|8,0:0|0:0,0:0:0:0:
224,184,143440,2,0,L|72:184,3,140,2|2|2|2,0:0|0:0|0:0|0:0,0:0:0:0:
88,112,144808,1,8,0:0:0:0:
224,72,145198,2,0,B|288:72|304:120|384:72,1,140,8|8,0:0|0:0,0:0:0:0:
264,192,145979,5,8,0:0:0:0:
160,288,146370,2,0,P|104:248|112:168,2,140,8|8|8,0:0|0:0|0:0,0:0:0:0:
296,312,147542,2,0,B|232:280|272:184|208:192,1,140,8|8,0:0|0:0,0:0:0:0:
360,240,148323,2,0,B|392:192|320:144|384:80,1,140,8|8,0:0|0:0,0:0:0:0:
256,192,149104,12,8,151448,0:0:0:0:
256,192,151839,5,4,0:0:0:0:
256,192,152229,2,0,B|200:152|144:224|32:160,1,210.000008010865,12|4,0:0|1:0,0:0:0:0:
240,80,153011,2,0,B|304:112|376:56|480:128,1,210.000008010865,8|4,0:0|1:0,0:0:0:0:
344,168,153597,2,0,B|344:256|328:296|184:288,2,210.000008010865,2|2|2,0:0|0:0|0:0,0:0:0:0:
256,96,154573,1,8,0:0:0:0:
48,192,154964,1,4,1:0:0:0:
256,296,155354,6,0,B|336:344|424:312|392:224,1,210.000008010865,8|4,0:0|1:0,0:0:0:0:
168,192,156136,1,8,0:0:0:0:
384,120,156526,1,4,1:0:0:0:
272,120,156722,2,0,B|272:248|296:264|384:280,2,210.000008010865,2|2|2,0:0|0:0|0:0,0:0:0:0:
200,32,157698,1,8,0:0:0:0:
32,192,158089,1,4,1:0:0:0:
256,256,158479,5,8,0:0:0:0:
360,48,158870,2,0,B|440:40|464:192|344:200|312:176,2,210.000008010865,4|8|4,1:0|0:0|1:0,0:0:0:0:
56,88,160042,2,0,P|80:144|56:320,1,210.000008010865,8|4,0:0|1:0,0:0:0:0:
176,320,160628,2,0,B|240:168|168:64|168:64|184:32|240:80,1,315.000012016297,2|4,0:0|1:0,0:0:0:0:
256,192,161409,12,4,163558,1:0:0:0:
176,104,163948,6,0,B|208:64|208:64|256:24|304:64|304:64|352:128,2,210.000008010865,8|4|8,0:0|1:0|0:0,0:0:0:0:
256,320,165120,2,0,L|256:104,1,210.000008010865,4|8,1:0|0:0,0:0:0:0:
448,192,165901,1,4,1:0:0:0:
344,192,166097,2,0,L|120:192,2,210.000008010865,2|2|2,0:0|0:0|0:0,0:0:0:0:
440,152,167073,1,8,0:0:0:0:
256,56,167464,2,0,P|208:80|120:64,2,105.000004005432,4|8|8,1:0|0:0|0:0,0:0:0:0:
448,144,168245,5,4,1:0:0:0:
280,272,168636,2,0,B|264:168|104:240|136:112,1,210.000008010865,8|4,0:0|1:0,0:0:0:0:
232,120,169222,1,2,0:0:0:0:
192,328,169612,1,2,0:0:0:0:
400,304,170003,2,0,B|544:256|272:168|432:48,1,315.000012016297,2|4,0:0|1:0,0:0:0:0:
328,48,170784,2,0,P|224:56|120:144,1,210.000008010865,2|0,0:0|0:0,0:0:0:0:
128,224,171370,2,0,P|240:176|312:216,2,210.000008010865,4|8|4,1:0|0:0|1:0,0:0:0:0:
304,112,172542,6,0,B|408:104|432:208|288:216,1,210.000008010865,10|4,0:0|1:0,0:0:0:0:
208,216,173128,2,0,B|88:210|112:106|216:114,1,210.000008010865,2|0,0:0|0:0,0:0:0:0:
256,168,173714,1,4,1:0:0:0:
256,192,173909,12,8,177034,3:0:0:0:
