osu file format v14

[General]
AudioFilename: Nightcore - Why you had to leave.mp3
AudioLeadIn: 0
PreviewTime: 101839
Countdown: 0
SampleSet: Soft
StackLeniency: 0.7
Mode: 0
LetterboxInBreaks: 0
EpilepsyWarning: 1
WidescreenStoryboard: 1

[Editor]
DistanceSpacing: 1.3
BeatDivisor: 2
GridSize: 8
TimelineZoom: 1

[Metadata]
Title:Why You Had To Leave(Nightcore Mix)
TitleUnicode:Why You Had To Leave(Nightcore Mix)
Artist:Cascada
ArtistUnicode:Cascada
Creator:Slvr99
Version:Gone
Source:
Tags:cascada nightcore
BeatmapID:775307
BeatmapSetID:351796

[Difficulty]
HPDrainRate:6
CircleSize:4
OverallDifficulty:7
ApproachRate:8
SliderMultiplier:1.4
SliderTickRate:1

[Events]
//Background and Video events
0,0,"boy-girl-sad-sunset-sea-1280x800.jpg",0,0
//Break Periods
//Storyboard Layer 0 (Background)
//Storyboard Layer 1 (Fail)
//Storyboard Layer 2 (Pass)
//Storyboard Layer 3 (Foreground)
//Storyboard Sound Samples

[TimingPoints]
2229.91596370339,390.625,4,2,1,100,1,0
39729,-66.6666666666667,4,2,1,100,0,1
52225,-66.6666666666667,4,2,1,100,0,0
52229,-66.6666666666667,4,2,1,100,0,1
64729,-100,4,2,1,100,0,0
102229,-66.6666666666667,4,2,1,100,0,1
114725,-66.6666666666667,4,2,1,100,0,0
114729,-66.6666666666667,4,2,1,100,0,1
127229,-66.6666666666667,4,2,1,100,0,0
139729,-100,4,2,1,100,0,0
152229,-66.6666666666667,4,2,1,100,0,1
164725,-66.6666666666667,4,2,1,100,0,0
164729,-66.6666666666667,4,2,1,100,0,1
177229,-100,4,2,1,100,0,0

[Colours]
Combo1 : 0,0,255
Combo2 : 0,202,0
Combo3 : 18,124,255
Combo4 : 242,24,57
Combo5 : 255,192,0
Combo6 : 128,128,128

[HitObjects]
136,64,2815,5,0,0:0:0:0:
200,120,3011,1,2,0:0:0:0:
328,336,3597,2,0,P|408:304|432:240,1,140,2|2,0:0|0:0,0:0:0:0:
432,176,4183,1,0,0:0:0:0:
424,96,4378,2,0,B|368:72|304:80|336:144|280:128,1,140,2|2,0:0|0:0,0:0:0:0:
232,176,4964,2,0,P|184:200|152:176,2,70,0|2|0,0:0|0:0|0:0,0:0:0:0:
176,104,5940,5,0,0:0:0:0:
256,104,6136,1,2,0:0:0:0:
256,232,6526,1,0,0:0:0:0:
256,312,6722,2,0,B|192:336|240:240|80:208,1,210,2|0,0:0|0:0,0:0:0:0:
104,128,7503,2,0,P|168:160|248:160,2,140,2|0|2,0:0|0:0|0:0,0:0:0:0:
432,192,9065,6,0,B|392:144|400:80|360:80,1,140,2|0,0:0|0:0,0:0:0:0:
272,80,9651,1,0,0:0:0:0:
192,80,9847,2,0,B|104:88|120:128|72:176,1,140,2|0,0:0|0:0,0:0:0:0:
88,240,10433,1,0,0:0:0:0:
168,264,10628,2,0,P|240:264|256:200,2,140,2|2|2,0:0|0:0|0:0,0:0:0:0:
256,56,11800,5,0,0:0:0:0:
344,264,12190,2,0,P|272:264|256:200,2,140,2|2|2,0:0|0:0|0:0,0:0:0:0:
376,96,13362,1,0,0:0:0:0:
208,96,13753,1,0,0:0:0:0:
208,224,14143,1,8,2:0:0:0:
248,224,14241,1,8,2:0:0:0:
296,224,14339,1,0,1:0:0:0:
296,136,14534,1,8,2:0:0:0:
216,136,14729,1,8,2:0:0:0:
56,48,15120,5,0,1:0:0:0:
56,136,15315,1,0,0:0:0:0:
80,224,15511,2,0,B|88:304|120:288|112:352|160:272,1,140,8|0,2:0|1:0,0:0:0:0:
240,264,16097,1,0,0:0:0:0:
312,208,16292,1,8,2:0:0:0:
296,120,16487,1,0,0:0:0:0:
208,96,16683,1,0,1:0:0:0:
232,184,16878,2,0,B|136:216|120:208|168:120,2,140
384,80,18050,5,0,0:0:0:0:
296,64,18245,1,0,1:0:0:0:
208,56,18440,1,0,0:0:0:0:
128,96,18636,2,0,P|48:144|48:208,1,140,8|0,0:0|1:0,0:0:0:0:
96,256,19222,2,0,P|184:272|192:240,3,140
144,72,20784,2,0,P|72:40|56:104,1,140
112,152,21370,1,0,1:0:0:0:
160,232,21565,5,0,0:0:0:0:
232,288,21761,1,8,0:0:0:0:
320,320,21956,1,0,0:0:0:0:
408,296,22151,1,0,1:0:0:0:
448,216,22347,2,0,P|456:152|392:72,1,140
336,56,22933,1,0,1:0:0:0:
248,56,23128,2,0,B|128:32|144:96|168:184,1,210,0|0,0:0|1:0,0:0:0:0:
80,208,23909,2,0,B|24:152|24:136|64:72,1,140
136,136,24495,1,0,1:0:0:0:
184,208,24690,22,0,P|256:264|312:160,1,210,0|0,0:0|1:0,0:0:0:0:
288,112,25472,2,0,P|248:80|184:144,1,140
288,112,26253,5,0,0:0:0:0:
184,120,26448,1,8,0:0:0:0:
240,208,26643,1,0,0:0:0:0:
192,304,26839,1,0,1:0:0:0:
296,304,27034,1,0,0:0:0:0:
400,280,27229,2,0,P|432:192|400:72,2,210,10|2|0,0:0|0:0|1:0,0:0:0:0:
256,336,28792,1,8,0:0:0:0:
256,128,29183,1,0,1:0:0:0:
456,192,29573,1,8,0:0:0:0:
248,192,29964,1,0,1:0:0:0:
88,328,30354,6,0,P|48:208|72:104,2,210,8|0|0,0:0|0:0|1:0,0:0:0:0:
192,160,31917,1,8,0:0:0:0:
336,160,32112,1,0,0:0:0:0:
264,248,32308,1,0,1:0:0:0:
264,144,32503,1,0,0:0:0:0:
184,72,32698,2,0,P|264:40|336:72,1,140,8|0,0:0|1:0,0:0:0:0:
256,144,33284,1,0,0:0:0:0:
360,168,33479,6,0,P|304:240|192:216,2,210,8|0|0,0:0|0:0|1:0,0:0:0:0:
160,112,35042,1,8,0:0:0:0:
352,192,35433,1,0,1:0:0:0:
344,296,35628,1,0,0:0:0:0:
240,296,35823,2,0,P|216:232|224:208,2,70,8|0|0,0:0|0:0|1:0,0:0:0:0:
320,232,36409,1,0,0:0:0:0:
392,152,36604,2,0,B|368:72|312:0|160:16|384:384|-56:-8|48:344,1,560,10|4,0:0|0:0,0:0:0:0:
256,192,39339,5,4,0:0:0:0:
187,208,39534,1,0,0:0:0:0:
186,275,39729,2,0,P|252:287|398:207,1,210.000008010865,12|4,0:0|1:0,0:0:0:0:
351,129,40315,1,0,0:0:0:0:
258,166,40511,2,0,B|242:225|211:215|157:139|67:306,1,210.000008010865,8|4,0:0|1:0,0:0:0:0:
127,142,41097,1,0,0:0:0:0:
247,104,41292,1,8,0:0:0:0:
361,156,41487,1,0,0:0:0:0:
248,256,41683,1,4,1:0:0:0:
248,32,41878,1,0,0:0:0:0:
336,200,42073,2,0,P|240:176|128:208,1,210.000008010865,8|4,0:0|1:0,0:0:0:0:
240,112,42659,5,8,0:0:0:0:
241,242,42854,2,0,B|280:287|400:272|392:248|416:156,1,210.000008010865,8|4,0:0|1:0,0:0:0:0:
280,144,43440,1,0,0:0:0:0:
152,151,43636,2,0,B|90:153|72:216|248:240,1,210.000008010865,8|4,0:0|1:0,0:0:0:0:
257,112,44222,1,2,0:0:0:0:
433,292,44612,1,2,0:0:0:0:
117,292,45003,1,2,0:0:0:0:
113,186,45198,1,8,0:0:0:0:
175,117,45393,1,0,0:0:0:0:
270,105,45589,1,4,1:0:0:0:
351,170,45784,2,0,B|265:190|184:207|170:87,1,210.000008010865,2|0,0:0|0:0,0:0:0:0:
278,96,46370,2,0,P|251:158|105:233,1,210.000008010865,4|8,1:0|0:0,0:0:0:0:
344,230,47151,5,4,1:0:0:0:
451,49,47542,2,0,B|355:62|344:120|451:202,1,210.000008010865,8|4,0:0|1:0,0:0:0:0:
328,176,48128,2,0,P|299:124|160:46,1,210.000008010865
96,103,48714,1,4,1:0:0:0:
150,193,48909,2,0,B|202:132|295:104|220:248|329:240,1,210.000008010865
359,150,49495,1,4,1:0:0:0:
288,104,49690,2,0,B|248:64|208:72|160:96|96:128,1,210.000008010865
176,208,50276,1,4,1:0:0:0:
272,192,50472,2,0,P|336:173|401:219,2,105.000004005432,0|8|0,0:0|0:0|0:0,0:0:0:0:
184,152,51058,1,4,1:0:0:0:
178,251,51253,2,0,P|259:281|304:288,1,105.000004005432,0|8,0:0|0:0,0:0:0:0:
211,189,51643,1,0,0:0:0:0:
255,215,51741,1,0,0:0:0:0:
306,226,51839,1,4,1:0:0:0:
256,133,52034,5,8,0:0:0:0:
170,194,52229,2,0,P|169:95|265:45,1,210.000008010865,8|4,0:0|1:0,0:0:0:0:
258,149,52815,1,0,0:0:0:0:
308,241,53011,2,0,P|372:171|328:76,1,210.000008010865,8|4,0:0|1:0,0:0:0:0:
256,151,53597,2,0,B|180:153|135:180|136:34,2,210.000008010865,2|2|2,0:0|0:0|0:0,0:0:0:0:
361,151,54573,1,8,0:0:0:0:
361,255,54768,1,0,0:0:0:0:
256,259,54964,1,4,1:0:0:0:
257,153,55159,1,8,0:0:0:0:
157,186,55354,6,0,B|168:112|207:32|305:69,1,210.000008010865,8|4,0:0|1:0,0:0:0:0:
385,110,55940,1,0,0:0:0:0:
319,192,56136,2,0,B|259:134|236:139|221:308,1,210.000008010865,8|4,0:0|1:0,0:0:0:0:
117,297,56722,1,2,0:0:0:0:
399,77,57112,1,2,0:0:0:0:
103,297,57503,2,0,B|176:242|260:230|278:329|432:227,1,315.000012016297,2|4,0:0|1:0,0:0:0:0:
316,184,58284,1,0,0:0:0:0:
205,333,58479,1,8,0:0:0:0:
74,212,58675,2,0,B|66:151|105:131|155:144,2,105.000004005432,0|4|0,0:0|1:0|0:0,0:0:0:0:
179,219,59261,1,8,0:0:0:0:
280,191,59456,2,0,P|280:258|224:284,2,105.000004005432,0|4|0,0:0|1:0|0:0,0:0:0:0:
379,158,60042,6,0,P|325:92|169:108,1,210.000008010865,10|4,0:0|1:0,0:0:0:0:
273,164,60628,2,0,L|142:344,1,210.000008010865,2|0,0:0|0:0,0:0:0:0:
273,164,61214,1,4,1:0:0:0:
256,192,61409,12,12,63167,0:0:0:0:
82,106,64339,5,12,0:0:0:0:
415,106,64729,1,12,0:0:0:0:
285,191,65120,2,0,P|251:174|231:195,1,70,2|2,0:0|0:0,0:0:0:0:
232,263,65511,1,0,0:0:0:0:
301,261,65706,1,0,0:0:0:0:
363,229,65901,1,0,0:0:0:0:
363,159,66097,2,0,P|296:111|212:108,1,140,2|0,0:0|0:0,0:0:0:0:
173,123,66683,1,0,0:0:0:0:
135,181,66878,2,0,P|138:248|213:298,1,140,2|0,0:0|0:0,0:0:0:0:
196,223,67464,2,0,L|267:176,2,70,2|2|0,0:0|0:0|0:0,0:0:0:0:
404,192,68245,5,0,0:0:0:0:
320,191,68440,1,0,0:0:0:0:
236,191,68636,2,0,L|71:189,1,140,2|0,0:0|0:0,0:0:0:0:
90,105,69222,2,0,B|242:106|309:121|302:168,1,210,2|0,0:0|0:0,0:0:0:0:
265,218,70003,2,0,P|358:190|375:140,2,140,2|2|2,0:0|0:0|0:0,0:0:0:0:
297,140,70979,1,8,0:0:0:0:
227,92,71175,1,0,0:0:0:0:
206,173,71370,1,8,0:0:0:0:
129,137,71565,6,0,P|155:95|192:90,1,70,2|8,0:0|0:0,0:0:0:0:
239,139,71956,2,0,P|218:174|190:186,1,70,2|10,0:0|0:0,0:0:0:0:
269,220,72347,1,2,0:0:0:0:
279,303,72542,2,0,P|360:272|382:212,1,140,10|8,0:0|0:0,0:0:0:0:
296,219,73128,1,2,0:0:0:0:
165,194,73323,1,8,0:0:0:0:
255,110,73518,1,2,0:0:0:0:
171,102,73714,2,0,B|109:102|109:101|109:101|94:127,1,70,8|2,0:0|0:0,0:0:0:0:
142,183,74104,2,0,B|196:173|196:173|220:147,2,70,8|0|8,0:0|0:0|0:0,0:0:0:0:
193,249,74690,6,0,B|250:242|300:227|280:160,1,140,2|2,0:0|0:0,0:0:0:0:
207,127,75276,1,8,0:0:0:0:
296,96,75472,1,2,0:0:0:0:
338,182,75667,2,0,L|400:240,2,70,8|0|8,0:0|0:0|0:0,0:0:0:0:
312,264,76253,1,0,0:0:0:0:
200,200,76448,1,8,0:0:0:0:
293,109,76643,1,8,0:0:0:0:
336,120,76741,1,8,0:0:0:0:
371,127,76839,2,0,P|386:179|368:184,2,70,0|8|8,1:0|0:0|0:0,0:0:0:0:
288,136,77425,1,0,0:0:0:0:
213,181,77620,1,0,1:0:0:0:
240,264,77815,6,0,L|297:221,1,70,0|8,0:0|0:0,0:0:0:0:
216,182,78206,1,0,0:0:0:0:
150,234,78401,1,0,1:0:0:0:
117,156,78597,2,0,B|168:144|208:80|272:136,1,140
208,200,79183,1,0,1:0:0:0:
261,273,79378,2,0,B|205:309|169:243|102:296,1,140
121,197,79964,2,0,P|128:152|192:168,2,70,0|0|8,1:0|0:0|0:0,0:0:0:0:
205,194,80550,1,0,0:0:0:0:
288,191,80745,1,0,1:0:0:0:
245,118,80940,5,0,0:0:0:0:
327,104,81136,2,0,B|339:49|397:181|470:90,1,140,8|0,0:0|1:0,0:0:0:0:
378,158,81722,2,0,L|387:78,1,70,0|8,0:0|0:0,0:0:0:0:
305,113,82112,1,0,0:0:0:0:
235,159,82308,1,0,1:0:0:0:
93,304,82503,1,2,0:0:0:0:
423,304,82893,1,2,0:0:0:0:
256,52,83284,1,2,0:0:0:0:
213,124,83479,2,0,P|254:134|300:117,2,70,8|0|0,0:0|0:0|1:0,0:0:0:0:
142,170,84065,5,0,0:0:0:0:
139,253,84261,1,8,0:0:0:0:
223,252,84456,1,0,0:0:0:0:
287,198,84651,1,0,1:0:0:0:
206,174,84847,2,0,B|209:113|158:62|117:145,1,140
139,211,85433,1,0,1:0:0:0:
195,272,85628,1,0,0:0:0:0:
260,220,85823,1,8,0:0:0:0:
274,299,86018,6,0,B|296:326|270:233|427:288,2,140,2|2|2,0:0|0:0|0:0,0:0:0:0:
190,296,86995,1,0,1:0:0:0:
113,260,87190,2,0,P|75:202|135:137,1,140
192,120,87776,1,0,1:0:0:0:
304,120,87972,1,0,0:0:0:0:
304,264,88167,1,8,0:0:0:0:
192,264,88362,1,0,0:0:0:0:
254,192,88558,1,0,1:0:0:0:
184,192,88753,1,0,0:0:0:0:
333,192,88948,5,8,0:0:0:0:
179,192,89143,1,0,0:0:0:0:
336,264,89339,1,0,1:0:0:0:
176,264,89534,1,8,0:0:0:0:
256,327,89729,2,0,L|256:85,2,210,8|2|0,0:0|0:0|1:0,0:0:0:0:
328,191,91292,1,8,0:0:0:0:
144,192,91683,1,0,1:0:0:0:
256,103,92073,1,8,0:0:0:0:
257,281,92464,1,0,1:0:0:0:
176,191,92854,6,0,P|255:126|326:188,2,210,8|2|0,0:0|0:0|1:0,0:0:0:0:
255,191,94417,1,8,0:0:0:0:
255,261,94612,1,0,0:0:0:0:
317,153,94808,1,0,1:0:0:0:
318,225,95003,1,0,0:0:0:0:
395,117,95198,2,0,L|396:272,1,140,8|0,0:0|1:0,0:0:0:0:
256,168,95979,6,0,B|192:128|152:136|128:184,1,140,10|0,0:0|0:0,0:0:0:0:
192,208,96565,2,0,B|248:248|280:248|320:192,1,140,2|0,0:0|0:0,0:0:0:0:
288,104,97151,2,0,B|376:144|392:200|368:232,1,140,2|0,0:0|0:0,0:0:0:0:
200,192,97933,1,0,0:0:0:0:
256,128,98128,1,0,0:0:0:0:
312,192,98323,1,2,0:0:0:0:
256,256,98518,1,0,0:0:0:0:
256,176,98714,1,2,0:0:0:0:
256,176,98909,1,0,0:0:0:0:
256,192,99104,12,4,101838,0:0:0:0:
416,192,102229,6,0,B|368:152|320:136|264:192|216:160,1,210.000008010865,12|4,0:0|1:0,0:0:0:0:
320,96,102815,1,0,0:0:0:0:
320,224,103011,2,0,B|272:280|208:264|120:160,1,210.000008010865,8|4,0:0|1:0,0:0:0:0:
136,312,103597,1,2,0:0:0:0:
272,96,103987,1,2,0:0:0:0:
416,304,104378,1,2,0:0:0:0:
416,176,104573,2,0,P|384:104|320:192,1,210.000008010865,8|4,0:0|1:0,0:0:0:0:
184,192,105159,1,0,0:0:0:0:
56,200,105354,6,0,B|64:136|80:88|216:88,1,210.000008010865,8|4,0:0|1:0,0:0:0:0:
256,200,105940,1,0,0:0:0:0:
312,88,106136,2,0,B|440:88|456:96|456:200,1,210.000008010865,8|4,0:0|1:0,0:0:0:0:
328,192,106722,2,0,L|112:192,2,210.000008010865,2|2|2,0:0|0:0|0:0,0:0:0:0:
224,120,107698,1,8,0:0:0:0:
232,264,107893,1,0,0:0:0:0:
344,192,108089,1,4,1:0:0:0:
216,192,108284,2,0,B|232:120|280:96|328:80|416:128,1,210.000008010865
304,216,108870,2,0,B|248:288|128:280|136:176,1,210.000008010865,4|8,1:0|0:0,0:0:0:0:
200,96,109456,1,0,0:0:0:0:
264,104,109554,1,0,0:0:0:0:
328,112,109651,1,4,1:0:0:0:
256,216,109847,1,0,0:0:0:0:
128,192,110042,6,0,P|144:128|224:200,1,210.000008010865,10|4,0:0|1:0,0:0:0:0:
360,192,110628,2,0,P|328:128|232:192,1,210.000008010865,2|0,0:0|0:0,0:0:0:0:
231,183,111214,1,4,1:0:0:0:
104,192,111409,2,0,B|168:128|240:136|280:216|432:176,1,315.000012016297,2|4,0:0|1:0,0:0:0:0:
304,96,112190,2,0,P|264:56|200:72,2,105.000004005432,0|8|0,0:0|0:0|0:0,0:0:0:0:
216,192,112776,1,4,1:0:0:0:
88,192,112972,2,0,P|112:144|168:112,2,105.000004005432,0|8|0,0:0|0:0|0:0,0:0:0:0:
216,192,113558,1,4,1:0:0:0:
184,312,113753,2,0,P|248:328|280:288,1,105.000004005432,0|8,0:0|0:0,0:0:0:0:
360,216,114143,1,0,0:0:0:0:
304,192,114241,1,0,0:0:0:0:
240,184,114339,1,4,1:0:0:0:
144,96,114534,1,8,0:0:0:0:
272,96,114729,6,0,B|368:88|408:112|360:224,1,210.000008010865,8|4,0:0|1:0,0:0:0:0:
240,184,115315,1,0,0:0:0:0:
160,280,115511,2,0,B|128:224|120:160|216:88,1,210.000008010865,8|4,0:0|1:0,0:0:0:0:
456,192,116097,1,2,0:0:0:0:
40,192,116487,1,2,0:0:0:0:
456,192,116878,1,2,0:0:0:0:
248,192,117073,2,0,P|320:128|432:184,1,210.000008010865,8|4,0:0|1:0,0:0:0:0:
328,256,117659,1,0,0:0:0:0:
200,272,117854,6,0,B|144:208|168:152|256:72,1,210.000008010865,8|4,0:0|1:0,0:0:0:0:
312,192,118440,1,0,0:0:0:0:
416,120,118636,2,0,B|336:144|248:88|208:128,1,210.000008010865,8|4,0:0|1:0,0:0:0:0:
104,192,119222,1,2,0:0:0:0:
256,312,119417,1,8,0:0:0:0:
456,192,119612,1,2,0:0:0:0:
256,312,119808,1,4,1:0:0:0:
104,192,120003,2,0,L|432:192,1,315.000012016297,2|4,0:0|1:0,0:0:0:0:
312,120,120784,2,0,L|312:352,1,210.000008010865,2|0,0:0|0:0,0:0:0:0:
184,336,121370,2,0,L|184:112,2,210.000008010865,4|8|4,1:0|0:0|1:0,0:0:0:0:
256,232,122347,5,0,0:0:0:0:
352,312,122542,2,0,B|360:224|336:168|240:104,1,210.000008010865,10|4,0:0|1:0,0:0:0:0:
160,312,123128,2,0,B|152:224|176:168|272:104,1,210.000008010865,2|0,0:0|0:0,0:0:0:0:
238,128,123714,1,4,1:0:0:0:
256,192,123909,12,4,125666,0:0:0:0:
208,80,126253,6,0,P|163:107|147:139,2,52.5000020027161,0|0|8,0:0|0:0|0:0,0:0:0:0:
368,264,126643,2,0,P|328:288|296:288,2,52.5000020027161,0|0|4,0:0|0:0|1:0,0:0:0:0:
200,152,127034,1,4,3:0:0:0:
344,152,127229,1,4,3:0:0:0:
272,40,127425,5,0,0:0:0:0:
272,216,127620,1,4,1:0:0:0:
184,160,127815,2,0,P|264:120|368:192,1,210.000008010865
264,208,128401,1,4,1:0:0:0:
176,240,128597,2,0,P|256:304|344:256,1,210.000008010865
264,208,129183,1,4,1:0:0:0:
312,80,129378,6,0,P|264:112|232:80,1,105.000004005432,0|8,0:0|0:0,0:0:0:0:
104,96,129768,2,0,P|144:136|168:104,1,105.000004005432,0|4,0:0|1:0,0:0:0:0:
208,232,130159,1,0,0:0:0:0:
296,144,130354,1,8,0:0:0:0:
384,232,130550,1,0,0:0:0:0:
288,312,130745,1,4,1:0:0:0:
168,288,130940,2,0,P|104:256|112:208,1,105.000004005432,0|8,0:0|0:0,0:0:0:0:
160,120,131331,2,0,P|224:136|208:192,1,105.000004005432,0|4,0:0|1:0,0:0:0:0:
320,248,131722,2,0,P|384:224|304:216,1,210.000008010865
448,192,132308,2,0,P|408:128|264:152,1,210.000008010865,4|8,1:0|0:0,0:0:0:0:
352,240,132893,5,0,0:0:0:0:
224,240,133089,1,4,1:0:0:0:
104,216,133284,2,0,P|128:136|256:72,1,210.000008010865
360,72,133870,2,0,B|416:112|336:152|440:232|480:240,1,210.000008010865,4|8,1:0|0:0,0:0:0:0:
344,264,134456,1,0,0:0:0:0:
216,264,134651,2,0,P|160:272|104:256,1,105.000004005432,4|0,1:0|0:0,0:0:0:0:
104,136,135042,6,0,B|160:96|200:192|328:168,1,210.000008010865,8|4,0:0|1:0,0:0:0:0:
408,240,135628,2,0,B|320:280|224:256|112:176|72:272,1,315.000012016297,0|4,0:0|1:0,0:0:0:0:
256,192,136409,12,4,138167,0:0:0:0:
112,192,138753,6,0,L|192:112,1,105.000004005432,0|8,0:0|0:0,0:0:0:0:
312,120,139143,2,0,L|400:208,1,105.000004005432,0|4,0:0|1:0,0:0:0:0:
256,192,139534,1,8,0:0:0:0:
200,256,139729,2,0,P|256:272|288:264,1,70,8|0,0:0|0:0,0:0:0:0:
344,240,140120,2,0,P|368:192|368:160,1,70,8|0,0:0|0:0,0:0:0:0:
328,104,140511,2,0,P|272:88|232:96,1,70,8|0,0:0|0:0,0:0:0:0:
184,128,140901,1,8,0:0:0:0:
184,208,141097,1,0,0:0:0:0:
264,208,141292,1,8,0:0:0:0:
264,128,141487,1,0,0:0:0:0:
304,56,141683,2,0,P|256:40|216:48,2,70,8|0|8,0:0|0:0|0:0,0:0:0:0:
360,112,142268,5,0,0:0:0:0:
376,192,142464,1,8,0:0:0:0:
320,256,142659,2,0,P|272:280|224:280,2,70,0|8|0,0:0|0:0|0:0,0:0:0:0:
352,176,143245,1,8,0:0:0:0:
312,104,143440,2,2,P|256:88|176:112,3,140
248,160,144808,1,8,0:0:0:0:
248,240,145003,1,0,0:0:0:0:
160,240,145198,6,0,P|176:288|200:312,1,70,8|0,0:0|0:0,0:0:0:0:
248,248,145589,1,8,0:0:0:0:
312,192,145784,2,0,P|264:160|176:176,1,140,2|0,0:0|0:0,0:0:0:0:
128,120,146370,2,0,B|168:56|224:88|296:112|408:40,1,280,10|8,0:0|0:0,0:0:0:0:
392,144,147347,1,0,0:0:0:0:
344,216,147542,6,0,P|304:176|224:208,1,140,10|8,0:0|0:0,0:0:0:0:
184,128,148128,2,0,P|256:88|392:144,1,210,2|8,0:0|0:0,0:0:0:0:
256,192,148909,12,12,150666,0:0:0:0:
256,192,151839,5,0,1:0:0:0:
256,192,152034,1,8,0:0:0:0:
360,128,152229,2,0,P|288:72|152:112,1,210.000008010865,12|4,0:0|1:0,0:0:0:0:
88,184,152815,1,0,0:0:0:0:
160,288,153011,2,0,P|232:312|360:248,1,210.000008010865,8|4,0:0|1:0,0:0:0:0:
296,152,153597,2,2,B|296:224|272:256|248:248|200:240|216:104,2,210.000008010865
352,264,154573,2,0,P|240:312|136:240,2,210.000008010865,8|4|8,0:0|1:0|0:0,0:0:0:0:
256,88,155550,5,0,0:0:0:0:
160,280,155745,1,4,1:0:0:0:
352,264,155940,1,0,0:0:0:0:
344,136,156136,2,0,P|256:88|136:160,1,210.000008010865,8|4,0:0|1:0,0:0:0:0:
256,192,156722,1,0,0:0:0:0:
56,56,156917,1,8,0:0:0:0:
256,192,157112,1,0,0:0:0:0:
448,328,157308,1,4,1:0:0:0:
256,192,157503,1,0,0:0:0:0:
256,192,157698,2,0,L|256:80,2,105.000004005432,8|0|4,0:0|0:0|1:0,0:0:0:0:
184,192,158284,2,0,P|216:240|336:184,1,210.000008010865,2|0,0:0|0:0,0:0:0:0:
112,192,158870,2,0,P|248:320|408:184,1,420.000016021729,4|4,1:0|1:0,0:0:0:0:
256,64,159847,1,0,0:0:0:0:
112,192,160042,6,0,B|200:160|232:232|328:152,1,210.000008010865,10|4,0:0|1:0,0:0:0:0:
424,56,160628,2,2,B|360:112|416:176|368:288|264:320,1,315.000012016297,2|4,0:0|1:0,0:0:0:0:
256,192,161409,2,0,P|304:152|256:96,1,105.000004005432,0|8,0:0|0:0,0:0:0:0:
176,72,161800,2,0,P|128:104|168:168,2,105.000004005432,0|4|0,0:0|1:0|0:0,0:0:0:0:
240,184,162386,1,8,0:0:0:0:
128,232,162581,2,0,P|176:304|232:296,1,105.000004005432,0|4,0:0|1:0,0:0:0:0:
232,192,162972,1,0,0:0:0:0:
336,120,163167,1,8,0:0:0:0:
208,136,163362,2,0,P|160:160|168:168,2,52.5000020027161,0|0|4,0:0|0:0|1:0,0:0:0:0:
112,216,163753,2,0,P|168:248|184:232,2,52.5000020027161,0|0|8,0:0|0:0|0:0,0:0:0:0:
120,88,164143,1,0,0:0:0:0:
248,80,164339,1,4,1:0:0:0:
376,88,164534,1,8,0:0:0:0:
336,208,164729,6,0,P|248:272|184:192,1,210.000008010865,8|4,0:0|1:0,0:0:0:0:
264,112,165315,1,0,0:0:0:0:
184,208,165511,2,0,P|256:272|336:192,1,210.000008010865,8|4,0:0|1:0,0:0:0:0:
256,56,166097,1,2,0:0:0:0:
64,312,166487,1,2,0:0:0:0:
432,312,166878,1,2,0:0:0:0:
432,312,167073,2,0,P|432:192|344:152,1,210.000008010865,8|4,0:0|1:0,0:0:0:0:
256,224,167659,1,8,0:0:0:0:
96,304,167854,6,0,P|96:184|184:216,1,210.000008010865,8|4,0:0|1:0,0:0:0:0:
256,48,168440,1,0,0:0:0:0:
176,80,168636,2,0,B|192:152|240:120|272:152|256:272,1,210.000008010865,8|4,0:0|1:0,0:0:0:0:
144,192,169222,2,2,L|368:192,2,210.000008010865
200,80,170198,1,8,0:0:0:0:
328,80,170393,1,0,0:0:0:0:
248,264,170589,1,4,1:0:0:0:
128,176,170784,2,0,B|128:112|200:112|280:32,1,210.000008010865,2|0,0:0|0:0,0:0:0:0:
376,112,171370,2,0,B|376:200|280:224|288:320,1,210.000008010865,4|8,1:0|0:0,0:0:0:0:
256,176,171956,1,0,0:0:0:0:
160,96,172151,1,4,1:0:0:0:
376,296,172347,1,0,0:0:0:0:
256,272,172542,6,0,B|296:208|216:144|256:64,1,210.000008010865,10|4,0:0|1:0,0:0:0:0:
152,192,173128,2,0,B|224:152|296:208|336:232|448:144,1,315.000012016297,2|4,0:0|1:0,0:0:0:0:
256,192,173909,12,8,177033,3:0:0:0:
