osu file format v14

[General]
AudioFilename: Nightcore - Why you had to leave.mp3
AudioLeadIn: 0
PreviewTime: 39221
Countdown: 0
SampleSet: Soft
StackLeniency: 0.5
Mode: 0
LetterboxInBreaks: 0
WidescreenStoryboard: 0

[Editor]
Bookmarks: 28102
DistanceSpacing: 0.5
BeatDivisor: 4
GridSize: 32
TimelineZoom: 1

[Metadata]
Title:Why You Had To Leave (Nightcore Mix)
TitleUnicode:Why You Had To Leave (Nightcore Mix)
Artist:Cascada
ArtistUnicode:Cascada
Creator:Mishima Yurara
Version:Asphyxia's Hard
Source:
Tags:sped up night core Asphyxia Kaifin VINXIS it's hard believe
BeatmapID:993271
BeatmapSetID:463866

[Difficulty]
HPDrainRate:6
CircleSize:4
OverallDifficulty:6
ApproachRate:7.6
SliderMultiplier:1.6
SliderTickRate:1

[Events]
//Background and Video events
0,0,"NagiBG.jpg",0,0
//Break Periods
2,64613,69657
//Storyboard Layer 0 (Background)
//Storyboard Layer 1 (Fail)
//Storyboard Layer 2 (Pass)
//Storyboard Layer 3 (Foreground)
//Storyboard Sound Samples

[TimingPoints]
-4328,390.579228996602,4,2,1,70,1,0
1921,-111.111111111111,4,2,1,70,0,0
14418,-100,4,2,1,70,0,0
37851,-166.666666666667,4,2,1,70,0,0
39416,-100,4,2,1,80,0,1
50255,-100,4,2,1,5,0,1
50353,-100,4,2,1,80,0,1
64413,-100,4,2,1,70,0,0
95660,-125,4,2,1,70,0,0
100542,-100,4,2,1,70,0,0
101909,-100,4,2,1,80,0,1
112748,-100,4,2,1,5,0,1
112845,-100,4,2,1,80,0,1
126906,-100,4,2,1,70,0,0

[Colours]
Combo1 : 255,128,255
Combo2 : 128,255,255
Combo3 : 128,255,128
Combo4 : 0,128,255

[HitObjects]
94,90,1921,5,2,0:0:0:0:
166,58,2116,1,0,0:0:0:0:
238,90,2311,1,0,0:0:0:0:
310,58,2507,1,0,0:0:0:0:
382,90,2702,2,0,B|392:141|392:141|414:169|414:169|427:227,1,143.999995605469,0|0,0:0|0:0,0:0:0:0:
388,339,3288,6,0,B|376:284|376:284|353:256|353:256|343:205,1,143.999995605469,0|0,0:0|0:0,0:0:0:0:
196,251,3874,1,0,0:0:0:0:
264,198,4069,2,0,L|280:281,1,71.9999978027344,0|0,0:0|0:0,0:0:0:0:
196,251,4460,1,0,0:0:0:0:
184,172,4655,1,0,0:0:0:0:
241,117,4850,2,0,P|282:116|319:140,1,71.9999978027344,0|2,0:0|0:0,0:0:0:0:
214,331,5436,5,0,0:0:0:0:
136,314,5631,2,0,L|89:331,2,35.9999989013672,0|0|0,0:0|0:0|0:0,0:0:0:0:
214,331,6022,1,0,0:0:0:0:
193,254,6217,1,0,0:0:0:0:
268,276,6412,6,0,L|419:303,1,143.999995605469,0|0,0:0|0:0,0:0:0:0:
486,322,6998,1,0,0:0:0:0:
384,219,7194,2,0,L|454:232,1,71.9999978027344,0|0,0:0|0:0,0:0:0:0:
364,135,7584,2,0,L|434:148,1,71.9999978027344,0|0,0:0|0:0,0:0:0:0:
344,51,7975,2,0,L|414:64,1,71.9999978027344,0|2,0:0|0:0,0:0:0:0:
255,191,8561,5,0,0:0:0:0:
179,165,8756,2,0,P|202:130|301:125,1,143.999995605469
255,191,9342,1,0,0:0:0:0:
333,219,9537,2,0,P|310:254|211:259,1,143.999995605469
200,328,10123,2,0,P|218:290|212:255,1,71.9999978027344
136,275,10514,1,0,0:0:0:0:
136,275,10709,1,0,0:0:0:0:
115,351,10904,1,0,0:0:0:0:
115,351,11099,1,0,0:0:0:0:
54,299,11295,5,2,0:0:0:0:
101,162,11685,1,0,0:0:0:0:
238,241,12076,5,0,0:0:0:0:
284,104,12466,1,0,0:0:0:0:
422,183,12857,5,0,0:0:0:0:
469,46,13248,1,0,0:0:0:0:
422,183,13638,5,0,0:0:0:0:
493,217,13833,1,8,0:0:0:0:
495,227,13931,1,8,0:0:0:0:
497,237,14029,1,8,0:0:0:0:
348,159,14224,1,0,0:0:0:0:
439,326,14419,6,0,P|460:254|400:170,1,160,6|8,0:0|0:0,0:0:0:0:
348,159,15005,1,0,0:0:0:0:
267,166,15200,2,0,B|177:196|199:127|97:171,1,160,0|8,0:0|0:0,0:0:0:0:
152,234,15786,6,0,P|171:281|128:240,1,160
111,165,16372,2,0,P|126:121|114:84,1,80,8|0,0:0|0:0,0:0:0:0:
42,118,16763,1,0,0:0:0:0:
132,17,16958,2,0,P|168:33|188:66,2,80,0|8|0,0:0|0:0|0:0,0:0:0:0:
52,19,17544,5,2,0:0:0:0:
111,165,17935,1,8,0:0:0:0:
41,204,18130,1,0,0:0:0:0:
108,246,18325,2,0,P|142:205|246:217,1,160,0|8,0:0|0:0,0:0:0:0:
310,172,18911,6,0,L|328:261,1,80,0|0,0:0|0:0,0:0:0:0:
343,328,19302,1,0,0:0:0:0:
411,286,19497,1,8,0:0:0:0:
263,305,19692,2,0,P|305:274|308:169,1,160,0|0,0:0|0:0,0:0:0:0:
237,140,20278,2,0,L|143:155,1,80,8|0,0:0|0:0,0:0:0:0:
78,164,20669,5,2,0:0:0:0:
78,164,21059,1,8,0:0:0:0:
103,87,21254,1,0,0:0:0:0:
24,104,21450,2,0,B|32:74|32:74|18:10,1,80,0|0,0:0|0:0,0:0:0:0:
78,164,21840,2,0,B|70:194|70:194|80:241,1,80,8|0,0:0|0:0,0:0:0:0:
103,318,22231,5,0,0:0:0:0:
174,282,22426,1,0,0:0:0:0:
244,245,22621,1,8,0:0:0:0:
232,110,22817,2,0,P|274:173|244:244,1,160
194,180,23403,1,8,0:0:0:0:
194,180,23598,1,0,0:0:0:0:
352,159,23793,5,2,0:0:0:0:
194,180,24184,1,8,0:0:0:0:
231,110,24379,2,0,P|273:173|243:244,1,160,0|0,0:0|0:0,0:0:0:0:
169,63,24965,2,0,P|199:38|239:33,1,80,8|0,0:0|0:0,0:0:0:0:
352,159,25356,5,0,0:0:0:0:
352,159,25746,1,8,0:0:0:0:
381,79,25941,1,0,0:0:0:0:
275,202,26137,1,0,0:0:0:0:
432,165,26332,1,0,0:0:0:0:
283,102,26527,1,8,0:0:0:0:
368,242,26723,1,0,0:0:0:0:
352,159,26918,5,6,0:0:0:0:
295,281,27113,1,0,0:0:0:0:
298,292,27211,1,0,0:0:0:0:
301,303,27308,1,8,0:0:0:0:
226,333,27504,2,0,P|145:350|76:299,1,160,0|0,0:0|0:0,0:0:0:0:
30,370,28090,2,0,L|65:213,1,160,8|0,0:0|0:0,0:0:0:0:
93,138,28675,6,0,L|76:80,2,40,0|0|8,0:0|0:0|0:0,0:0:0:0:
65,213,29066,1,0,0:0:0:0:
144,199,29261,2,0,P|168:161|171:115,1,80,0|0,0:0|0:0,0:0:0:0:
248,103,29652,2,0,P|227:63|188:37,1,80,8|0,0:0|0:0,0:0:0:0:
93,138,30042,6,0,P|147:201|228:181,1,160,2|8,0:0|0:0,0:0:0:0:
363,271,30628,2,0,B|282:252|282:252|253:274|202:284,1,160,0|0,0:0|0:0,0:0:0:0:
356,177,31214,2,0,B|458:201|458:201|510:189,1,160,8|0,0:0|0:0,0:0:0:0:
499,108,31800,5,0,0:0:0:0:
495,96,31898,1,0,0:0:0:0:
491,84,31995,1,8,0:0:0:0:
462,9,32191,1,0,0:0:0:0:
410,70,32386,2,0,P|368:68|335:41,1,80,0|0,0:0|0:0,0:0:0:0:
263,74,32777,2,0,P|256:32|277:-5,1,80,8|0,0:0|0:0,0:0:0:0:
338,45,33167,5,2,0:0:0:0:
323,123,33362,2,0,L|314:167,2,40,0|0|8,0:0|0:0|0:0,0:0:0:0:
389,167,33753,2,0,P|373:211|270:222,1,160,0|0,0:0|0:0,0:0:0:0:
114,212,34339,2,0,P|155:147|230:155,1,160,8|0,0:0|0:0,0:0:0:0:
272,223,34925,5,0,0:0:0:0:
270,234,35022,1,0,0:0:0:0:
268,245,35120,1,8,0:0:0:0:
247,322,35315,1,0,0:0:0:0:
188,267,35511,1,0,0:0:0:0:
351,229,35706,1,0,0:0:0:0:
349,240,35804,1,0,0:0:0:0:
347,251,35901,1,8,0:0:0:0:
247,322,36096,1,0,0:0:0:0:
229,154,36292,6,0,B|316:121|298:185|384:159,1,160,2|8,0:0|0:0,0:0:0:0:
350,86,36878,1,0,0:0:0:0:
429,228,37073,2,0,P|458:191|465:150,2,80,0|0|8,0:0|0:0|0:0,0:0:0:0:
349,229,37659,1,0,0:0:0:0:
391,302,37854,6,0,B|326:327|288:284|288:284|268:252|230:264|230:264|255:291|251:342,1,239.999992675781
349,229,39026,5,8,3:0:0:0:
81,326,39416,6,0,L|174:338,1,80,6|0,0:0|0:0,0:0:0:0:
176,339,39709,1,0,0:0:0:0:
191,341,39807,1,8,0:0:0:0:
285,323,40002,1,0,0:0:0:0:
166,131,40198,2,0,P|149:192|212:258,1,160,0|8,0:0|0:0,0:0:0:0:
302,231,40783,6,0,L|323:177,2,40
379,311,41174,2,0,L|393:348,2,40,0|0|8,0:0|0:0|0:0,0:0:0:0:
444,240,41565,1,0,0:0:0:0:
324,118,41760,2,0,P|374:143|390:177,2,80,0|0|8,0:0|0:0|0:0,0:0:0:0:
243,170,42346,1,0,0:0:0:0:
365,45,42541,6,0,P|305:97|215:80,1,160,2|8,0:0|0:0,0:0:0:0:
162,19,43127,1,0,0:0:0:0:
191,176,43322,2,0,L|159:7,1,160,0|8,0:0|0:0,0:0:0:0:
113,207,43908,5,0,0:0:0:0:
115,222,44006,1,0,0:0:0:0:
118,237,44103,1,0,0:0:0:0:
39,110,44299,1,0,0:0:0:0:
41,125,44396,1,0,0:0:0:0:
44,140,44494,1,8,0:0:0:0:
92,319,44689,2,0,P|148:319|205:232,1,160,0|0,0:0|0:0,0:0:0:0:
171,150,45275,1,8,0:0:0:0:
264,172,45470,1,0,0:0:0:0:
279,168,45568,1,0,0:0:0:0:
294,164,45666,5,2,0:0:0:0:
339,79,45861,1,0,0:0:0:0:
451,189,46056,2,0,P|407:189|374:165,1,80,8|0,0:0|0:0,0:0:0:0:
382,315,46447,2,0,B|413:247|413:247|378:170,1,160,0|8,0:0|0:0,0:0:0:0:
339,79,47033,1,0,0:0:0:0:
268,143,47228,5,0,0:0:0:0:
218,60,47423,2,0,L|202:18,2,40,0|0|8,0:0|0:0|0:0,0:0:0:0:
157,134,47814,2,0,L|142:171,2,40,0|0|0,0:0|0:0|0:0,0:0:0:0:
104,53,48204,1,0,0:0:0:0:
98,37,48302,1,0,0:0:0:0:
92,21,48400,1,8,0:0:0:0:
42,103,48595,1,0,0:0:0:0:
36,119,48693,1,0,0:0:0:0:
30,135,48790,6,0,L|68:290,1,160,2|8,0:0|0:0,0:0:0:0:
104,53,49376,2,0,L|142:208,1,160,0|0,0:0|0:0,0:0:0:0:
181,8,49962,2,0,P|211:60|287:63,1,120,8|0,0:0|0:0,0:0:0:0:
266,70,50353,6,0,L|423:40,1,160,0|8,0:0|0:0,0:0:0:0:
512,130,50938,2,0,L|356:161,1,160,0|0,0:0|0:0,0:0:0:0:
262,184,51524,1,8,0:0:0:0:
327,253,51720,1,0,0:0:0:0:
233,275,51915,6,0,L|154:290,1,80,2|0,0:0|0:0,0:0:0:0:
138,294,52208,1,0,0:0:0:0:
122,297,52305,1,8,0:0:0:0:
202,115,52501,1,0,0:0:0:0:
152,197,52696,2,0,B|91:173|91:173|58:225|-8:225,1,160,0|8,0:0|0:0,0:0:0:0:
202,115,53282,6,0,L|142:91,2,40
262,184,53673,2,0,L|322:160,2,40,0|0|8,0:0|0:0|0:0,0:0:0:0:
212,266,54063,1,0,0:0:0:0:
303,297,54258,2,0,L|376:328,2,80,0|0|8,0:0|0:0|0:0,0:0:0:0:
212,266,54844,1,0,0:0:0:0:
262,184,55040,6,0,P|285:131|387:132,1,160,2|8,0:0|0:0,0:0:0:0:
434,194,55625,1,0,0:0:0:0:
410,35,55821,2,0,L|437:213,1,160,0|8,0:0|0:0,0:0:0:0:
455,287,56407,5,0,0:0:0:0:
450,302,56504,1,0,0:0:0:0:
445,317,56602,1,0,0:0:0:0:
349,325,56797,1,0,0:0:0:0:
354,340,56895,1,0,0:0:0:0:
359,355,56992,1,8,0:0:0:0:
251,310,57188,2,0,B|162:338|184:277|96:308,1,160,0|0,0:0|0:0,0:0:0:0:
19,366,57774,1,8,0:0:0:0:
4,271,57969,1,0,0:0:0:0:
9,256,58067,1,0,0:0:0:0:
15,241,58164,5,2,0:0:0:0:
137,124,58359,1,0,0:0:0:0:
45,153,58555,2,0,B|29:114|29:114|49:63,1,80,8|0,0:0|0:0,0:0:0:0:
51,65,58848,1,0,0:0:0:0:
59,51,58945,2,0,L|154:40,1,80,0|0,0:0|0:0,0:0:0:0:
233,27,59336,1,8,0:0:0:0:
246,121,59531,1,0,0:0:0:0:
329,73,59726,5,0,0:0:0:0:
337,168,59922,2,0,L|354:207,2,40,0|0|8,0:0|0:0|0:0,0:0:0:0:
246,121,60312,2,0,L|229:160,2,40,0|0|0,0:0|0:0|0:0,0:0:0:0:
329,73,60703,1,0,0:0:0:0:
336,58,60801,1,0,0:0:0:0:
343,43,60898,1,8,0:0:0:0:
438,92,61094,1,0,0:0:0:0:
431,107,61191,1,0,0:0:0:0:
424,122,61289,6,0,P|483:149|486:254,1,160,2|8,0:0|0:0,0:0:0:0:
425,202,61875,2,0,L|270:167,1,160
363,282,62461,2,0,L|285:264,1,80,8|0,0:0|0:0,0:0:0:0:
243,80,62851,6,0,L|265:26,3,40,2|0|0|0,0:0|0:0|0:0|0:0,0:0:0:0:
197,83,63242,2,0,L|181:120,3,40,8|0|0|0,0:0|0:0|0:0|0:0,0:0:0:0:
171,48,63632,2,0,L|88:14,2,80,8|0|8,0:0|0:0|0:0,0:0:0:0:
149,191,64218,1,0,0:0:0:0:
72,154,64413,5,6,0:0:0:0:
72,154,70467,6,0,L|139:140,1,40,0|0,0:0|0:0,0:0:0:0:
156,135,70663,6,0,L|325:167,1,160,2|0,0:0|0:0,0:0:0:0:
390,185,71249,2,0,P|383:122|298:83,1,160,0|0,0:0|0:0,0:0:0:0:
313,164,71834,1,0,0:0:0:0:
330,242,72030,1,0,0:0:0:0:
252,221,72225,6,0,L|94:191,1,160
41,131,72811,2,0,P|25:87|88:117,1,160
151,41,73397,1,0,0:0:0:0:
151,41,73592,2,0,P|168:88|163:135,1,80,0|2,0:0|0:0,0:0:0:0:
94,191,74178,5,0,0:0:0:0:
41,131,74373,2,0,P|25:87|88:117,1,160,0|0,0:0|0:0,0:0:0:0:
151,41,74959,1,0,0:0:0:0:
151,41,75154,2,0,P|168:88|163:135,1,80,0|0,0:0|0:0,0:0:0:0:
109,266,75740,5,0,0:0:0:0:
237,311,75936,1,0,0:0:0:0:
196,225,76131,1,0,0:0:0:0:
150,352,76326,1,8,0:0:0:0:
150,352,76424,1,8,0:0:0:0:
150,352,76521,1,8,0:0:0:0:
196,225,76717,1,0,0:0:0:0:
237,311,76912,6,0,P|264:336|316:344,1,80,6|0,0:0|0:0,0:0:0:0:
372,231,77303,2,0,P|345:256|293:264,1,80,8|0,0:0|0:0,0:0:0:0:
307,185,77693,1,0,0:0:0:0:
307,185,78084,1,8,0:0:0:0:
378,149,78279,6,0,P|429:172|437:278,1,160
310,109,78865,2,0,P|355:74|406:76,1,80,8|0,0:0|0:0,0:0:0:0:
453,92,79255,1,0,0:0:0:0:
307,185,79451,2,0,P|254:161|232:115,1,80,0|8,0:0|0:0,0:0:0:0:
242,64,79841,1,0,0:0:0:0:
170,99,80037,5,2,0:0:0:0:
26,168,80427,1,8,0:0:0:0:
97,131,80622,1,0,0:0:0:0:
170,99,80818,2,0,B|197:174|197:174|163:255,1,160,0|8,0:0|0:0,0:0:0:0:
233,309,81404,6,0,L|77:267,1,160
274,240,81990,1,8,0:0:0:0:
324,177,82185,2,0,L|401:197,1,80
233,309,82575,2,0,L|310:329,1,80,0|8,0:0|0:0,0:0:0:0:
274,240,82966,2,0,L|351:260,1,80,0|2,0:0|0:0,0:0:0:0:
84,151,83552,5,8,0:0:0:0:
131,87,83747,1,0,0:0:0:0:
160,161,83942,2,0,L|193:241,2,80,0|0|8,0:0|0:0|0:0,0:0:0:0:
233,309,84528,2,0,P|227:249|327:197,1,160,0|0,0:0|0:0,0:0:0:0:
379,207,85114,1,8,0:0:0:0:
379,207,85505,5,0,0:0:0:0:
328,47,85700,2,0,L|352:134,1,80,0|8,0:0|0:0,0:0:0:0:
233,309,86091,2,0,P|227:249|327:197,1,160,0|0,0:0|0:0,0:0:0:0:
379,207,86676,1,8,0:0:0:0:
205,155,86872,2,0,L|15:114,1,160,0|0,0:0|0:0,0:0:0:0:
12,49,87458,1,8,0:0:0:0:
12,49,87848,6,0,P|57:40|87:8,1,80,0|0,0:0|0:0,0:0:0:0:
197,80,88239,2,0,P|236:85|266:111,1,80,8|0,0:0|0:0,0:0:0:0:
358,301,88629,1,0,0:0:0:0:
343,112,88825,1,0,0:0:0:0:
467,259,89020,1,8,0:0:0:0:
283,211,89215,1,0,0:0:0:0:
458,141,89411,5,6,0:0:0:0:
379,206,89606,1,0,0:0:0:0:
383,217,89703,1,0,0:0:0:0:
387,228,89801,1,8,0:0:0:0:
358,301,89996,2,0,P|330:348|225:347,1,160,0|0,0:0|0:0,0:0:0:0:
67,334,90582,2,0,P|95:287|200:288,1,160,8|0,0:0|0:0,0:0:0:0:
268,249,91168,6,0,L|279:287,2,40,0|0|8,0:0|0:0|0:0,0:0:0:0:
241,173,91559,1,0,0:0:0:0:
319,188,91754,2,0,P|355:207|402:201,1,80,0|0,0:0|0:0,0:0:0:0:
427,80,92145,2,0,P|405:114|361:132,1,80,8|0,0:0|0:0,0:0:0:0:
189,80,92535,6,0,L|345:46,1,160,2|8,0:0|0:0,0:0:0:0:
189,171,93121,2,0,B|152:171|120:140|120:140|39:157,1,160,0|0,0:0|0:0,0:0:0:0:
190,261,93707,2,0,P|243:244|276:149,1,160,8|0,0:0|0:0,0:0:0:0:
345,46,94293,5,0,0:0:0:0:
350,61,94390,1,0,0:0:0:0:
354,76,94488,1,8,0:0:0:0:
379,151,94683,1,0,0:0:0:0:
437,97,94879,2,0,L|482:21,1,80,0|0,0:0|0:0,0:0:0:0:
379,151,95269,2,0,P|413:172|469:171,1,80,8|0,0:0|0:0,0:0:0:0:
218,256,95660,6,0,P|253:212|341:219,1,128,2|0,0:0|0:0,0:0:0:0:
355,275,96246,2,0,P|320:319|232:312,1,128,0|0,0:0|0:0,0:0:0:0:
154,191,96832,2,0,L|193:57,1,128
126,279,97808,5,0,0:0:0:0:
67,210,98003,1,0,0:0:0:0:
154,191,98199,1,0,0:0:0:0:
40,303,98394,1,0,0:0:0:0:
212,258,98589,1,0,0:0:0:0:
87,123,98784,5,2,0:0:0:0:
87,123,99175,1,2,0:0:0:0:
172,92,99370,1,0,0:0:0:0:
257,66,99566,2,0,L|389:96,1,128,2|2,0:0|0:0,0:0:0:0:
381,94,100347,5,0,0:0:0:0:
480,73,100542,2,0,L|490:34,1,40,0|0,0:0|0:0,0:0:0:0:
489,34,100737,6,0,B|516:70|508:114|474:144|474:144|522:188|528:237|503:278,1,240
381,94,101518,5,8,0:0:0:0:
316,344,101909,6,0,L|223:356,1,80,6|0,0:0|0:0,0:0:0:0:
221,357,102202,1,0,0:0:0:0:
206,359,102300,1,8,0:0:0:0:
140,287,102495,1,0,0:0:0:0:
298,264,102690,2,0,L|128:288,1,160,0|8,0:0|0:0,0:0:0:0:
205,173,103276,6,0,L|198:133,2,40
280,37,103667,2,0,L|286:76,2,40,0|0|8,0:0|0:0|0:0,0:0:0:0:
185,54,104057,1,0,0:0:0:0:
300,156,104253,2,0,L|390:144,2,80,0|0|8,0:0|0:0|0:0,0:0:0:0:
205,173,104838,1,0,0:0:0:0:
178,299,105034,6,0,P|227:255|204:172,1,160,2|8,0:0|0:0,0:0:0:0:
124,118,105620,1,0,0:0:0:0:
273,29,105815,2,0,P|247:100|299:155,1,160,0|8,0:0|0:0,0:0:0:0:
395,160,106401,5,0,0:0:0:0:
410,155,106498,1,0,0:0:0:0:
425,150,106596,1,0,0:0:0:0:
425,246,106791,1,0,0:0:0:0:
410,241,106889,1,0,0:0:0:0:
395,236,106987,1,8,0:0:0:0:
464,341,107182,2,0,L|314:288,1,160,0|0,0:0|0:0,0:0:0:0:
227,244,107768,1,8,0:0:0:0:
194,334,107963,1,0,0:0:0:0:
189,348,108061,1,0,0:0:0:0:
184,362,108158,5,2,0:0:0:0:
122,266,108354,1,0,0:0:0:0:
227,244,108549,2,0,P|247:200|229:150,1,80,8|0,0:0|0:0,0:0:0:0:
329,148,108939,2,0,P|288:90|188:98,1,160,0|8,0:0|0:0,0:0:0:0:
141,160,109525,1,0,0:0:0:0:
108,69,109721,5,0,0:0:0:0:
204,87,109916,2,0,L|215:37,2,40,0|0|8,0:0|0:0|0:0,0:0:0:0:
300,45,110307,2,0,L|311:-5,2,40,0|0|0,0:0|0:0|0:0,0:0:0:0:
395,56,110697,1,0,0:0:0:0:
392,72,110795,1,0,0:0:0:0:
388,89,110892,1,8,0:0:0:0:
485,29,111088,1,0,0:0:0:0:
482,45,111185,1,0,0:0:0:0:
478,62,111283,6,0,L|440:229,1,160,2|8,0:0|0:0,0:0:0:0:
367,167,111869,2,0,L|332:324,1,160
248,270,112455,2,0,P|213:301|139:293,1,120,8|0,0:0|0:0,0:0:0:0:
143,295,112845,6,0,P|100:245|133:158,1,160,0|8,0:0|0:0,0:0:0:0:
110,29,113431,2,0,P|153:79|120:166,1,160
31,182,114017,1,8,0:0:0:0:
178,223,114212,1,0,0:0:0:0:
264,182,114408,6,0,L|243:97,1,80,2|0,0:0|0:0,0:0:0:0:
240,88,114701,1,0,0:0:0:0:
236,72,114798,1,8,0:0:0:0:
324,257,114993,1,0,0:0:0:0:
403,204,115189,2,0,P|357:166|263:182,1,160,0|8,0:0|0:0,0:0:0:0:
413,295,115775,6,0,L|470:279,2,40
336,347,116165,2,0,L|297:357,2,40,0|0|8,0:0|0:0|0:0,0:0:0:0:
413,295,116556,1,0,0:0:0:0:
324,257,116751,2,0,L|236:281,2,80,0|0|8,0:0|0:0|0:0,0:0:0:0:
263,181,117337,1,0,0:0:0:0:
191,358,117532,6,0,P|208:312|125:232,1,160,2|8,0:0|0:0,0:0:0:0:
49,219,118118,1,0,0:0:0:0:
200,168,118313,2,0,L|48:219,1,160,0|8,0:0|0:0,0:0:0:0:
66,124,118899,5,0,0:0:0:0:
72,109,118997,1,0,0:0:0:0:
78,94,119095,1,0,0:0:0:0:
188,38,119290,1,0,0:0:0:0:
182,53,119387,1,0,0:0:0:0:
176,68,119485,1,8,0:0:0:0:
261,242,119680,2,0,B|296:175|296:175|264:88,1,160,0|0,0:0|0:0,0:0:0:0:
200,167,120266,1,8,0:0:0:0:
170,258,120462,1,0,0:0:0:0:
164,273,120559,1,0,0:0:0:0:
158,288,120657,5,2,0:0:0:0:
241,336,120852,1,0,0:0:0:0:
332,307,121047,2,0,P|376:281|419:289,1,80,8|0,0:0|0:0,0:0:0:0:
417,290,121340,1,0,0:0:0:0:
429,300,121438,2,0,L|412:209,1,80,0|0,0:0|0:0,0:0:0:0:
402,126,121829,1,8,0:0:0:0:
493,156,122024,1,0,0:0:0:0:
470,62,122219,5,0,0:0:0:0:
376,40,122414,2,0,L|327:57,2,40,0|0|8,0:0|0:0|0:0,0:0:0:0:
261,121,122805,2,0,L|298:134,2,40,0|0|0,0:0|0:0|0:0,0:0:0:0:
169,94,123196,1,0,0:0:0:0:
153,88,123293,1,0,0:0:0:0:
137,82,123391,1,8,0:0:0:0:
156,200,123586,1,0,0:0:0:0:
172,194,123684,1,0,0:0:0:0:
188,188,123781,6,0,L|135:343,1,160,2|8,0:0|0:0,0:0:0:0:
313,189,124367,2,0,L|260:344,1,160,0|0,0:0|0:0,0:0:0:0:
388,308,124953,2,0,P|427:303|456:277,1,80,8|0,0:0|0:0,0:0:0:0:
313,189,125344,6,0,L|326:237,3,40,0|0|0|0,0:0|0:0|0:0|0:0,0:0:0:0:
271,174,125734,2,0,L|281:212,3,40,8|0|0|0,0:0|0:0|0:0|0:0,0:0:0:0:
231,156,126125,2,0,L|254:249,2,80,0|0|8,0:0|0:0|0:0,0:0:0:0:
208,62,126711,1,0,0:0:0:0:
131,119,126906,5,6,0:0:0:0:
