osu file format v14

[General]
AudioFilename: Nightcore - Why you had to leave.mp3
AudioLeadIn: 0
PreviewTime: 39221
Countdown: 0
SampleSet: Soft
StackLeniency: 0.5
Mode: 0
LetterboxInBreaks: 0
WidescreenStoryboard: 1

[Editor]
DistanceSpacing: 1.8
BeatDivisor: 4
GridSize: 8
TimelineZoom: 1

[Metadata]
Title:Why You Had To Leave (Nightcore Mix)
TitleUnicode:Why You Had To Leave (Nightcore Mix)
Artist:Cascada
ArtistUnicode:Cascada
Creator:Mishima Yurara
Version:About a Tragic Love
Source:
Tags:sped up night core Asphyxia Kaifin VINXIS it's hard believe
BeatmapID:993270
BeatmapSetID:463866

[Difficulty]
HPDrainRate:6
CircleSize:4
OverallDifficulty:8
ApproachRate:8.5
SliderMultiplier:1.8
SliderTickRate:1

[Events]
//Background and Video events
0,0,"NagiBG.jpg",0,0
//Break Periods
2,64613,69792
2,95860,98109
//Storyboard Layer 0 (Background)
//Storyboard Layer 1 (Fail)
//Storyboard Layer 2 (Pass)
//Storyboard Layer 3 (Foreground)
//Storyboard Sound Samples

[TimingPoints]
-4328,390.579228996602,4,2,1,70,1,0
37854,-125,4,2,1,70,0,0
39416,-83.3333333333333,4,2,1,80,0,1
64413,-100,4,2,1,70,0,0
101909,-83.3333333333333,4,2,1,80,0,1
126906,-100,4,2,1,70,0,0

[Colours]
Combo1 : 232,0,232
Combo2 : 113,255,255
Combo3 : 255,128,255
Combo4 : 0,107,215

[HitObjects]
87,55,1921,6,0,L|188:62,1,90,2|0,0:0|0:0,0:0:0:0:
376,278,2311,2,0,L|275:285,1,90
118,290,2702,1,0,0:0:0:0:
118,290,2897,1,0,0:0:0:0:
304,384,3093,1,0,0:0:0:0:
304,384,3288,1,0,0:0:0:0:
220,155,3483,6,0,L|210:251,1,90
463,204,3874,2,0,L|454:114,1,90
355,297,4264,1,0,0:0:0:0:
355,297,4460,1,0,0:0:0:0:
283,87,4655,1,0,0:0:0:0:
283,87,4850,1,0,0:0:0:0:
355,297,5045,6,0,P|363:254|359:209,1,90,2|0,0:0|0:0,0:0:0:0:
207,193,5436,2,0,L|107:202,1,90
283,87,5827,1,0,0:0:0:0:
283,87,6022,1,0,0:0:0:0:
248,321,6217,1,0,0:0:0:0:
248,321,6412,1,0,0:0:0:0:
283,87,6608,6,0,L|183:81,1,90
365,201,6998,2,0,L|465:207,1,90
248,321,7389,1,0,0:0:0:0:
248,321,7584,1,0,0:0:0:0:
168,148,7779,1,0,0:0:0:0:
168,148,7975,1,0,0:0:0:0:
359,186,8170,6,0,P|399:178|456:197,1,90,2|0,0:0|0:0,0:0:0:0:
334,316,8561,2,0,P|291:328|247:320,1,90
493,264,8951,2,0,L|500:389,1,90
289,241,9342,2,0,L|283:151,1,90
168,29,9732,5,0,0:0:0:0:
85,143,9928,1,0,0:0:0:0:
271,105,10123,1,0,0:0:0:0:
57,42,10318,1,0,0:0:0:0:
89,238,10514,1,0,0:0:0:0:
175,117,10709,1,0,0:0:0:0:
0,145,10904,1,0,0:0:0:0:
176,260,11099,1,0,0:0:0:0:
338,139,11295,6,0,P|350:87|331:34,1,90,2|0,0:0|0:0,0:0:0:0:
108,73,11685,2,0,P|96:125|115:178,1,90
254,377,12076,1,0,0:0:0:0:
275,195,12271,1,0,0:0:0:0:
101,285,12466,1,0,0:0:0:0:
289,218,12662,1,0,0:0:0:0:
412,343,12857,6,0,P|465:350|508:342,1,90
307,241,13248,2,0,L|305:336,1,90
459,229,13638,1,0,0:0:0:0:
301,75,13833,1,8,0:0:0:0:
301,75,13931,1,8,0:0:0:0:
301,75,14029,1,8,0:0:0:0:
307,241,14224,1,0,0:0:0:0:
450,62,14419,5,6,0:0:0:0:
450,62,14615,1,0,0:0:0:0:
226,151,14810,2,0,L|212:266,1,90,8|0,0:0|0:0,0:0:0:0:
176,75,15200,2,0,P|230:57|277:76,1,90
430,224,15591,1,8,0:0:0:0:
226,151,15786,1,0,0:0:0:0:
362,102,15982,6,0,L|465:97,1,90
90,200,16372,2,0,L|-13:205,1,90,8|0,0:0|0:0,0:0:0:0:
174,297,16763,1,0,0:0:0:0:
247,123,16958,1,0,0:0:0:0:
266,361,17153,1,8,0:0:0:0:
143,128,17349,2,0,L|150:81,1,45
203,16,17544,6,0,P|242:30|312:4,1,90,2|0,0:0|0:0,0:0:0:0:
349,249,17935,2,0,P|310:235|240:261,1,90,8|0,0:0|0:0,0:0:0:0:
99,382,18325,2,0,L|94:275,1,90
83,67,18716,1,8,0:0:0:0:
174,211,18911,1,0,0:0:0:0:
291,55,19106,6,0,P|297:111|281:148,1,90
185,333,19497,1,8,0:0:0:0:
184,92,19692,1,0,0:0:0:0:
184,92,19790,1,0,0:0:0:0:
184,92,19887,1,0,0:0:0:0:
287,329,20083,2,0,L|286:381,2,45,0|0|8,0:0|0:0|0:0,0:0:0:0:
402,90,20473,1,0,0:0:0:0:
402,90,20571,1,0,0:0:0:0:
402,90,20669,5,2,0:0:0:0:
415,216,20864,1,0,0:0:0:0:
291,55,21059,1,8,0:0:0:0:
492,28,21254,1,0,0:0:0:0:
272,81,21450,1,0,0:0:0:0:
435,194,21645,1,0,0:0:0:0:
197,137,21840,2,0,P|179:77|195:32,1,90,8|0,0:0|0:0,0:0:0:0:
265,227,22231,5,0,0:0:0:0:
265,227,22426,1,0,0:0:0:0:
77,204,22621,1,8,0:0:0:0:
217,334,22817,1,0,0:0:0:0:
180,147,23012,1,0,0:0:0:0:
99,319,23207,1,0,0:0:0:0:
130,74,23403,2,0,P|171:60|231:73,1,90,8|0,0:0|0:0,0:0:0:0:
495,148,23793,5,2,0:0:0:0:
370,260,23988,1,0,0:0:0:0:
501,326,24184,1,8,0:0:0:0:
375,133,24379,1,0,0:0:0:0:
212,295,24574,2,0,L|218:394,1,90
289,208,24965,2,0,L|284:119,1,90,8|0,0:0|0:0,0:0:0:0:
181,182,25356,5,0,0:0:0:0:
299,310,25551,1,0,0:0:0:0:
282,91,25746,1,8,0:0:0:0:
46,205,25941,1,0,0:0:0:0:
325,220,26137,1,0,0:0:0:0:
138,40,26332,1,0,0:0:0:0:
157,318,26527,1,8,0:0:0:0:
274,66,26723,1,0,0:0:0:0:
374,289,26918,6,0,P|431:304|483:297,1,90,6|0,0:0|0:0,0:0:0:0:
461,302,27211,1,0,0:0:0:0:
461,302,27308,1,8,0:0:0:0:
409,122,27504,1,0,0:0:0:0:
202,200,27699,2,0,L|206:292,1,90
205,289,27992,1,0,0:0:0:0:
205,289,28090,1,8,0:0:0:0:
327,191,28285,1,0,0:0:0:0:
109,118,28480,5,0,0:0:0:0:
266,105,28675,1,0,0:0:0:0:
51,217,28871,1,8,0:0:0:0:
171,23,29066,1,0,0:0:0:0:
350,215,29261,2,0,P|407:239|475:211,1,135
482,186,29652,1,8,0:0:0:0:
415,355,29847,1,0,0:0:0:0:
250,200,30042,6,0,L|243:310,1,90,2|0,0:0|0:0,0:0:0:0:
244,289,30335,1,0,0:0:0:0:
244,289,30433,1,8,0:0:0:0:
66,251,30628,1,0,0:0:0:0:
197,124,30824,2,0,P|251:106|308:127,1,90
492,198,31214,2,0,P|438:216|381:195,1,90,8|0,0:0|0:0,0:0:0:0:
376,34,31605,5,0,0:0:0:0:
250,200,31800,1,0,0:0:0:0:
437,123,31995,1,8,0:0:0:0:
439,325,32191,1,0,0:0:0:0:
164,259,32386,2,0,P|144:201|184:121,1,135
197,124,32777,1,8,0:0:0:0:
260,355,32972,1,0,0:0:0:0:
340,138,33167,6,0,L|345:25,1,90,2|0,0:0|0:0,0:0:0:0:
343,48,33460,1,0,0:0:0:0:
343,48,33558,1,8,0:0:0:0:
339,244,33753,1,0,0:0:0:0:
244,58,33948,2,0,P|188:45|140:64,1,90
157,53,34241,1,0,0:0:0:0:
157,53,34339,1,8,0:0:0:0:
88,220,34534,1,0,0:0:0:0:
340,138,34729,5,0,0:0:0:0:
245,331,34925,1,0,0:0:0:0:
245,331,35022,1,0,0:0:0:0:
245,331,35120,1,8,0:0:0:0:
88,220,35315,1,0,0:0:0:0:
339,244,35511,1,0,0:0:0:0:
95,227,35706,1,0,0:0:0:0:
95,227,35804,1,0,0:0:0:0:
95,227,35901,1,8,0:0:0:0:
340,138,36096,1,0,0:0:0:0:
388,329,36292,6,0,P|328:340|275:318,1,90,2|0,0:0|0:0,0:0:0:0:
173,133,36682,1,8,0:0:0:0:
339,244,36878,1,0,0:0:0:0:
339,244,36975,1,0,0:0:0:0:
339,244,37073,1,0,0:0:0:0:
88,220,37268,1,0,0:0:0:0:
247,26,37463,1,8,0:0:0:0:
36,107,37659,1,0,0:0:0:0:
265,25,37854,6,0,P|351:77|466:40,1,216
414,296,39026,5,8,3:0:0:0:
154,342,39221,1,0,3:0:0:0:
154,342,39319,1,0,3:0:0:0:
154,342,39416,6,0,P|223:350|277:337,1,107.999996704102,6|0,0:0|0:0,0:0:0:0:
445,155,39807,1,8,0:0:0:0:
278,80,40002,1,0,0:0:0:0:
354,321,40198,2,0,L|361:185,1,107.999996704102
141,140,40588,2,0,L|135:247,1,107.999996704102,8|0,0:0|0:0,0:0:0:0:
150,20,40979,5,0,0:0:0:0:
23,234,41174,1,0,0:0:0:0:
278,80,41369,1,8,0:0:0:0:
0,28,41565,1,0,0:0:0:0:
227,162,41760,2,0,P|299:176|351:138,1,107.999996704102
328,162,42053,1,0,0:0:0:0:
328,162,42150,1,8,0:0:0:0:
149,46,42346,1,0,0:0:0:0:
414,215,42541,6,0,P|429:156|411:101,1,107.999996704102,2|0,0:0|0:0,0:0:0:0:
240,247,42932,2,0,L|246:361,1,107.999996704102,8|0,0:0|0:0,0:0:0:0:
168,149,43322,1,0,0:0:0:0:
328,145,43517,1,0,0:0:0:0:
72,99,43713,2,0,P|60:151|76:203,1,107.999996704102,8|0,0:0|0:0,0:0:0:0:
244,7,44103,5,0,0:0:0:0:
266,258,44299,1,0,0:0:0:0:
406,57,44494,1,8,0:0:0:0:
168,149,44689,1,0,0:0:0:0:
406,240,44884,2,0,P|459:250|518:237,1,107.999996704102
313,153,45275,1,8,0:0:0:0:
367,350,45470,1,0,0:0:0:0:
367,350,45568,1,0,0:0:0:0:
367,350,45666,5,2,0:0:0:0:
406,57,45861,1,0,0:0:0:0:
176,242,46056,2,0,P|110:255|51:239,1,107.999996704102,8|0,0:0|0:0,0:0:0:0:
139,55,46447,2,0,P|205:42|264:58,1,107.999996704102
244,49,46740,1,0,0:0:0:0:
244,49,46837,1,8,0:0:0:0:
259,293,47033,1,0,0:0:0:0:
373,196,47228,6,0,L|381:73,1,107.999996704102
362,358,47619,1,8,0:0:0:0:
254,165,47814,1,0,0:0:0:0:
473,194,48009,2,0,L|480:301,1,107.999996704102
254,165,48400,1,8,0:0:0:0:
464,51,48595,1,0,0:0:0:0:
464,51,48693,1,0,0:0:0:0:
464,51,48790,5,2,0:0:0:0:
251,273,48986,2,0,L|256:338,2,53.9999983520508,0|0|8,0:0|0:0|0:0,0:0:0:0:
306,21,49376,1,0,0:0:0:0:
306,21,49474,1,0,0:0:0:0:
306,21,49571,1,0,0:0:0:0:
79,26,49767,2,0,L|10:32,2,53.9999983520508,0|0|8,0:0|0:0|0:0,0:0:0:0:
183,175,50157,1,0,0:0:0:0:
183,175,50255,1,0,0:0:0:0:
183,175,50353,5,0,0:0:0:0:
306,21,50548,2,0,L|375:27,2,53.9999983520508,0|0|8,0:0|0:0|0:0,0:0:0:0:
79,26,50938,1,0,0:0:0:0:
79,26,51036,1,0,0:0:0:0:
79,26,51134,1,0,0:0:0:0:
218,93,51329,1,0,0:0:0:0:
218,93,51427,1,0,0:0:0:0:
218,93,51524,1,8,0:0:0:0:
71,204,51720,1,0,0:0:0:0:
71,204,51817,1,0,0:0:0:0:
71,204,51915,6,0,P|166:219|201:201,1,107.999996704102,2|0,0:0|0:0,0:0:0:0:
393,55,52305,1,8,0:0:0:0:
300,319,52501,1,0,0:0:0:0:
195,113,52696,2,0,L|210:2,1,107.999996704102
176,237,53087,1,8,0:0:0:0:
331,118,53282,1,0,0:0:0:0:
176,237,53477,6,0,P|112:248|49:227,1,107.999996704102
331,118,53868,2,0,L|316:225,1,107.999996704102,8|0,0:0|0:0,0:0:0:0:
195,113,54258,1,0,0:0:0:0:
468,123,54454,1,0,0:0:0:0:
468,123,54551,1,0,0:0:0:0:
468,123,54649,1,8,0:0:0:0:
296,327,54844,1,0,0:0:0:0:
277,52,55040,6,0,P|331:36|394:59,1,107.999996704102,2|0,0:0|0:0,0:0:0:0:
186,220,55430,2,0,L|195:113,1,107.999996704102,8|0,0:0|0:0,0:0:0:0:
179,332,55821,1,0,0:0:0:0:
274,135,56016,1,0,0:0:0:0:
377,278,56211,2,0,P|389:329|371:387,1,107.999996704102,8|0,0:0|0:0,0:0:0:0:
159,233,56602,5,0,0:0:0:0:
302,141,56797,1,0,0:0:0:0:
276,358,56992,1,8,0:0:0:0:
403,191,57188,1,0,0:0:0:0:
96,178,57383,2,0,P|76:238|100:297,1,107.999996704102
190,94,57774,1,8,0:0:0:0:
276,358,57969,1,0,0:0:0:0:
276,358,58067,1,0,0:0:0:0:
276,358,58164,5,2,0:0:0:0:
159,233,58359,1,0,0:0:0:0:
312,145,58555,2,0,L|317:86,1,53.9999983520508,8|0,0:0|0:0,0:0:0:0:
246,207,58750,2,0,L|241:260,1,53.9999983520508
396,169,58945,2,0,L|405:53,1,107.999996704102
405,61,59238,1,0,0:0:0:0:
405,61,59336,1,8,0:0:0:0:
502,217,59531,1,0,0:0:0:0:
368,326,59726,6,0,P|291:335|245:313,1,107.999996704102
105,195,60117,1,8,0:0:0:0:
314,205,60312,1,0,0:0:0:0:
40,252,60508,2,0,P|20:194|42:136,1,107.999996704102
314,205,60898,1,8,0:0:0:0:
184,16,61094,1,0,0:0:0:0:
184,16,61191,1,0,0:0:0:0:
184,16,61289,5,2,0:0:0:0:
184,263,61484,2,0,L|179:319,2,53.9999983520508,0|0|8,0:0|0:0|0:0,0:0:0:0:
340,82,61875,1,0,0:0:0:0:
340,82,61972,1,0,0:0:0:0:
340,82,62070,1,2,0:0:0:0:
340,329,62265,2,0,L|335:385,2,53.9999983520508,0|0|8,0:0|0:0|0:0,0:0:0:0:
488,87,62656,1,0,0:0:0:0:
488,87,62753,1,0,0:0:0:0:
488,87,62851,6,0,L|484:140,3,53.9999983520508,2|0|0|0,0:0|0:0|0:0|0:0,0:0:0:0:
454,185,63242,1,8,0:0:0:0:
407,212,63339,1,0,0:0:0:0:
354,222,63437,1,0,0:0:0:0:
301,215,63535,1,0,0:0:0:0:
253,191,63632,2,0,L|249:79,1,107.999996704102,8|0,0:0|0:0,0:0:0:0:
355,363,64023,1,8,0:0:0:0:
107,226,64218,1,0,0:0:0:0:
107,226,64316,1,0,0:0:0:0:
107,226,64413,5,6,0:0:0:0:
182,225,70467,5,0,0:0:0:0:
182,225,70663,2,0,P|230:242|300:236,1,90,2|0,0:0|0:0,0:0:0:0:
94,195,71053,2,0,P|46:178|-24:184,1,90
120,330,71444,1,0,0:0:0:0:
164,131,71639,1,0,0:0:0:0:
357,214,71834,1,0,0:0:0:0:
357,214,72030,1,0,0:0:0:0:
360,35,72225,6,0,L|358:140,1,90
355,329,72616,1,0,0:0:0:0:
462,209,72811,1,0,0:0:0:0:
220,185,73006,1,0,0:0:0:0:
263,363,73201,1,0,0:0:0:0:
357,214,73397,1,0,0:0:0:0:
124,273,73592,1,0,0:0:0:0:
377,315,73787,6,0,L|387:213,1,90,2|0,0:0|0:0,0:0:0:0:
133,133,74178,2,0,L|143:31,1,90
500,283,74569,2,0,L|510:181,1,90
321,126,74959,2,0,L|331:24,1,90
408,228,75350,5,0,0:0:0:0:
259,297,75545,1,0,0:0:0:0:
271,145,75740,1,0,0:0:0:0:
353,305,75936,1,0,0:0:0:0:
208,217,76131,1,0,0:0:0:0:
364,146,76326,1,8,0:0:0:0:
364,146,76424,1,8,0:0:0:0:
364,146,76521,1,8,0:0:0:0:
298,375,76717,1,0,0:0:0:0:
271,145,76912,5,6,0:0:0:0:
271,145,77107,1,0,0:0:0:0:
100,242,77303,2,0,L|86:357,1,90,8|0,0:0|0:0,0:0:0:0:
50,166,77693,2,0,P|104:148|151:167,1,90
304,315,78084,1,8,0:0:0:0:
100,242,78279,1,0,0:0:0:0:
224,74,78474,6,0,P|266:62|310:72,1,90
304,315,78865,1,8,0:0:0:0:
271,145,79060,1,0,0:0:0:0:
397,244,79255,2,0,L|405:353,1,90
179,188,79646,1,8,0:0:0:0:
397,244,79841,1,0,0:0:0:0:
179,188,80037,6,0,L|171:79,1,90,2|0,0:0|0:0,0:0:0:0:
193,335,80427,1,8,0:0:0:0:
280,131,80622,1,0,0:0:0:0:
193,335,80818,2,0,P|138:337|84:333,1,90
269,290,81208,2,0,P|281:346|262:389,1,90,8|0,0:0|0:0,0:0:0:0:
83,205,81599,5,0,0:0:0:0:
280,131,81794,1,0,0:0:0:0:
182,318,81990,1,8,0:0:0:0:
132,122,82185,1,0,0:0:0:0:
348,89,82380,2,0,P|357:151|339:185,1,90
14,246,82771,2,0,P|5:184|23:150,1,90,8|0,0:0|0:0,0:0:0:0:
220,33,83161,5,2,0:0:0:0:
213,212,83357,1,0,0:0:0:0:
404,145,83552,1,8,0:0:0:0:
344,334,83747,1,0,0:0:0:0:
308,126,83942,2,0,L|322:19,1,90
452,242,84333,2,0,P|403:252|341:234,1,90,8|0,0:0|0:0,0:0:0:0:
152,120,84724,5,0,0:0:0:0:
166,303,84919,1,0,0:0:0:0:
273,109,85114,1,8,0:0:0:0:
186,313,85309,1,0,0:0:0:0:
99,60,85505,2,0,P|141:42|194:54,1,90
201,322,85895,1,8,0:0:0:0:
152,120,86091,1,0,0:0:0:0:
370,135,86286,6,0,L|362:225,1,90,2|0,0:0|0:0,0:0:0:0:
273,109,86676,1,8,0:0:0:0:
475,122,86872,1,0,0:0:0:0:
399,309,87067,2,0,P|354:315|312:303,1,90
176,146,87458,1,8,0:0:0:0:
370,135,87653,1,0,0:0:0:0:
102,261,87848,5,0,0:0:0:0:
118,31,88043,1,0,0:0:0:0:
286,194,88239,1,8,0:0:0:0:
244,22,88434,1,0,0:0:0:0:
201,322,88629,1,0,0:0:0:0:
467,188,88825,1,0,0:0:0:0:
157,150,89020,1,8,0:0:0:0:
355,330,89215,1,0,0:0:0:0:
391,90,89411,6,0,P|336:72|284:94,1,90,6|0,0:0|0:0,0:0:0:0:
306,79,89703,1,0,0:0:0:0:
306,79,89801,1,8,0:0:0:0:
206,7,89996,1,0,0:0:0:0:
150,206,90192,2,0,L|143:117,1,90
143,117,90485,1,0,0:0:0:0:
143,117,90582,1,8,0:0:0:0:
201,322,90778,1,0,0:0:0:0:
312,118,90973,5,0,0:0:0:0:
126,231,91168,1,0,0:0:0:0:
362,273,91363,1,8,0:0:0:0:
328,37,91559,1,0,0:0:0:0:
244,207,91754,1,0,0:0:0:0:
472,189,91949,1,0,0:0:0:0:
273,109,92145,1,8,0:0:0:0:
474,217,92340,1,0,0:0:0:0:
182,263,92535,6,0,P|161:203|180:157,1,90,2|0,0:0|0:0,0:0:0:0:
166,179,92828,1,0,0:0:0:0:
166,179,92926,1,8,0:0:0:0:
242,358,93121,1,0,0:0:0:0:
383,249,93316,2,0,L|482:246,1,90
472,246,93609,1,0,0:0:0:0:
472,246,93707,1,8,0:0:0:0:
242,358,93902,1,0,0:0:0:0:
242,358,94000,1,0,0:0:0:0:
242,358,94097,5,0,0:0:0:0:
243,152,94293,1,0,0:0:0:0:
391,338,94488,1,8,0:0:0:0:
348,118,94683,1,0,0:0:0:0:
271,334,94879,1,0,0:0:0:0:
415,228,95074,1,0,0:0:0:0:
415,228,95172,1,0,0:0:0:0:
415,228,95269,1,8,0:0:0:0:
209,150,95464,1,0,0:0:0:0:
375,27,95660,5,2,0:0:0:0:
245,69,98784,6,0,P|179:55|65:82,1,180,2|2,0:0|0:0,0:0:0:0:
267,315,99566,2,0,P|333:329|447:302,1,180,2|2,0:0|0:0,0:0:0:0:
256,192,100347,5,0,0:0:0:0:
256,192,100444,12,8,101518,0:0:0:0:
403,300,101714,5,0,3:0:0:0:
403,300,101812,1,0,3:0:0:0:
403,300,101909,2,0,P|464:312|513:305,1,107.999996704102,6|0,0:0|0:0,0:0:0:0:
325,65,102300,2,0,P|264:53|215:60,1,107.999996704102,8|0,0:0|0:0,0:0:0:0:
154,328,102690,1,0,0:0:0:0:
264,179,102885,1,0,0:0:0:0:
410,324,103081,2,0,L|420:199,1,107.999996704102,8|0,0:0|0:0,0:0:0:0:
431,10,103471,5,0,0:0:0:0:
307,110,103667,1,0,0:0:0:0:
512,136,103862,1,8,0:0:0:0:
340,0,104057,1,0,0:0:0:0:
247,192,104253,2,0,P|342:204|368:191,1,107.999996704102
350,200,104545,1,0,0:0:0:0:
350,200,104643,1,8,0:0:0:0:
153,114,104838,1,0,0:0:0:0:
427,249,105034,6,0,P|437:189|408:140,1,107.999996704102,2|0,0:0|0:0,0:0:0:0:
247,276,105424,2,0,L|249:384,1,107.999996704102,8|0,0:0|0:0,0:0:0:0:
151,203,105815,1,0,0:0:0:0:
350,200,106010,1,0,0:0:0:0:
80,148,106205,2,0,P|58:197|70:249,1,107.999996704102,8|0,0:0|0:0,0:0:0:0:
248,41,106596,5,0,0:0:0:0:
247,276,106791,1,0,0:0:0:0:
155,75,106987,1,8,0:0:0:0:
350,200,107182,1,0,0:0:0:0:
160,331,107377,2,0,P|140:273|163:218,1,107.999996704102
263,58,107768,1,8,0:0:0:0:
345,297,107963,1,0,0:0:0:0:
345,297,108061,1,0,0:0:0:0:
345,297,108158,5,2,0:0:0:0:
353,43,108354,1,0,0:0:0:0:
153,230,108549,2,0,P|137:167|160:107,1,107.999996704102,8|0,0:0|0:0,0:0:0:0:
416,146,108939,2,0,P|432:209|409:269,1,107.999996704102
421,249,109232,1,0,0:0:0:0:
421,249,109330,1,8,0:0:0:0:
353,43,109525,1,0,0:0:0:0:
239,151,109721,6,0,L|232:281,1,107.999996704102
248,16,110111,1,8,0:0:0:0:
325,192,110307,1,0,0:0:0:0:
151,115,110502,2,0,L|156:7,1,107.999996704102
325,192,110892,1,8,0:0:0:0:
159,122,111088,1,0,0:0:0:0:
159,122,111185,1,0,0:0:0:0:
159,122,111283,5,2,0:0:0:0:
228,349,111478,2,0,L|223:274,2,53.9999983520508,0|0|8,0:0|0:0|0:0,0:0:0:0:
325,192,111869,1,0,0:0:0:0:
325,192,111966,1,0,0:0:0:0:
325,192,112064,1,0,0:0:0:0:
410,305,112259,2,0,L|415:380,2,53.9999983520508,0|0|8,0:0|0:0|0:0,0:0:0:0:
488,231,112650,1,0,0:0:0:0:
488,231,112748,1,0,0:0:0:0:
488,231,112845,5,0,0:0:0:0:
418,312,113041,1,0,0:0:0:0:
418,312,113138,1,0,0:0:0:0:
418,312,113236,1,8,0:0:0:0:
325,192,113431,1,0,0:0:0:0:
325,192,113529,1,0,0:0:0:0:
325,192,113626,1,0,0:0:0:0:
228,349,113822,1,0,0:0:0:0:
228,349,113919,1,0,0:0:0:0:
228,349,114017,1,8,0:0:0:0:
151,115,114212,1,0,0:0:0:0:
151,115,114310,1,0,0:0:0:0:
151,114,114408,6,0,P|142:167|155:220,1,107.999996704102,2|0,0:0|0:0,0:0:0:0:
401,249,114798,2,0,P|413:196|405:143,1,107.999996704102,8|0,0:0|0:0,0:0:0:0:
361,337,115189,1,0,0:0:0:0:
276,177,115384,1,0,0:0:0:0:
205,375,115579,1,8,0:0:0:0:
270,141,115775,1,0,0:0:0:0:
473,300,115970,6,0,P|488:251|464:190,1,107.999996704102
320,41,116360,2,0,L|203:53,1,107.999996704102,8|0,0:0|0:0,0:0:0:0:
475,27,116751,1,0,0:0:0:0:
401,249,116946,1,0,0:0:0:0:
401,249,117044,1,0,0:0:0:0:
401,249,117142,1,8,0:0:0:0:
270,141,117337,1,0,0:0:0:0:
235,303,117532,5,2,0:0:0:0:
389,140,117728,1,0,0:0:0:0:
155,196,117923,1,8,0:0:0:0:
401,249,118118,1,0,0:0:0:0:
138,173,118313,1,0,0:0:0:0:
259,315,118509,1,0,0:0:0:0:
323,82,118704,2,0,P|266:61|210:86,1,107.999996704102,8|0,0:0|0:0,0:0:0:0:
425,277,119095,6,0,L|439:145,1,107.999996704102
417,371,119485,1,8,0:0:0:0:
271,230,119680,1,0,0:0:0:0:
442,123,119876,1,0,0:0:0:0:
256,253,120071,1,0,0:0:0:0:
460,101,120266,2,0,L|448:208,1,107.999996704102,8|0,0:0|0:0,0:0:0:0:
200,306,120657,6,0,P|178:252|209:193,1,107.999996704102,2|0,0:0|0:0,0:0:0:0:
296,10,121047,2,0,P|333:7|372:22,1,53.9999983520508,8|0,0:0|0:0,0:0:0:0:
350,155,121243,2,0,P|313:158|274:143,1,53.9999983520508
323,82,121438,2,0,L|446:78,1,107.999996704102
430,78,121731,1,0,0:0:0:0:
430,78,121829,1,8,0:0:0:0:
311,270,122024,1,0,0:0:0:0:
201,114,122219,6,0,P|188:42|201:-1,1,107.999996704102
311,270,122610,2,0,P|324:342|311:385,1,107.999996704102,8|0,0:0|0:0,0:0:0:0:
192,204,123000,1,0,0:0:0:0:
371,161,123196,1,0,0:0:0:0:
169,200,123391,1,8,0:0:0:0:
399,182,123586,1,0,0:0:0:0:
399,182,123684,1,0,0:0:0:0:
399,182,123781,5,2,0:0:0:0:
243,327,123977,1,0,0:0:0:0:
243,327,124074,1,0,0:0:0:0:
243,327,124172,1,8,0:0:0:0:
273,65,124367,1,0,0:0:0:0:
273,65,124465,1,0,0:0:0:0:
273,65,124563,1,0,0:0:0:0:
416,309,124758,1,0,0:0:0:0:
416,309,124856,1,0,0:0:0:0:
416,309,124953,1,8,0:0:0:0:
201,114,125149,1,0,0:0:0:0:
201,114,125246,1,0,0:0:0:0:
201,114,125344,6,0,L|206:181,3,53.9999983520508
242,209,125734,1,8,0:0:0:0:
293,225,125832,1,0,0:0:0:0:
347,228,125930,1,0,0:0:0:0:
399,218,126027,1,0,0:0:0:0:
447,195,126125,2,0,L|450:80,1,107.999996704102
125,202,126516,2,0,L|128:317,1,107.999996704102,8|0,0:0|0:0,0:0:0:0:
254,6,126906,5,6,0:0:0:0:
