osu file format v14

[General]
AudioFilename: audio.mp3
AudioLeadIn: 0
PreviewTime: 88104
Countdown: 0
SampleSet: Soft
StackLeniency: 0.5
Mode: 0
LetterboxInBreaks: 0
WidescreenStoryboard: 1

[Editor]
Bookmarks: 66716,121903
DistanceSpacing: 0.5
BeatDivisor: 4
GridSize: 16
TimelineZoom: 1

[Metadata]
Title:What Hurts The Most (Nightcore Mix)
TitleUnicode:What Hurts The Most (Nightcore Mix)
Artist:Cascada
ArtistUnicode:Cascada
Creator:n0ah
Version:Pain!
Source:
Tags:speed up version nightcore remix electronic eurodance techno perfect day trance english GladiOol Gladi Yoeri YokesPai Jenny
BeatmapID:2635967
BeatmapSetID:1268341

[Difficulty]
HPDrainRate:6
CircleSize:4
OverallDifficulty:9
ApproachRate:8.7
SliderMultiplier:1.94
SliderTickRate:1

[Events]
//Background and Video events
0,0,"stretched-1920-1080-710279.png",0,0
//Break Periods
2,112839,121148
//Storyboard Layer 0 (Background)
//Storyboard Layer 1 (Fail)
//Storyboard Layer 2 (Pass)
//Storyboard Layer 3 (Foreground)
//Storyboard Layer 4 (Overlay)
//Storyboard Sound Samples

[TimingPoints]
9131,352.071353127567,4,2,0,50,1,0
9131,-133.333333333333,4,2,0,50,0,0
20397,-111.111111111111,4,1,0,50,0,0
31663,-80,4,2,0,60,0,0
76728,-100,4,2,0,75,0,1
87994,-80,4,2,0,50,0,1
110527,-133.333333333333,4,2,0,50,0,0
110615,-133.333333333333,4,2,0,5,0,0
112639,-133.333333333333,4,2,0,50,0,0
133060,-100,4,2,0,50,0,0
158409,-80,4,2,0,75,0,1
173900,-100,4,2,0,50,0,0
180941,-66.6666666666667,4,2,0,75,0,1
191503,-100,4,2,0,75,0,1
192208,-66.6666666666667,4,2,0,75,0,1
203474,-100,4,2,0,50,0,0
203562,-100,4,2,0,5,0,0

[Colours]
Combo1 : 200,101,72
Combo2 : 250,201,73
Combo3 : 170,145,83

[HitObjects]
102,80,9835,5,2,0:0:0:0:
104,101,10011,1,2,0:0:0:0:
106,122,10187,1,2,3:2:0:0:
108,143,10363,1,2,0:0:0:0:
110,164,10539,6,0,B|152:159|152:159|193:192|193:192|255:185,1,145.500005550385,4|2,0:0|0:0,0:0:0:0:
316,217,11067,2,0,L|409:206,2,72.7500027751924,2|2|2,0:0|3:2|0:0,0:0:0:0:
252,264,11595,1,2,0:0:0:0:
398,71,11947,5,4,0:0:0:0:
377,72,12123,1,2,0:0:0:0:
356,73,12299,2,0,B|315:76|315:76|274:44|274:44|223:50,2,145.500005550385,2|2|2,0:0|3:2|0:0,0:0:0:0:
36,63,13355,5,0,0:0:0:0:
111,89,13707,1,0,3:0:0:0:
50,140,14059,1,6,3:2:0:0:
48,161,14235,1,2,0:0:0:0:
46,182,14411,1,2,0:0:0:0:
432,256,14764,5,4,0:0:0:0:
432,256,15116,2,0,L|423:183,1,72.7500027751924,2|2,0:0|0:0,0:0:0:0:
414,111,15468,2,0,B|406:152|406:152|364:183|364:183|357:234,1,145.500005550385,2|2,3:2|0:0,0:0:0:0:
236,314,16172,6,0,B|184:306|184:306|153:264|153:264|112:257,1,145.500005550385,4|2,0:0|0:0,0:0:0:0:
48,208,16700,2,0,L|11:121,2,72.7500027751924,2|2|2,0:0|3:2|0:0,0:0:0:0:
39,287,17228,1,2,0:0:0:0:
244,34,17580,5,4,0:0:0:0:
242,55,17756,1,2,0:0:0:0:
240,76,17932,2,0,B|291:83|291:83|322:125|322:125|363:132,2,145.500005550385,2|2|2,0:0|3:2|0:0,0:0:0:0:
472,361,18988,5,0,0:0:0:0:
472,361,19341,2,0,B|464:309|464:309|422:278|422:278|415:237,2,145.500005550385,0|6|2,3:0|3:2|0:0,0:0:0:0:
210,301,20397,5,4,0:0:0:0:
125,323,20573,1,0,3:0:0:0:
53,273,20749,1,0,3:0:0:0:
302,83,21101,5,0,1:0:0:0:
385,59,21277,1,0,3:0:0:0:
459,111,21453,1,0,3:0:0:0:
210,83,21805,5,2,3:2:0:0:
125,61,21981,1,0,3:0:0:0:
53,111,22157,1,0,3:0:0:0:
302,301,22509,5,0,1:0:0:0:
387,323,22685,1,0,3:0:0:0:
459,273,22861,1,0,3:0:0:0:
350,72,23213,5,2,3:2:0:0:
293,139,23389,1,0,3:0:0:0:
379,154,23565,1,0,3:0:0:0:
136,286,23917,5,0,1:0:0:0:
203,229,24093,1,0,3:0:0:0:
218,315,24269,1,0,3:0:0:0:
88,71,24622,5,2,0:0:0:0:
345,24,24974,1,2,3:2:0:0:
392,280,25326,1,2,0:0:0:0:
136,327,25678,1,2,3:2:0:0:
480,96,26030,5,6,0:0:0:0:
384,45,26206,1,2,3:2:0:0:
303,118,26382,1,0,1:0:0:0:
32,288,26734,5,0,1:0:0:0:
128,339,26910,1,2,3:2:0:0:
209,266,27086,1,0,1:0:0:0:
209,118,27438,5,0,1:0:0:0:
128,45,27614,1,2,3:2:0:0:
32,96,27790,1,0,1:0:0:0:
303,266,28142,5,0,1:0:0:0:
384,339,28318,1,2,3:2:0:0:
480,288,28494,1,0,1:0:0:0:
480,96,28846,5,0,1:0:0:0:
384,45,29022,1,2,3:2:0:0:
303,118,29199,2,0,L|269:307,1,174.599994671631,0|0,1:0|1:0,0:0:0:0:
249,191,29727,1,2,3:2:0:0:
192,336,29903,2,0,L|97:319,1,87.2999973358155,0|0,1:0|1:0,0:0:0:0:
47,176,30255,5,0,3:0:0:0:
54,133,30343,1,0,3:0:0:0:
77,97,30431,1,0,3:0:0:0:
113,73,30519,1,0,3:0:0:0:
156,67,30607,1,0,3:0:0:0:
198,79,30695,1,0,3:0:0:0:
231,108,30783,1,0,3:0:0:0:
248,147,30871,1,0,3:0:0:0:
249,190,30959,5,0,1:0:0:0:
221,155,31047,1,0,1:0:0:0:
212,112,31135,1,0,1:0:0:0:
221,70,31223,1,0,1:0:0:0:
247,36,31311,1,0,1:0:0:0:
286,14,31399,1,0,1:0:0:0:
329,11,31487,1,0,1:0:0:0:
369,26,31575,1,0,1:0:0:0:
400,57,31663,6,0,L|384:194,1,121.25,4|0,1:2|0:0,0:0:0:0:
372,364,32015,1,0,1:0:0:0:
484,172,32191,1,0,3:0:0:0:
372,364,32367,1,0,1:0:0:0:
484,172,32543,1,0,3:0:0:0:
281,291,32719,2,0,B|224:285|224:285|174:322|174:322|95:317,1,181.875,2|0,1:0|0:0,0:0:0:0:
98,335,33071,6,0,P|128:269|120:217,1,121.25,2|0,1:0|0:0,0:0:0:0:
67,58,33423,1,0,1:0:0:0:
13,233,33599,1,2,3:2:0:0:
67,58,33775,2,0,P|131:39|216:109,1,181.875,2|0,1:2|0:0,0:0:0:0:
207,124,34128,2,0,L|332:115,1,121.25,0|0,1:0|0:0,0:0:0:0:
497,14,34480,6,0,P|443:55|423:129,1,121.25,4|0,1:2|0:0,0:0:0:0:
424,262,34832,1,0,1:0:0:0:
368,48,35008,1,0,3:0:0:0:
416,272,35184,1,0,1:0:0:0:
305,78,35360,1,2,3:1:0:0:
408,282,35536,2,0,P|352:235|299:230,1,121.25,2|0,1:0|0:0,0:0:0:0:
98,351,35888,6,0,P|133:295|87:194,1,181.875,2|0,1:0|0:0,0:0:0:0:
79,214,36241,2,0,L|67:93,1,121.25,0|0,1:0|0:0,0:0:0:0:
240,16,36592,2,0,B|229:72|229:72|261:125|261:125|252:186,1,181.875,2|0,1:2|0:0,0:0:0:0:
248,206,36944,1,0,1:0:0:0:
146,87,37120,1,0,3:0:0:0:
240,320,37296,6,0,P|288:283|351:297,1,121.25,4|0,1:2|0:0,0:0:0:0:
468,159,37648,1,0,1:0:0:0:
409,331,37824,1,0,3:0:0:0:
471,140,38000,2,0,B|350:127,1,121.25,2|2,1:0|0:0,0:0:0:0:
206,12,38352,2,0,P|171:68|217:169,1,181.875,2|0,1:0|0:0,0:0:0:0:
229,154,38704,6,0,B|216:274,1,121.25,2|0,1:0|0:0,0:0:0:0:
60,375,39057,2,0,B|65:312|65:312|31:261|31:261|39:204,1,181.875,2|0,1:2|0:0,0:0:0:0:
49,185,39409,1,2,1:2:0:0:
143,382,39585,1,0,3:0:0:0:
246,90,39761,1,2,1:2:0:0:
340,287,39937,1,0,3:0:0:0:
67,317,40113,6,0,P|163:284|242:384,1,242.5,0|0,1:0|1:0,0:0:0:0:
241,381,40641,1,0,3:0:0:0:
449,180,40817,1,2,1:0:0:0:
417,384,40993,1,2,3:1:0:0:
463,167,41169,2,0,B|400:161|400:161|349:195|349:195|292:187,1,181.875,2|0,1:0|0:0,0:0:0:0:
274,196,41521,5,2,1:0:0:0:
197,12,41697,1,2,3:2:0:0:
255,204,41873,1,2,1:2:0:0:
178,20,42049,1,0,3:0:0:0:
101,204,42225,1,8,0:0:0:0:
101,204,42577,1,8,0:0:0:0:
101,204,42929,6,0,L|78:332,1,121.25,4|0,1:2|0:0,0:0:0:0:
253,176,43281,1,0,1:0:0:0:
90,339,43457,1,0,3:0:0:0:
266,193,43633,1,0,1:0:0:0:
103,356,43810,1,0,3:0:0:0:
49,151,43986,2,0,L|26:22,1,121.25,2|0,1:0|0:0,0:0:0:0:
166,150,44338,6,0,P|229:169|314:98,1,181.875,2|0,1:0|0:0,0:0:0:0:
322,81,44690,2,0,L|343:200,1,121.25,0|0,1:0|0:0,0:0:0:0:
441,354,45042,2,0,P|330:310|218:348,1,242.5,2|0,1:2|1:0,0:0:0:0:
218,348,45570,1,0,0:0:0:0:
162,211,45746,6,0,L|183:91,1,121.25,4|0,1:2|0:0,0:0:0:0:
296,225,46098,1,0,1:0:0:0:
223,26,46274,1,0,3:0:0:0:
318,227,46450,1,0,1:0:0:0:
295,12,46626,1,2,3:1:0:0:
458,232,46802,2,0,L|498:118,1,121.25,2|0,1:0|0:0,0:0:0:0:
381,384,47154,6,0,P|313:328|229:352,1,181.875,2|0,1:0|0:0,0:0:0:0:
246,365,47506,2,0,L|125:354,1,121.25,0|0,1:0|0:0,0:0:0:0:
16,205,47858,2,0,P|127:161|239:199,1,242.5,2|0,1:2|1:0,0:0:0:0:
238,198,48386,1,0,3:0:0:0:
430,105,48562,6,0,L|310:85,1,121.25,4|0,1:2|0:0,0:0:0:0:
84,82,48915,1,0,1:0:0:0:
312,62,49091,1,0,3:0:0:0:
88,62,49267,1,0,1:0:0:0:
314,39,49443,1,2,0:0:0:0:
220,246,49619,2,0,L|200:126,1,121.25,2|0,1:0|0:0,0:0:0:0:
343,322,49971,5,2,1:0:0:0:
398,101,50147,1,2,0:0:0:0:
361,333,50323,1,2,1:2:0:0:
419,111,50499,1,0,0:0:0:0:
303,251,50675,2,0,P|324:195|325:135,1,121.25,2|2,1:2|3:2,0:0:0:0:
476,192,51027,2,0,P|455:248|454:308,1,121.25,2|0,1:2|3:0,0:0:0:0:
352,43,51379,5,0,1:0:0:0:
352,43,51731,1,8,0:0:0:0:
352,43,52083,1,0,1:0:0:0:
352,43,52435,1,8,0:0:0:0:
352,43,52787,5,0,3:0:0:0:
386,61,52875,1,0,3:0:0:0:
410,91,52963,1,0,3:0:0:0:
421,129,53051,1,0,3:0:0:0:
415,168,53139,1,0,3:0:0:0:
394,201,53227,1,0,3:0:0:0:
362,223,53315,1,0,3:0:0:0:
323,230,53403,1,0,3:0:0:0:
285,222,53492,5,0,1:0:0:0:
315,197,53580,1,0,1:0:0:0:
353,188,53668,1,0,1:0:0:0:
391,198,53756,1,0,1:0:0:0:
420,224,53844,1,0,1:0:0:0:
435,260,53932,1,0,1:0:0:0:
432,299,54020,1,0,1:0:0:0:
412,332,54108,1,0,1:0:0:0:
379,353,54196,5,6,0:1:0:0:
379,353,54548,1,2,0:0:0:0:
144,290,54900,1,2,0:0:0:0:
144,290,55252,1,2,3:2:0:0:
316,117,55604,5,2,0:1:0:0:
372,43,55780,1,2,0:0:0:0:
457,74,55956,1,2,0:0:0:0:
453,167,56132,1,2,0:0:0:0:
367,193,56308,1,2,0:0:0:0:
367,193,57012,5,2,0:1:0:0:
367,193,57364,1,2,0:0:0:0:
219,0,57716,1,2,0:0:0:0:
219,0,58068,1,2,3:2:0:0:
126,225,58420,5,2,0:1:0:0:
87,306,58597,1,2,0:0:0:0:
156,366,58773,1,2,0:0:0:0:
235,315,58949,1,2,0:0:0:0:
214,225,59125,1,2,0:0:0:0:
214,225,59829,5,2,0:1:0:0:
214,225,60181,1,2,0:0:0:0:
438,317,60533,1,2,0:0:0:0:
438,317,60885,1,2,3:2:0:0:
406,78,61237,5,2,0:1:0:0:
337,19,61414,1,2,0:0:0:0:
262,69,61590,1,2,0:0:0:0:
289,158,61766,1,2,0:0:0:0:
383,162,61942,1,2,0:0:0:0:
383,162,62645,5,2,0:1:0:0:
383,162,62997,1,2,0:0:0:0:
159,70,63349,5,2,0:0:0:0:
76,31,63526,1,2,0:0:0:0:
17,97,63702,1,2,3:2:0:0:
66,176,63878,1,2,0:0:0:0:
158,156,64054,5,2,0:1:0:0:
294,276,64318,1,2,0:1:0:0:
122,333,64582,1,2,0:1:0:0:
190,255,64758,1,2,0:1:0:0:
190,255,65462,5,6,1:0:0:0:
430,285,65814,1,2,1:2:0:0:
190,255,66166,1,2,1:2:0:0:
430,285,66518,1,10,1:2:0:0:
342,54,66870,5,2,0:0:0:0:
243,168,67046,1,2,1:2:0:0:
257,19,67222,1,2,0:0:0:0:
334,149,67398,1,2,1:2:0:0:
195,91,67574,1,2,1:2:0:0:
195,91,68278,5,2,1:0:0:0:
323,298,68630,1,2,1:2:0:0:
195,91,68982,1,2,1:2:0:0:
323,298,69334,1,10,1:2:0:0:
88,321,69687,5,2,1:2:0:0:
50,177,69863,1,2,0:0:0:0:
167,273,70039,1,4,1:0:0:0:
16,267,70215,1,4,1:0:0:0:
142,179,70391,1,2,0:0:0:0:
142,179,71095,5,6,1:0:0:0:
349,51,71447,1,2,1:2:0:0:
142,179,71799,1,2,1:2:0:0:
349,51,72151,1,10,1:2:0:0:
359,290,72503,5,2,1:0:0:0:
488,348,72680,1,2,0:0:0:0:
418,217,72856,1,2,1:2:0:0:
397,366,73032,1,2,0:0:0:0:
500,254,73208,1,2,1:2:0:0:
500,254,73912,5,6,1:0:0:0:
285,369,74264,1,2,1:2:0:0:
292,138,74616,5,4,1:0:0:0:
162,65,74792,1,2,0:0:0:0:
224,200,74968,1,2,1:2:0:0:
253,52,75144,1,2,0:0:0:0:
144,158,75320,5,4,1:0:0:0:
136,176,75408,1,0,3:0:0:0:
129,195,75496,1,0,1:0:0:0:
122,214,75584,1,0,3:0:0:0:
115,233,75672,1,0,1:0:0:0:
108,252,75760,1,0,3:0:0:0:
101,271,75848,1,0,1:0:0:0:
94,290,75936,1,0,3:0:0:0:
87,309,76024,5,0,1:0:0:0:
129,332,76112,1,0,3:0:0:0:
177,332,76200,1,0,1:0:0:0:
220,309,76288,1,0,1:0:0:0:
246,269,76376,1,0,1:0:0:0:
251,222,76464,1,0,1:0:0:0:
232,177,76552,1,0,1:0:0:0:
195,147,76640,1,0,1:0:0:0:
148,138,76728,6,0,L|42:130,1,97,6|0,1:0|0:0,0:0:0:0:
351,187,77080,2,0,L|457:179,1,97,8|0,0:0|0:0,0:0:0:0:
138,224,77432,2,0,L|32:216,1,97,0|0,1:0|0:0,0:0:0:0:
341,273,77784,2,0,L|447:265,1,97,8|0,0:0|0:0,0:0:0:0:
288,81,78136,5,2,1:0:0:0:
231,339,78313,1,2,3:2:0:0:
298,75,78489,1,8,0:0:0:0:
241,333,78665,1,2,3:2:0:0:
345,145,78841,2,0,L|471:132,1,97,0|0,1:0|0:0,0:0:0:0:
171,282,79193,2,0,L|45:269,1,97,8|0,0:0|0:0,0:0:0:0:
344,273,79545,6,0,P|400:287|459:335,1,97,2|0,1:0|0:0,0:0:0:0:
168,111,79897,2,0,P|111:96|52:48,1,97,8|0,0:0|0:0,0:0:0:0:
175,280,80249,2,0,P|160:336|112:395,1,97,0|0,1:0|0:0,0:0:0:0:
337,104,80601,2,0,P|351:47|399:-11,1,97,8|0,0:0|0:0,0:0:0:0:
163,113,80953,5,2,1:0:0:0:
370,209,81129,1,2,3:2:0:0:
176,98,81305,1,8,0:0:0:0:
383,190,81481,1,2,3:2:0:0:
200,324,81657,1,0,1:0:0:0:
292,258,81833,1,2,3:2:0:0:
292,258,81921,1,2,3:1:0:0:
188,212,82097,1,2,3:2:0:0:
188,212,82185,1,2,3:1:0:0:
411,41,82361,6,0,L|390:156,1,97,2|0,1:0|0:0,0:0:0:0:
353,341,82713,2,0,L|369:245,1,97,8|0,0:0|0:0,0:0:0:0:
315,9,83065,2,0,L|294:124,1,97,0|0,1:0|0:0,0:0:0:0:
257,309,83417,2,0,L|273:213,1,97,8|0,0:0|0:0,0:0:0:0:
167,50,83770,5,2,1:0:0:0:
4,156,83946,1,2,3:2:0:0:
110,319,84122,1,8,0:0:0:0:
273,213,84298,1,2,3:2:0:0:
73,46,84474,2,0,L|94:149,1,97,0|0,1:0|0:0,0:0:0:0:
231,326,84826,1,8,0:0:0:0:
101,165,85002,1,2,3:2:0:0:
345,242,85178,6,0,L|462:273,1,97,2|0,1:0|0:0,0:0:0:0:
167,142,85530,2,0,L|51:110,1,97,8|0,0:0|0:0,0:0:0:0:
345,42,85882,1,0,1:0:0:0:
208,273,86058,1,2,3:2:0:0:
392,226,86234,1,8,0:0:0:0:
161,88,86410,1,2,3:2:0:0:
373,95,86586,5,2,1:0:0:0:
284,353,86850,1,2,0:1:0:0:
279,207,87114,1,2,0:1:0:0:
379,241,87290,1,2,1:0:0:0:
379,241,87642,1,8,0:0:0:0:
379,241,87994,6,0,L|519:216,1,121.25,4|0,1:0|0:0,0:0:0:0:
176,336,88347,2,0,L|35:360,1,121.25,8|0,0:0|0:0,0:0:0:0:
363,336,88699,2,0,L|503:360,1,121.25,0|0,1:0|0:0,0:0:0:0:
160,241,89051,2,0,B|106:222|106:222|76:168|76:168|18:145,1,181.875,10|0,0:1|0:0,0:0:0:0:
3,130,89403,6,0,P|65:94|117:97,1,121.25,2|0,1:0|0:0,0:0:0:0:
293,207,89755,1,8,0:0:0:0:
183,55,89931,1,2,3:1:0:0:
188,249,90107,2,0,P|245:316|335:315,1,181.875,2|0,1:0|0:0,0:0:0:0:
311,308,90459,2,0,L|434:327,1,121.25,8|0,0:0|0:0,0:0:0:0:
140,160,90811,6,0,L|108:43,1,121.25,0|0,1:0|0:0,0:0:0:0:
373,160,91163,2,0,L|404:43,1,121.25,8|0,0:0|0:0,0:0:0:0:
176,256,91515,2,0,L|59:287,1,121.25,0|2,1:0|0:0,0:0:0:0:
336,256,91867,2,0,L|454:287,1,121.25,10|0,0:1|0:0,0:0:0:0:
238,76,92219,6,0,P|290:115|394:77,1,181.875,2|0,1:0|0:0,0:0:0:0:
406,65,92571,1,8,0:0:0:0:
438,273,92747,1,2,3:1:0:0:
234,183,92923,2,0,B|178:172|178:172|125:204|125:204|64:195,1,181.875,2|2,1:0|0:0,0:0:0:0:
44,191,93275,1,8,0:0:0:0:
171,328,93451,1,2,3:2:0:0:
328,135,93628,6,0,B|347:73|347:73|382:19,1,121.25,0|0,1:0|0:0,0:0:0:0:
314,237,93980,2,0,B|294:298|294:298|264:345,1,121.25,8|0,0:0|0:0,0:0:0:0:
374,194,94332,2,0,B|436:208|436:208|493:205,1,121.25,2|2,1:2|0:2,0:0:0:0:
269,179,94684,2,0,B|213:166|213:166|159:196|159:196|98:185,1,181.875,10|0,0:0|0:0,0:0:0:0:
85,169,95036,5,2,1:2:0:0:
294,47,95212,1,2,3:2:0:0:
218,271,95388,2,0,B|273:283|273:283|327:253|327:253|388:264,1,181.875,10|0,0:0|0:0,0:0:0:0:
404,279,95740,2,0,P|429:208|401:133,1,121.25,0|0,1:0|0:0,0:0:0:0:
336,352,96092,1,8,0:0:0:0:
490,115,96268,1,0,3:0:0:0:
208,64,96444,6,0,P|143:59|90:76,1,121.25,0|0,1:0|0:0,0:0:0:0:
304,64,96796,2,0,P|368:59|421:76,1,121.25,8|0,0:0|0:0,0:0:0:0:
286,302,97148,1,2,1:0:0:0:
438,93,97324,1,2,3:1:0:0:
471,261,97500,1,10,0:1:0:0:
249,124,97676,1,0,3:0:0:0:
372,321,97853,5,2,1:0:0:0:
254,45,98117,1,2,0:1:0:0:
72,285,98381,1,2,0:1:0:0:
233,217,98557,1,2,1:0:0:0:
233,217,98909,1,8,0:0:0:0:
304,96,99261,6,0,L|325:215,1,121.25,4|0,1:0|0:0,0:0:0:0:
208,96,99613,2,0,L|187:215,1,121.25,8|0,0:0|0:0,0:0:0:0:
398,74,99965,2,0,P|425:150|478:187,1,121.25,0|0,1:0|0:0,0:0:0:0:
114,74,100317,2,0,P|87:150|34:187,1,121.25,10|2,0:1|0:0,0:0:0:0:
229,301,100669,6,0,P|311:330|389:284,1,181.875,2|0,1:0|0:0,0:0:0:0:
402,271,101021,1,8,0:0:0:0:
181,381,101197,1,2,3:1:0:0:
244,136,101373,2,0,P|323:98|403:135,1,181.875,2|0,1:0|0:0,0:0:0:0:
392,151,101725,2,0,L|512:143,1,121.25,8|0,0:0|0:0,0:0:0:0:
197,251,102077,6,0,L|54:238,1,121.25,0|0,1:0|0:0,0:0:0:0:
315,251,102429,2,0,L|457:238,1,121.25,8|0,0:0|0:0,0:0:0:0:
164,144,102781,2,0,P|105:105|13:121,1,121.25,0|0,1:0|0:0,0:0:0:0:
348,144,103134,2,0,P|407:105|499:121,1,121.25,10|0,0:1|0:0,0:0:0:0:
119,232,103486,5,2,1:0:0:0:
339,270,103662,1,0,3:0:0:0:
262,60,103838,1,8,0:0:0:0:
217,316,104014,1,2,3:1:0:0:
250,129,104190,1,2,1:0:0:0:
285,225,104366,1,2,3:2:0:0:
285,225,104454,1,2,3:1:0:0:
184,207,104630,1,2,3:2:0:0:
184,207,104718,1,2,3:1:0:0:
307,41,104894,6,0,P|324:95|375:158,1,121.25,0|0,1:0|0:0,0:0:0:0:
205,41,105246,2,0,P|187:95|137:158,1,121.25,8|0,0:0|0:0,0:0:0:0:
307,343,105598,2,0,P|324:288|375:225,1,121.25,0|0,1:0|0:0,0:0:0:0:
205,343,105950,2,0,P|187:288|137:225,1,121.25,10|0,0:0|0:0,0:0:0:0:
366,192,106302,5,2,1:2:0:0:
147,120,106478,1,0,0:0:0:0:
283,307,106654,1,10,0:0:0:0:
283,76,106830,1,2,0:0:0:0:
147,263,107006,1,2,1:2:0:0:
147,263,107358,1,10,0:0:0:0:
65,96,107534,1,0,3:0:0:0:
247,112,107710,5,2,1:2:0:0:
247,112,108063,1,8,0:0:0:0:
247,112,108415,1,0,1:0:0:0:
367,24,108591,1,0,0:0:0:0:
320,164,108767,1,10,0:0:0:0:
275,23,108943,1,2,0:0:0:0:
394,111,109119,5,0,3:0:0:0:
395,134,109207,1,0,3:0:0:0:
394,156,109295,1,0,3:0:0:0:
391,178,109383,1,0,3:0:0:0:
384,200,109471,1,0,3:0:0:0:
374,221,109559,1,0,3:0:0:0:
362,240,109647,1,0,3:0:0:0:
348,258,109735,1,0,3:0:0:0:
332,274,109823,5,0,1:0:0:0:
367,247,109911,1,0,1:0:0:0:
413,248,109999,1,0,1:0:0:0:
447,277,110087,1,0,1:0:0:0:
458,319,110175,1,0,1:0:0:0:
440,360,110263,1,0,1:0:0:0:
400,381,110351,1,0,1:0:0:0:
357,375,110439,1,0,1:0:0:0:
325,342,110527,1,4,1:0:0:0:
256,192,110615,12,0,112639,0:0:0:0:
157,95,121793,5,4,1:2:0:0:
362,59,122145,1,8,0:0:0:0:
294,199,122497,5,0,1:0:0:0:
239,294,122673,1,0,3:0:0:0:
334,348,122849,1,8,0:0:0:0:
389,256,123026,1,0,3:0:0:0:
180,93,123202,6,0,L|105:85,1,72.7500027751924,0|0,1:0|0:0,0:0:0:0:
331,93,123554,2,0,L|404:86,1,72.7500027751924,8|0,0:0|0:0,0:0:0:0:
238,188,123906,5,0,1:0:0:0:
143,243,124082,1,0,3:0:0:0:
89,148,124258,1,8,0:0:0:0:
181,93,124435,1,0,3:0:0:0:
412,256,124610,5,0,1:0:0:0:
220,178,124962,1,8,0:0:0:0:
364,101,125314,5,0,0:0:0:0:
457,153,125491,1,0,3:0:0:0:
512,58,125667,1,8,0:0:0:0:
417,4,125843,1,0,3:0:0:0:
381,231,126018,6,0,L|369:310,1,72.7500027751924,0|0,1:0|0:0,0:0:0:0:
253,149,126370,2,0,L|263:70,1,72.7500027751924,8|0,0:0|0:0,0:0:0:0:
140,216,126722,5,0,1:0:0:0:
97,364,126899,1,0,3:0:0:0:
192,309,127075,1,8,0:0:0:0:
43,269,127251,1,0,3:0:0:0:
43,269,127338,1,0,3:0:0:0:
43,269,127426,5,0,1:0:0:0:
101,67,127779,1,8,0:0:0:0:
266,188,128131,5,0,1:0:0:0:
360,245,128308,1,0,3:0:0:0:
416,151,128484,1,8,0:0:0:0:
321,96,128660,1,0,3:0:0:0:
93,301,128835,6,0,L|178:334,1,72.7500027751924,0|0,1:0|0:0,0:0:0:0:
411,334,129187,2,0,L|321:300,1,72.7500027751924,8|0,0:0|0:0,0:0:0:0:
154,144,129539,5,0,0:0:0:0:
302,187,129716,1,0,3:0:0:0:
247,92,129891,1,8,0:0:0:0:
207,241,130068,1,0,3:0:0:0:
397,93,130243,5,0,1:0:0:0:
489,281,130595,1,8,0:0:0:0:
277,251,130947,5,0,1:0:0:0:
166,238,131124,1,0,3:0:0:0:
155,346,131300,1,8,0:0:0:0:
265,356,131476,1,0,3:0:0:0:
318,156,131651,5,0,1:0:0:0:
310,139,131739,1,0,3:0:0:0:
303,122,131827,1,0,3:0:0:0:
295,106,131915,1,0,3:0:0:0:
288,89,132003,1,0,1:0:0:0:
280,73,132091,1,0,3:0:0:0:
273,56,132179,1,0,3:0:0:0:
265,40,132267,1,0,3:0:0:0:
258,23,132355,5,0,1:0:0:0:
302,40,132443,1,0,1:0:0:0:
329,79,132531,1,0,1:0:0:0:
327,127,132619,1,0,1:0:0:0:
298,165,132707,1,0,1:0:0:0:
253,179,132795,1,0,1:0:0:0:
207,164,132883,1,0,1:0:0:0:
180,125,132971,1,0,1:0:0:0:
180,77,133060,6,0,L|83:60,1,97,4|2,1:2|0:0,0:0:0:0:
258,23,133412,1,2,1:2:0:0:
72,82,133588,1,2,0:0:0:0:
224,144,133764,2,0,B|264:151|264:151|308:122|308:122|360:132,1,145.5,2|0,1:2|0:0,0:0:0:0:
383,140,134116,1,2,1:2:0:0:
243,59,134292,1,2,0:0:0:0:
265,226,134468,6,0,L|282:321,1,97,2|0,1:2|0:0,0:0:0:0:
210,168,134820,1,2,1:2:0:0:
337,379,134996,1,2,0:0:0:0:
157,277,135172,2,0,B|119:259|119:259|69:275|69:275|22:252,1,145.5,2|0,1:2|0:0,0:0:0:0:
2,241,135524,1,2,1:2:0:0:
115,364,135700,1,2,0:0:0:0:
148,171,135876,6,0,L|166:67,1,97,2|2,1:2|0:0,0:0:0:0:
358,187,136228,2,0,B|293:200|293:200|251:251|251:251|191:261,2,194,2|0|0,1:2|1:0|1:0,0:0:0:0:
82,73,137284,5,0,1:0:0:0:
82,73,137461,1,2,0:0:0:0:
140,232,137637,2,0,L|129:116,1,97,2|0,1:2|0:0,0:0:0:0:
302,3,137989,5,2,1:2:0:0:
171,66,138165,1,2,0:0:0:0:
293,148,138341,2,0,L|390:140,1,97,2|0,1:2|0:0,0:0:0:0:
361,283,138693,6,0,P|311:272|259:284,1,97,0|2,1:0|0:0,0:0:0:0:
113,355,139045,1,2,1:2:0:0:
244,292,139221,1,2,0:0:0:0:
122,210,139397,2,0,L|25:218,1,97,2|0,1:2|0:0,0:0:0:0:
169,128,139749,2,0,P|230:103|320:166,1,145.5,2|0,1:2|0:0,0:0:0:0:
314,153,140101,6,0,L|434:142,1,97,2|0,1:2|0:0,0:0:0:0:
493,268,140453,1,2,1:2:0:0:
424,138,140629,1,2,0:0:0:0:
507,262,140805,1,2,1:2:0:0:
438,132,140981,1,2,0:0:0:0:
413,275,141157,2,0,L|397:370,1,97,2|0,1:2|2:0,0:0:0:0:
262,315,141509,5,2,1:2:0:0:
170,188,141685,1,2,0:0:0:0:
319,237,141861,1,2,1:2:0:0:
170,285,142037,1,2,0:0:0:0:
262,158,142213,2,0,B|268:115|268:115|310:84|310:84|317:32,1,145.5,2|0,1:2|0:0,0:0:0:0:
319,12,142566,1,2,1:2:0:0:
144,122,142918,5,0,1:0:0:0:
144,122,143270,2,0,L|122:241,1,97,2|0,3:2|0:0,0:0:0:0:
223,155,143622,2,0,L|201:274,1,97,2|0,3:2|0:0,0:0:0:0:
302,188,143974,1,2,3:2:0:0:
143,52,144326,5,6,1:2:0:0:
209,26,144502,1,2,3:2:0:0:
198,97,144678,1,2,0:0:0:0:
396,276,145030,5,2,0:0:0:0:
435,216,145206,1,2,3:2:0:0:
365,213,145382,1,2,0:0:0:0:
92,283,145734,5,6,1:2:0:0:
90,213,145910,1,2,3:2:0:0:
152,244,146086,1,2,0:0:0:0:
356,105,146438,5,2,0:0:0:0:
312,52,146614,1,2,3:2:0:0:
285,116,146790,1,2,0:0:0:0:
245,379,147142,5,6,1:2:0:0:
176,360,147318,1,2,3:2:0:0:
227,313,147494,1,2,0:0:0:0:
169,65,148023,5,2,3:2:0:0:
189,135,148199,1,2,0:0:0:0:
209,205,148375,1,2,3:2:0:0:
307,296,148551,6,0,P|342:207|311:118,1,194,4|0,0:0|3:0,0:0:0:0:
91,44,149255,2,0,P|56:133|87:222,1,194,4|0,0:0|0:0,0:0:0:0:
424,104,149959,5,6,1:2:0:0:
350,43,150135,1,2,3:2:0:0:
333,138,150311,1,2,0:0:0:0:
161,340,150663,5,2,0:0:0:0:
87,279,150839,1,2,3:2:0:0:
178,245,151015,1,2,0:0:0:0:
404,286,151367,5,6,1:2:0:0:
343,360,151543,1,2,3:2:0:0:
309,269,151719,1,2,0:0:0:0:
161,43,152071,5,2,0:0:0:0:
87,104,152247,1,2,3:2:0:0:
178,138,152423,1,2,0:0:0:0:
477,131,152776,5,0,1:2:0:0:
351,59,152952,1,0,0:0:0:0:
352,204,153128,2,0,B|291:231|291:231|227:213|227:213|172:240,1,194,2|0,0:0|0:0,0:0:0:0:
270,348,153656,1,2,0:0:0:0:
413,319,153832,2,0,P|452:286|475:241,1,97,2|0,0:0|3:0,0:0:0:0:
317,55,154184,6,0,L|298:160,1,97,6|0,0:0|0:0,0:0:0:0:
195,329,154536,2,0,L|213:223,1,97,2|0,0:0|0:0,0:0:0:0:
119,131,154888,2,0,L|224:149,1,97,6|0,0:0|0:0,0:0:0:0:
393,253,155240,2,0,L|287:234,1,97,2|0,0:0|0:0,0:0:0:0:
297,236,155592,5,0,1:0:0:0:
149,0,158409,6,0,L|126:126,1,121.25,4|0,1:2|0:0,0:0:0:0:
68,342,158761,1,8,1:2:0:0:
107,112,158937,1,0,3:0:0:0:
48,333,159113,1,0,1:0:0:0:
87,103,159289,1,0,3:0:0:0:
126,333,159465,2,0,P|181:356|252:351,1,121.25,10|0,1:0|0:0,0:0:0:0:
461,279,159817,6,0,P|420:226|309:235,1,181.875,2|0,1:0|0:0,0:0:0:0:
324,249,160169,2,0,L|206:218,1,121.25,8|0,1:2|0:0,0:0:0:0:
63,23,160521,2,0,B|52:79|52:79|84:132|84:132|75:193,1,181.875,2|0,1:2|0:0,0:0:0:0:
72,215,160873,1,8,1:2:0:0:
156,54,161049,1,0,3:0:0:0:
185,247,161225,6,0,P|192:301|168:374,1,121.25,4|0,1:2|0:0,0:0:0:0:
311,290,161577,1,8,1:2:0:0:
81,330,161753,1,0,3:0:0:0:
331,293,161929,2,0,B|452:317,1,121.25,2|2,1:0|0:0,0:0:0:0:
287,209,162281,2,0,P|231:174|130:220,1,181.875,10|0,1:0|0:0,0:0:0:0:
145,232,162633,6,0,B|25:219,1,121.25,2|0,1:0|0:0,0:0:0:0:
157,93,162986,2,0,B|216:71|216:71|274:91|274:91|327:69,1,181.875,10|0,1:2|0:0,0:0:0:0:
349,64,163338,1,2,1:2:0:0:
295,315,163514,1,0,3:0:0:0:
196,163,163690,1,10,1:2:0:0:
448,216,163866,1,0,3:0:0:0:
189,274,164042,6,0,P|59:292|27:413,1,242.5,0|8,1:0|1:2,0:0:0:0:
56,194,164570,1,0,3:0:0:0:
137,378,164746,2,0,L|265:366,1,121.25,2|2,1:0|3:2,0:0:0:0:
435,251,165098,2,0,L|307:263,1,121.25,10|0,1:0|0:0,0:0:0:0:
165,77,165450,5,2,1:0:0:0:
275,269,165626,1,2,3:2:0:0:
97,141,165802,1,10,1:2:0:0:
275,269,165978,1,0,3:0:0:0:
60,225,166154,1,8,0:0:0:0:
60,225,166506,1,8,0:0:0:0:
60,225,166858,6,0,P|177:207|278:269,1,242.5,4|8,1:2|1:2,0:0:0:0:
278,269,167387,1,0,3:0:0:0:
411,76,167563,1,0,1:0:0:0:
290,287,167739,1,0,3:0:0:0:
468,135,167915,1,10,1:0:0:0:
303,314,168091,1,2,3:1:0:0:
171,188,168267,6,0,P|84:172|17:229,1,181.875,2|0,1:0|0:0,0:0:0:0:
14,251,168619,2,0,L|30:128,1,121.25,8|0,1:2|0:0,0:0:0:0:
217,33,168971,2,0,P|301:9|374:60,1,181.875,2|0,1:2|0:0,0:0:0:0:
385,77,169323,1,8,1:2:0:0:
342,254,169499,1,0,3:0:0:0:
504,170,169675,6,0,L|483:290,1,121.25,4|0,1:2|0:0,0:0:0:0:
246,207,170027,1,8,1:2:0:0:
479,316,170203,1,0,3:0:0:0:
418,145,170379,1,0,1:0:0:0:
309,379,170555,1,0,3:0:0:0:
149,314,170731,2,0,P|78:289|3:317,1,121.25,10|0,1:0|0:0,0:0:0:0:
85,71,171083,6,0,B|140:59|140:59|194:89|194:89|255:78,1,181.875,2|0,1:0|0:0,0:0:0:0:
245,61,171435,2,0,P|299:37|359:44,1,121.25,10|0,1:2|0:0,0:0:0:0:
343,248,171787,1,2,1:2:0:0:
359,44,171964,1,0,3:0:0:0:
448,229,172140,1,10,1:2:0:0:
359,44,172316,1,0,3:0:0:0:
75,180,172492,6,0,L|195:163,1,121.25,4|0,1:2|0:0,0:0:0:0:
391,82,172844,1,8,1:2:0:0:
344,289,173020,1,0,3:0:0:0:
137,242,173196,1,0,1:0:0:0:
184,35,173372,1,0,3:0:0:0:
226,243,173548,2,0,L|250:376,1,121.25,10|0,1:0|0:0,0:0:0:0:
343,112,173900,5,2,1:0:0:0:
408,295,174076,1,2,3:2:0:0:
277,144,174252,1,10,0:0:0:0:
474,263,174428,1,2,3:2:0:0:
278,239,174604,2,0,P|219:234|154:265,1,97,2|0,1:2|0:0,0:0:0:0:
0,191,174956,2,0,P|59:196|124:165,1,97,10|0,0:0|0:0,0:0:0:0:
145,49,175308,5,0,1:0:0:0:
145,49,175660,1,8,0:0:0:0:
145,49,176012,1,0,1:0:0:0:
145,49,176364,1,8,0:0:0:0:
145,49,176716,5,0,3:0:0:0:
165,60,176804,1,0,3:0:0:0:
184,75,176892,1,0,3:0:0:0:
197,95,176980,1,0,3:0:0:0:
207,118,177068,1,0,3:0:0:0:
210,142,177156,1,0,3:0:0:0:
207,165,177244,1,0,3:0:0:0:
199,188,177332,1,0,3:0:0:0:
185,208,177421,5,0,1:0:0:0:
192,160,177509,1,0,1:0:0:0:
227,127,177597,1,0,1:0:0:0:
274,121,177685,1,0,1:0:0:0:
316,145,177773,1,0,1:0:0:0:
335,188,177861,1,0,1:0:0:0:
325,235,177949,1,0,1:0:0:0:
289,266,178037,1,0,1:0:0:0:
242,270,178125,1,4,1:0:0:0:
256,192,178213,12,0,180237,0:0:0:0:
74,68,180413,5,2,0:3:0:0:
74,68,180589,1,2,0:3:0:0:
74,68,180765,1,2,0:3:0:0:
369,193,180941,6,0,P|410:126|416:52,1,145.500005550385,6|0,1:0|0:0,0:0:0:0:
194,162,181293,2,0,P|177:85|196:14,1,145.500005550385,8|0,0:0|0:0,0:0:0:0:
342,327,181645,2,0,P|411:289|453:229,1,145.500005550385,0|0,1:0|0:0,0:0:0:0:
167,295,181997,2,0,P|114:236|95:165,1,145.500005550385,8|0,0:0|0:0,0:0:0:0:
304,44,182350,5,2,1:0:0:0:
246,344,182526,1,2,3:2:0:0:
304,44,182702,1,8,0:0:0:0:
246,344,182878,1,2,3:2:0:0:
184,126,183054,2,0,P|116:84|18:126,1,145.500005550385,0|0,1:0|0:0,0:0:0:0:
327,257,183406,2,0,P|395:299|493:257,1,145.500005550385,8|0,0:0|0:0,0:0:0:0:
169,243,183758,6,0,L|25:268,1,145.500005550385,6|0,1:0|0:0,0:0:0:0:
343,141,184110,2,0,L|486:115,1,145.500005550385,8|0,0:0|0:0,0:0:0:0:
169,141,184462,2,0,L|25:115,1,145.500005550385,0|0,1:0|0:0,0:0:0:0:
343,243,184814,2,0,L|486:268,1,145.500005550385,8|0,0:0|0:0,0:0:0:0:
166,310,185166,5,2,1:0:0:0:
214,60,185342,1,2,3:2:0:0:
464,108,185518,1,8,0:0:0:0:
415,358,185694,1,2,3:2:0:0:
318,185,185870,1,0,1:0:0:0:
425,232,186046,1,0,0:0:0:0:
425,232,186134,1,2,3:1:0:0:
329,299,186310,1,0,0:0:0:0:
329,299,186398,1,2,3:1:0:0:
214,110,186574,6,0,L|50:81,1,145.500005550385,2|0,1:0|0:0,0:0:0:0:
318,185,186927,2,0,L|481:213,1,145.500005550385,8|0,0:0|0:0,0:0:0:0:
194,199,187279,2,0,L|50:173,1,145.500005550385,0|0,1:0|0:0,0:0:0:0:
298,274,187632,2,0,L|441:299,1,145.500005550385,8|0,0:0|0:0,0:0:0:0:
186,384,187983,5,2,1:0:0:0:
289,107,188159,1,2,3:2:0:0:
162,376,188335,1,8,0:0:0:0:
354,152,188511,1,2,3:2:0:0:
92,288,188687,2,0,L|58:94,1,145.500005550385,0|0,1:0|0:0,0:0:0:0:
206,274,189039,1,8,0:0:0:0:
47,53,189215,1,2,3:2:0:0:
315,122,189391,6,0,P|256:108|157:140,1,145.500005550385,2|0,1:0|0:0,0:0:0:0:
206,274,189743,2,0,P|265:288|364:256,1,145.500005550385,8|0,0:0|0:0,0:0:0:0:
505,151,190095,1,2,1:0:0:0:
326,360,190271,1,2,3:1:0:0:
421,101,190447,1,10,0:1:0:0:
326,360,190623,1,0,3:0:0:0:
178,45,190799,5,2,1:0:0:0:
273,99,190975,1,2,3:2:0:0:
273,99,191063,1,2,3:1:0:0:
174,150,191239,1,2,3:2:0:0:
174,150,191327,1,2,3:1:0:0:
348,55,191503,2,0,L|366:169,1,97,8|0,0:0|0:0,0:0:0:0:
453,326,191856,2,0,L|434:212,1,97,8|0,0:0|0:0,0:0:0:0:
214,43,192208,6,0,P|151:75|70:67,1,145.500005550385,6|0,1:0|0:0,0:0:0:0:
298,43,192560,2,0,P|361:75|442:67,1,145.500005550385,8|0,0:0|0:0,0:0:0:0:
187,193,192912,2,0,L|43:217,1,145.500005550385,0|0,1:0|0:0,0:0:0:0:
325,193,193264,2,0,L|469:217,1,145.500005550385,8|0,0:0|0:0,0:0:0:0:
213,324,193616,5,2,1:0:0:0:
318,34,193792,1,2,3:2:0:0:
120,125,193968,1,8,0:0:0:0:
410,231,194144,1,2,3:2:0:0:
167,249,194320,2,0,L|5:303,1,145.500005550385,0|0,1:0|0:0,0:0:0:0:
345,135,194672,2,0,L|507:81,1,145.500005550385,8|0,0:0|0:0,0:0:0:0:
175,159,195024,6,0,L|141:-8,1,145.500005550385,6|0,1:0|0:0,0:0:0:0:
337,225,195376,2,0,L|370:392,1,145.500005550385,8|0,0:0|0:0,0:0:0:0:
289,111,195728,2,0,L|456:77,1,145.500005550385,0|0,1:0|0:0,0:0:0:0:
223,273,196080,2,0,L|55:306,1,145.500005550385,8|0,0:0|0:0,0:0:0:0:
418,273,196432,5,2,1:0:0:0:
328,15,196608,1,2,3:2:0:0:
418,273,196785,1,8,0:0:0:0:
437,1,196961,1,2,3:2:0:0:
192,121,197137,1,0,1:0:0:0:
305,198,197313,1,2,3:2:0:0:
305,198,197401,1,2,3:1:0:0:
314,61,197577,1,2,3:2:0:0:
314,61,197665,1,2,3:1:0:0:
74,341,197841,6,0,L|100:198,1,145.500005550385,6|0,1:0|0:0,0:0:0:0:
204,0,198193,2,0,L|179:143,1,145.500005550385,8|0,0:0|0:0,0:0:0:0:
210,366,198545,2,0,L|236:223,1,145.500005550385,0|0,1:0|0:0,0:0:0:0:
340,24,198897,2,0,L|315:168,1,145.500005550385,8|0,0:0|0:0,0:0:0:0:
340,319,199249,5,2,1:0:0:0:
167,80,199425,1,2,3:2:0:0:
446,171,199601,1,8,0:0:0:0:
167,262,199777,1,2,3:2:0:0:
340,24,199953,1,0,1:0:0:0:
340,24,200305,1,8,0:0:0:0:
311,97,200481,1,2,3:2:0:0:
234,294,200657,6,0,P|236:223|295:144,1,145.500005550385,0|0,1:0|0:0,0:0:0:0:
480,92,201009,2,0,P|478:163|419:242,1,145.500005550385,8|0,0:0|0:0,0:0:0:0:
150,218,201361,5,0,1:0:0:0:
76,96,201537,1,0,3:0:0:0:
206,151,201714,1,8,0:0:0:0:
68,183,201890,1,2,3:2:0:0:
161,76,202066,5,0,3:0:0:0:
175,99,202154,1,0,3:0:0:0:
186,123,202242,1,0,3:0:0:0:
195,149,202330,1,0,3:0:0:0:
199,176,202418,1,0,3:0:0:0:
201,203,202506,1,0,3:0:0:0:
199,231,202594,1,0,3:0:0:0:
193,257,202682,1,0,3:0:0:0:
183,283,202770,5,0,1:0:0:0:
156,247,202858,1,0,1:0:0:0:
152,202,202946,1,0,1:0:0:0:
173,162,203034,1,0,1:0:0:0:
211,140,203122,1,0,1:0:0:0:
256,141,203210,1,0,1:0:0:0:
294,165,203298,1,0,1:0:0:0:
312,206,203386,1,0,1:0:0:0:
307,251,203474,1,4,1:0:0:0:
256,192,203562,12,0,205586,0:0:0:0:
