osu file format v14

[General]
AudioFilename: audio.mp3
AudioLeadIn: 0
PreviewTime: 88104
Countdown: 0
SampleSet: None
StackLeniency: 0.5
Mode: 0
LetterboxInBreaks: 0
WidescreenStoryboard: 1

[Editor]
DistanceSpacing: 0.32
BeatDivisor: 2
GridSize: 16
TimelineZoom: 1

[Metadata]
Title:What Hurts The Most (Nightcore Mix)
TitleUnicode:What Hurts The Most (Nightcore Mix)
Artist:Cascada
ArtistUnicode:Cascada
Creator:n0ah
Version:Insane
Source:
Tags:speed up version nightcore remix electronic eurodance techno perfect day trance english GladiOol Gladi Yoeri YokesPai Jenny
BeatmapID:2635966
BeatmapSetID:1268341

[Difficulty]
HPDrainRate:5
CircleSize:3.7
OverallDifficulty:7.5
ApproachRate:8.3
SliderMultiplier:1.94
SliderTickRate:1

[Events]
//Background and Video events
0,0,"stretched-1920-1080-710279.png",0,0
//Break Periods
2,112839,121089
//Storyboard Layer 0 (Background)
//Storyboard Layer 1 (Fail)
//Storyboard Layer 2 (Pass)
//Storyboard Layer 3 (Foreground)
//Storyboard Layer 4 (Overlay)
//Storyboard Sound Samples

[TimingPoints]
9131,352.071353127567,4,2,0,50,1,0
9131,-133.333333333333,4,2,0,50,0,0
20397,-111.111111111111,4,2,0,50,0,0
31663,-100,4,2,0,60,0,0
76728,-100,4,2,0,75,0,1
87994,-100,4,2,0,75,0,1
110527,-133.333333333333,4,2,0,50,0,0
110615,-133.333333333333,4,2,0,5,0,0
112639,-133.333333333333,4,2,0,50,0,0
112647,-133.333333333333,4,2,0,50,0,0
158409,-100,4,2,0,75,0,1
173900,-100,4,2,0,50,0,0
180941,-100,4,2,0,75,0,1
191503,-100,4,2,0,75,0,1
192208,-100,4,2,0,75,0,1
203474,-100,4,2,0,50,0,0
203562,-100,4,2,0,5,0,0

[Colours]
Combo1 : 200,101,72
Combo2 : 250,201,73
Combo3 : 170,145,83

[HitObjects]
354,115,9835,5,2,0:0:0:0:
349,138,10011,1,2,0:0:0:0:
344,161,10187,1,2,3:2:0:0:
340,185,10363,1,2,0:0:0:0:
336,208,10539,6,0,P|403:186|479:215,1,145.500005550385,4|2,0:0|0:0,0:0:0:0:
500,276,11067,2,0,L|513:354,2,72.7500027751924,2|2|2,0:0|3:2|0:0,0:0:0:0:
427,267,11595,1,2,0:0:0:0:
124,150,11947,5,4,0:0:0:0:
129,172,12123,1,2,0:0:0:0:
135,194,12299,2,0,B|142:234|142:234|183:266|183:266|190:316,2,145.500005550385,2|2|2,0:0|3:2|0:0,0:0:0:0:
432,80,13355,5,0,0:0:0:0:
352,85,13707,1,0,3:0:0:0:
398,150,14059,1,6,3:2:0:0:
395,171,14235,1,2,0:0:0:0:
391,192,14411,1,2,0:0:0:0:
104,80,14764,5,4,0:0:0:0:
104,80,15116,2,0,L|87:176,1,72.7500027751924,2|2,0:0|0:0,0:0:0:0:
88,184,15468,2,0,P|136:160|216:216,1,145.500005550385,2|2,3:2|0:0,0:0:0:0:
403,369,16172,6,0,P|418:305|402:212,1,145.500005550385,4|2,0:0|0:0,0:0:0:0:
379,160,16700,2,0,L|342:61,2,72.7500027751924,2|2|2,0:0|3:2|0:0,0:0:0:0:
337,219,17228,1,2,0:0:0:0:
70,339,17580,5,4,0:0:0:0:
74,316,17756,1,2,0:0:0:0:
77,293,17932,2,0,B|88:254|88:254|64:208|64:208|79:159,2,145.500005550385,2|2|2,0:0|3:2|0:0,0:0:0:0:
282,215,18988,5,0,0:0:0:0:
282,215,19341,2,0,P|304:144|277:72,2,145.500005550385,0|6|2,3:0|3:2|0:0,0:0:0:0:
77,269,20397,5,4,0:0:0:0:
156,233,20573,1,0,3:0:0:0:
219,294,20749,1,0,3:0:0:0:
435,115,21101,5,0,1:0:0:0:
356,151,21277,1,0,3:0:0:0:
293,90,21453,1,0,3:0:0:0:
77,115,21805,5,2,3:2:0:0:
156,151,21981,1,0,3:0:0:0:
219,90,22157,1,0,3:0:0:0:
435,269,22509,5,0,1:0:0:0:
356,233,22685,1,0,3:0:0:0:
293,294,22861,1,0,3:0:0:0:
303,152,23213,5,2,3:2:0:0:
303,65,23389,1,0,3:0:0:0:
379,109,23565,1,0,3:0:0:0:
209,232,23917,5,0,1:0:0:0:
133,275,24093,1,0,3:0:0:0:
209,319,24270,1,0,3:0:0:0:
163,60,24622,5,2,0:0:0:0:
420,15,24974,1,2,3:2:0:0:
466,273,25326,1,2,0:0:0:0:
209,319,25678,1,2,3:2:0:0:
201,65,26030,5,6,0:0:0:0:
115,79,26206,1,2,3:2:0:0:
170,147,26382,1,0,1:0:0:0:
342,237,26734,5,0,1:0:0:0:
397,305,26910,1,2,3:2:0:0:
311,319,27086,1,0,1:0:0:0:
129,247,27438,5,0,1:0:0:0:
143,333,27614,1,2,3:2:0:0:
211,278,27790,1,0,1:0:0:0:
301,106,28142,5,0,1:0:0:0:
369,51,28318,1,2,3:2:0:0:
383,137,28494,1,0,1:0:0:0:
128,48,28846,5,0,1:0:0:0:
112,133,29023,1,2,3:2:0:0:
97,219,29199,2,0,P|176:276|280:252,1,174.599994671631,0|0,1:0|1:0,0:0:0:0:
408,192,29727,1,2,3:2:0:0:
304,120,29903,2,0,L|322:222,1,87.2999973358155,0|0,1:0|1:0,0:0:0:0:
383,317,30255,6,0,L|375:274,3,43.6499986679078,0|0|0|0,3:0|3:0|3:0|3:0,0:0:0:0:
398,333,30607,2,0,L|452:301,3,43.6499986679078,0|0|0|0,3:0|3:0|3:0|3:0,0:0:0:0:
325,372,30959,5,0,1:0:0:0:
282,367,31047,1,0,1:0:0:0:
248,340,31135,1,0,1:0:0:0:
234,300,31223,1,0,1:0:0:0:
242,258,31311,1,0,1:0:0:0:
271,226,31399,1,0,1:0:0:0:
313,215,31487,1,0,1:0:0:0:
354,226,31575,1,0,1:0:0:0:
383,258,31663,6,0,L|405:137,1,97,4|0,1:2|0:0,0:0:0:0:
469,265,32015,1,0,1:0:0:0:
407,127,32191,1,0,3:0:0:0:
474,234,32367,1,0,1:0:0:0:
412,96,32543,1,0,3:0:0:0:
273,158,32719,2,0,P|223:169|170:156,1,97,2|0,1:0|0:0,0:0:0:0:
48,96,33071,6,0,L|85:313,1,194,2|0,1:0|1:0,0:0:0:0:
80,287,33599,1,2,3:2:0:0:
200,384,33775,2,0,P|263:359|393:384,1,194,2|0,1:2|1:0,0:0:0:0:
384,379,34304,1,0,0:0:0:0:
440,248,34480,6,0,L|419:127,1,97,4|0,1:2|0:0,0:0:0:0:
508,245,34832,1,0,1:0:0:0:
418,123,35008,1,0,3:0:0:0:
504,221,35184,1,0,1:0:0:0:
414,98,35360,1,2,3:1:0:0:
323,220,35536,2,0,P|276:231|229:223,1,97,2|0,1:0|0:0,0:0:0:0:
88,264,35888,6,0,B|75:201|75:201|111:141|111:141|101:72,1,194,2|0,1:0|1:0,0:0:0:0:
102,81,36416,1,0,0:0:0:0:
232,8,36592,2,0,P|329:35|452:-14,1,194,2|0,1:2|1:0,0:0:0:0:
416,11,37121,1,0,3:0:0:0:
396,150,37296,6,0,L|375:250,1,97,4|0,1:2|0:0,0:0:0:0:
330,107,37648,1,0,1:0:0:0:
475,158,37824,1,0,3:0:0:0:
335,95,38000,2,0,P|284:83|235:94,1,97,2|2,1:0|0:0,0:0:0:0:
137,11,38352,2,0,P|184:19|231:8,1,97,2|0,1:0|0:0,0:0:0:0:
78,132,38704,6,0,L|59:243,1,97,2|0,1:0|0:0,0:0:0:0:
170,124,39057,1,2,1:2:0:0:
55,261,39233,1,0,0:0:0:0:
218,365,39409,6,0,L|311:323,1,97,2|0,1:2|3:0,0:0:0:0:
158,303,39761,1,2,1:2:0:0:
337,310,39937,1,0,3:0:0:0:
174,141,40113,6,0,B|147:199|147:199|83:226|83:226|51:288,1,194,0|0,1:0|1:0,0:0:0:0:
75,137,40641,1,0,3:0:0:0:
149,292,40817,1,2,1:0:0:0:
66,120,40993,1,2,3:1:0:0:
215,233,41169,2,0,P|264:244|313:232,1,97,2|0,1:0|0:0,0:0:0:0:
412,131,41521,5,2,1:0:0:0:
261,157,41697,1,2,3:2:0:0:
378,57,41873,2,0,P|466:70|481:174,2,194,2|8|8,1:2|0:0|0:0,0:0:0:0:
115,181,42929,6,0,L|91:45,1,97,4|0,1:2|0:0,0:0:0:0:
206,189,43282,1,0,1:0:0:0:
93,58,43457,1,0,3:0:0:0:
201,165,43633,1,0,1:0:0:0:
88,34,43810,1,0,3:0:0:0:
196,142,43986,2,0,L|214:42,1,97,2|0,1:0|0:0,0:0:0:0:
355,76,44338,6,0,P|404:65|454:76,1,97,2|0,1:0|0:0,0:0:0:0:
291,143,44690,2,0,P|241:153|191:141,1,97,0|0,1:0|0:0,0:0:0:0:
61,90,45042,2,0,P|92:178|30:295,1,194,2|0,1:2|1:0,0:0:0:0:
58,269,45570,1,0,0:0:0:0:
202,288,45746,6,0,L|221:397,1,97,4|0,1:2|0:0,0:0:0:0:
236,221,46098,1,0,1:0:0:0:
301,358,46274,1,0,3:0:0:0:
249,215,46450,1,0,1:0:0:0:
313,352,46626,1,2,3:1:0:0:
327,201,46802,2,0,P|343:153|377:116,1,97,2|0,1:0|0:0,0:0:0:0:
242,56,47154,6,0,L|343:39,1,97,2|0,1:0|0:0,0:0:0:0:
161,133,47506,2,0,L|256:150,1,97,0|0,1:0|0:0,0:0:0:0:
51,18,47858,2,0,B|40:86|40:86|77:146|77:146|64:209,1,194,2|0,1:2|1:0,0:0:0:0:
65,199,48386,1,0,3:0:0:0:
155,329,48562,6,0,L|172:228,1,97,4|0,1:2|0:0,0:0:0:0:
198,78,48915,1,0,1:0:0:0:
251,221,49091,1,0,3:0:0:0:
198,78,49267,1,0,1:0:0:0:
100,195,49443,1,2,0:0:0:0:
243,141,49619,2,0,P|292:130|342:141,1,97,2|0,1:0|0:0,0:0:0:0:
307,303,49971,5,2,1:0:0:0:
155,329,50147,1,2,0:0:0:0:
129,177,50323,1,2,1:2:0:0:
280,151,50499,1,0,0:0:0:0:
108,259,50675,2,0,P|59:268|7:258,1,97,2|2,1:2|3:2,0:0:0:0:
198,130,51027,2,0,P|189:79|165:36,1,97,2|0,1:2|3:0,0:0:0:0:
70,139,51379,5,0,1:0:0:0:
70,139,51731,1,8,0:0:0:0:
70,139,52083,1,0,1:0:0:0:
70,139,52435,1,8,0:0:0:0:
70,139,52787,6,0,L|19:128,3,48.5,0|0|0|0,3:0|3:0|3:0|3:0,0:0:0:0:
82,151,53139,2,0,L|55:194,3,48.5,0|0|0|0,3:0|3:0|3:0|3:0,0:0:0:0:
121,85,53491,5,0,1:0:0:0:
151,77,53580,1,0,1:0:0:0:
182,82,53668,1,0,1:0:0:0:
209,100,53756,1,0,1:0:0:0:
226,126,53844,1,0,1:0:0:0:
231,157,53932,1,0,1:0:0:0:
223,188,54020,1,0,1:0:0:0:
204,213,54108,1,0,1:0:0:0:
176,228,54196,5,6,0:1:0:0:
176,228,54548,1,2,0:0:0:0:
355,314,54900,5,2,0:0:0:0:
354,313,55252,1,2,3:2:0:0:
318,133,55604,5,2,0:1:0:0:
318,101,55780,1,2,0:0:0:0:
349,91,55956,1,2,0:0:0:0:
368,117,56132,1,2,0:0:0:0:
349,143,56308,1,2,0:0:0:0:
41,242,57012,5,2,0:1:0:0:
41,244,57364,1,2,0:0:0:0:
78,49,57716,5,2,0:0:0:0:
78,49,58068,1,2,3:2:0:0:
204,194,58420,5,2,0:1:0:0:
234,205,58596,1,2,0:0:0:0:
255,181,58772,1,2,0:0:0:0:
237,153,58948,1,2,0:0:0:0:
205,162,59124,1,2,0:0:0:0:
495,15,59829,5,2,0:1:0:0:
497,15,60181,1,2,0:0:0:0:
299,1,60533,5,2,0:0:0:0:
299,1,60885,1,2,3:2:0:0:
407,160,61237,5,2,0:1:0:0:
410,191,61413,1,2,0:0:0:0:
381,205,61589,1,2,0:0:0:0:
359,181,61765,1,2,0:0:0:0:
376,152,61941,1,2,0:0:0:0:
360,357,62645,5,2,0:1:0:0:
360,357,62997,1,2,0:0:0:0:
171,321,63349,5,2,0:0:0:0:
147,301,63525,1,2,0:0:0:0:
158,271,63701,1,2,3:2:0:0:
190,272,63877,1,2,0:0:0:0:
199,305,64053,5,2,0:1:0:0:
127,177,64318,1,2,0:1:0:0:
274,178,64582,1,2,0:1:0:0:
198,223,64758,1,2,0:1:0:0:
512,192,65462,5,6,1:0:0:0:
325,243,65814,1,2,1:2:0:0:
275,55,66166,1,2,1:2:0:0:
462,5,66518,1,10,1:2:0:0:
418,157,66870,5,2,1:0:0:0:
354,111,67046,1,2,0:0:0:0:
433,111,67222,1,2,1:2:0:0:
369,157,67398,1,2,0:0:0:0:
394,83,67574,1,2,1:2:0:0:
174,72,68278,5,2,1:0:0:0:
104,336,68630,1,2,1:2:0:0:
6,168,68982,1,2,1:2:0:0:
271,239,69334,1,10,1:2:0:0:
113,236,69686,5,2,1:0:0:0:
141,162,69862,1,2,0:2:0:0:
161,238,70038,1,2,1:2:0:0:
100,188,70214,1,2,0:2:0:0:
178,193,70390,1,2,1:2:0:0:
325,141,71095,5,6,1:0:0:0:
512,192,71447,1,2,1:2:0:0:
275,329,71799,1,2,1:2:0:0:
462,379,72151,1,10,1:2:0:0:
418,227,72503,5,2,1:0:0:0:
354,273,72679,1,2,0:0:0:0:
433,273,72855,1,2,1:2:0:0:
369,227,73031,1,2,0:0:0:0:
394,301,73207,1,2,1:2:0:0:
66,254,73912,5,6,1:0:0:0:
182,6,74264,1,2,1:2:0:0:
0,72,74616,5,4,1:0:0:0:
92,115,74792,1,2,0:0:0:0:
184,158,74968,1,2,1:2:0:0:
276,201,75144,1,2,0:0:0:0:
276,104,75320,6,0,L|231:59,3,48.5,4|0|0|0,1:0|3:0|1:0|3:0,0:0:0:0:
308,73,75672,2,0,L|308:10,3,48.5,0|0|0|0,1:0|3:0|1:0|3:0,0:0:0:0:
404,90,76024,5,0,1:0:0:0:
423,105,76112,1,0,3:0:0:0:
438,124,76200,1,0,1:0:0:0:
448,146,76288,1,0,1:0:0:0:
454,170,76376,1,0,1:0:0:0:
455,194,76464,1,0,1:0:0:0:
450,218,76552,1,0,1:0:0:0:
441,240,76640,1,0,1:0:0:0:
427,260,76728,6,0,P|408:308|405:384,1,97,6|0,1:0|0:0,0:0:0:0:
326,237,77080,2,0,P|322:288|293:358,1,97,8|0,0:0|0:0,0:0:0:0:
463,70,77432,6,0,P|444:118|441:194,1,97,0|0,1:0|0:0,0:0:0:0:
362,47,77784,2,0,P|358:98|329:168,1,97,8|0,0:0|0:0,0:0:0:0:
129,248,78136,5,2,1:0:0:0:
324,319,78313,1,2,3:2:0:0:
263,187,78489,1,8,0:0:0:0:
192,381,78665,1,2,3:2:0:0:
326,237,78841,6,0,P|388:232|447:245,1,97,0|0,1:0|0:0,0:0:0:0:
121,338,79193,2,0,P|63:357|3:354,1,97,8|0,0:0|0:0,0:0:0:0:
186,169,79545,6,0,L|203:73,1,97,2|0,1:0|0:0,0:0:0:0:
100,138,79897,2,0,L|117:42,1,97,8|0,0:0|0:0,0:0:0:0:
42,231,80249,6,0,L|25:326,1,97,0|0,1:0|0:0,0:0:0:0:
128,262,80601,2,0,L|111:357,1,97,8|0,0:0|0:0,0:0:0:0:
273,278,80953,5,2,1:0:0:0:
133,238,81129,1,2,3:2:0:0:
277,255,81305,1,8,0:0:0:0:
137,215,81481,1,2,3:2:0:0:
242,114,81657,6,0,P|267:111|291:113,1,48.5,2|0,1:0|0:0,0:0:0:0:
434,141,81921,2,0,P|409:144|385:142,1,48.5,2|0,3:1|0:0,0:0:0:0:
386,143,82185,1,2,3:1:0:0:
233,229,82361,6,0,L|137:215,1,97,2|0,1:0|0:0,0:0:0:0:
326,242,82713,2,0,L|421:259,1,97,8|0,0:0|0:0,0:0:0:0:
221,309,83065,6,0,L|125:295,1,97,0|0,1:0|0:0,0:0:0:0:
314,322,83418,2,0,L|409:339,1,97,8|0,0:0|0:0,0:0:0:0:
301,202,83770,5,2,1:0:0:0:
435,346,83946,1,2,3:2:0:0:
326,209,84122,1,8,0:0:0:0:
460,348,84298,1,2,3:2:0:0:
488,208,84474,2,0,L|507:106,1,97,0|0,1:0|0:0,0:0:0:0:
368,0,84826,1,8,0:0:0:0:
512,88,85002,1,2,3:2:0:0:
358,114,85178,6,0,L|234:136,1,97,2|0,1:0|0:0,0:0:0:0:
230,258,85530,2,0,L|355:237,1,97,8|0,0:0|0:0,0:0:0:0:
158,146,85882,5,0,1:0:0:0:
133,290,86058,1,2,3:2:0:0:
126,146,86234,1,8,0:0:0:0:
101,290,86410,1,2,3:2:0:0:
263,131,86586,5,2,1:0:0:0:
479,170,86850,1,2,0:1:0:0:
382,90,87114,1,2,0:1:0:0:
361,212,87290,1,2,1:0:0:0:
361,212,87642,1,8,0:0:0:0:
130,90,87994,6,0,L|233:71,1,97,4|0,1:0|0:0,0:0:0:0:
418,89,88347,2,0,L|322:72,1,97,8|0,0:0|0:0,0:0:0:0:
130,202,88699,6,0,L|225:218,1,97,0|0,1:0|0:0,0:0:0:0:
419,202,89051,2,0,L|324:219,1,97,10|0,0:1|0:0,0:0:0:0:
192,328,89403,6,0,L|389:363,1,194,2|8,1:0|0:0,0:0:0:0:
383,361,89931,1,2,3:1:0:0:
226,219,90107,2,0,P|150:161|55:175,1,194,2|8,1:0|0:0,0:0:0:0:
57,173,90635,1,0,0:0:0:0:
318,267,90811,6,0,L|334:171,1,97,0|0,1:0|0:0,0:0:0:0:
449,9,91163,2,0,L|432:104,1,97,8|0,0:0|0:0,0:0:0:0:
512,204,91515,2,0,L|416:187,1,97,0|2,1:0|0:0,0:0:0:0:
255,72,91867,2,0,L|350:88,1,97,10|0,0:1|0:0,0:0:0:0:
318,268,92219,6,0,P|231:304|144:268,1,194,2|8,1:0|0:0,0:0:0:0:
143,267,92747,1,2,3:1:0:0:
70,89,92923,2,0,L|35:286,1,194,2|8,1:0|0:0,0:0:0:0:
36,280,93451,1,2,3:2:0:0:
216,83,93628,6,0,L|230:179,1,97,0|0,1:0|0:0,0:0:0:0:
304,56,93980,2,0,L|318:152,1,97,8|0,0:0|0:0,0:0:0:0:
504,248,94332,6,0,L|491:153,1,97,2|2,1:2|0:2,0:0:0:0:
416,275,94684,2,0,L|403:180,1,97,10|0,0:0|0:0,0:0:0:0:
336,336,95036,5,2,1:2:0:0:
511,290,95212,1,2,3:2:0:0:
332,316,95388,1,10,0:0:0:0:
507,267,95564,1,0,0:0:0:0:
329,294,95740,2,0,B|281:302|281:302|233:294,1,97,0|0,1:0|0:0,0:0:0:0:
110,202,96092,1,8,0:0:0:0:
41,319,96268,1,0,3:0:0:0:
131,192,96444,6,0,P|179:184|226:192,1,97,0|0,1:0|0:0,0:0:0:0:
414,153,96796,2,0,P|366:161|319:153,1,97,8|0,0:0|0:0,0:0:0:0:
192,97,97148,5,2,1:0:0:0:
323,133,97324,1,2,3:1:0:0:
195,79,97500,1,10,0:1:0:0:
326,116,97676,1,0,3:0:0:0:
290,257,97852,6,0,L|282:305,1,48.5,2|0,1:0|0:0,0:0:0:0:
361,363,98117,2,0,L|370:316,1,48.5,2|0,0:1|0:0,0:0:0:0:
461,282,98381,1,2,0:1:0:0:
386,220,98557,1,2,1:0:0:0:
146,80,99261,6,0,L|162:175,1,97,4|0,1:0|0:0,0:0:0:0:
319,324,99613,2,0,L|302:228,1,97,8|0,0:0|0:0,0:0:0:0:
111,287,99965,2,0,L|206:270,1,97,0|0,1:0|0:0,0:0:0:0:
354,116,100317,2,0,L|258:132,1,97,10|2,0:1|0:0,0:0:0:0:
144,80,100669,5,2,1:0:0:0:
270,102,100845,1,0,0:0:0:0:
150,53,101021,1,8,0:0:0:0:
276,76,101197,1,2,3:1:0:0:
302,228,101373,6,0,L|286:323,1,97,2|0,1:0|0:0,0:0:0:0:
144,288,101725,2,0,L|161:384,1,97,8|0,0:0|0:0,0:0:0:0:
24,277,102077,6,0,P|15:229|23:181,1,97,0|0,1:0|0:0,0:0:0:0:
98,35,102429,2,0,P|89:82|97:130,1,97,8|0,0:0|0:0,0:0:0:0:
169,278,102781,2,0,P|160:230|168:182,1,97,0|0,1:0|0:0,0:0:0:0:
240,35,103134,2,0,P|231:82|239:130,1,97,10|0,0:1|0:0,0:0:0:0:
368,253,103486,5,2,1:0:0:0:
337,78,103662,1,0,3:0:0:0:
260,237,103838,1,8,0:0:0:0:
415,154,104014,1,2,3:1:0:0:
239,130,104190,6,0,L|187:120,1,48.5,2|0,1:0|0:0,0:0:0:0:
94,41,104454,2,0,L|145:31,1,48.5,2|0,3:1|0:0,0:0:0:0:
141,32,104718,1,2,3:1:0:0:
0,124,104894,6,0,L|19:232,1,97,0|0,1:0|0:0,0:0:0:0:
119,322,105246,2,0,L|100:214,1,97,8|0,0:0|0:0,0:0:0:0:
72,48,105598,2,0,L|91:156,1,97,0|0,1:0|0:0,0:0:0:0:
191,246,105950,2,0,L|172:138,1,97,10|0,0:0|0:0,0:0:0:0:
277,47,106302,5,2,1:2:0:0:
302,189,106478,1,0,0:0:0:0:
294,64,106654,1,10,0:0:0:0:
319,206,106830,1,2,0:0:0:0:
421,103,107006,6,0,L|437:198,1,97,2|0,1:2|0:0,0:0:0:0:
470,340,107358,1,10,0:0:0:0:
440,207,107534,1,0,3:0:0:0:
337,302,107710,5,2,1:2:0:0:
130,95,108063,1,8,0:0:0:0:
130,288,108415,5,0,1:0:0:0:
255,215,108591,1,0,0:0:0:0:
111,274,108767,1,10,0:0:0:0:
236,201,108943,1,2,0:0:0:0:
240,328,109119,6,0,L|208:368,3,48.5,0|0|0|0,3:0|3:0|3:0|3:0,0:0:0:0:
282,313,109471,2,0,L|324:337,3,48.5,0|0|0|0,3:0|3:0|3:0|3:0,0:0:0:0:
335,241,109823,5,0,1:0:0:0:
346,213,109911,1,0,1:0:0:0:
344,183,109999,1,0,1:0:0:0:
328,157,110087,1,0,1:0:0:0:
303,141,110175,1,0,1:0:0:0:
273,139,110263,1,0,1:0:0:0:
245,151,110351,1,0,1:0:0:0:
226,174,110439,1,0,1:0:0:0:
219,203,110527,1,4,1:0:0:0:
256,192,110615,12,0,112639,0:0:0:0:
256,384,121793,6,0,P|270:313|253:236,1,145.500005550385,4|8,1:2|0:0,0:0:0:0:
58,31,122497,5,0,1:0:0:0:
88,142,122673,1,0,3:0:0:0:
129,73,122849,1,8,0:0:0:0:
16,102,123026,1,0,3:0:0:0:
236,171,123202,6,0,L|311:179,1,72.7500027751924,0|0,1:0|0:0,0:0:0:0:
438,114,123554,2,0,L|365:121,1,72.7500027751924,8|0,0:0|0:0,0:0:0:0:
323,260,123906,5,0,1:0:0:0:
293,371,124082,1,0,3:0:0:0:
365,331,124259,1,8,0:0:0:0:
252,302,124435,1,0,3:0:0:0:
451,214,124610,6,0,P|437:285|454:362,1,145.500005550385,0|8,1:0|0:0,0:0:0:0:
427,65,125314,5,0,1:0:0:0:
314,36,125491,1,0,3:0:0:0:
356,107,125666,1,8,0:0:0:0:
386,1,125842,1,0,3:0:0:0:
219,148,126019,6,0,L|144:140,1,72.7500027751924,0|0,1:0|0:0,0:0:0:0:
15,78,126371,2,0,L|88:71,1,72.7500027751924,8|0,0:0|0:0,0:0:0:0:
71,309,126722,5,0,1:0:0:0:
27,203,126898,1,0,3:0:0:0:
0,277,127073,1,8,0:0:0:0:
109,244,127250,1,0,3:0:0:0:
109,244,127339,1,0,3:0:0:0:
109,244,127427,6,0,P|119:172|98:96,1,145.500005550385,0|8,1:0|0:0,0:0:0:0:
295,304,128131,5,0,1:0:0:0:
404,263,128307,1,0,3:0:0:0:
329,228,128483,1,8,0:0:0:0:
372,337,128659,1,0,3:0:0:0:
191,272,128835,6,0,L|211:157,1,72.7500027751924,0|0,1:0|0:0,0:0:0:0:
225,56,129187,2,0,L|245:170,1,72.7500027751924,8|0,0:0|0:0,0:0:0:0:
74,164,129539,5,0,1:0:0:0:
111,54,129715,1,0,3:0:0:0:
149,129,129892,1,8,0:0:0:0:
38,92,130067,1,0,3:0:0:0:
284,192,130243,6,0,P|354:205|425:191,1,145.500005550385,0|8,1:0|0:0,0:0:0:0:
170,331,130947,5,0,1:0:0:0:
73,267,131124,1,0,3:0:0:0:
156,250,131300,1,8,0:0:0:0:
91,347,131475,1,0,3:0:0:0:
289,306,131651,6,0,L|276:340,3,36.3750013875962,0|0|0|0,1:0|3:0|3:0|3:0,0:0:0:0:
314,280,132003,2,0,L|360:288,3,36.3750013875962,0|0|0|0,1:0|3:0|3:0|3:0,0:0:0:0:
255,232,132355,5,0,1:0:0:0:
249,214,132443,1,0,1:0:0:0:
248,196,132531,1,0,1:0:0:0:
252,179,132619,1,0,1:0:0:0:
261,163,132707,1,0,1:0:0:0:
275,151,132795,1,0,1:0:0:0:
291,142,132883,1,0,1:0:0:0:
308,139,132971,1,0,1:0:0:0:
326,141,133060,6,0,L|344:44,1,72.7500027751924,4|2,1:2|0:0,0:0:0:0:
255,8,133412,1,2,1:2:0:0:
255,8,133588,1,2,0:0:0:0:
189,95,133764,2,0,L|92:113,1,72.7500027751924,2|0,1:2|0:0,0:0:0:0:
56,24,134116,1,2,1:2:0:0:
56,24,134292,1,2,0:0:0:0:
0,240,134468,6,0,P|-5:276|0:313,1,72.7500027751924,2|0,1:2|0:0,0:0:0:0:
98,357,134820,1,2,1:2:0:0:
98,357,134996,1,2,0:0:0:0:
191,300,135172,2,0,P|262:286|345:305,1,145.500005550385,2|2,1:2|1:2,0:0:0:0:
429,349,135700,1,2,0:0:0:0:
306,174,135876,5,2,1:2:0:0:
306,174,136052,1,2,0:0:0:0:
397,61,136228,2,0,L|253:35,2,145.500005550385,2|0|0,1:2|1:0|1:0,0:0:0:0:
114,116,137284,5,0,1:0:0:0:
114,116,137461,1,2,0:0:0:0:
185,243,137637,2,0,L|201:148,1,72.7500027751924,2|0,1:2|0:0,0:0:0:0:
332,89,137989,1,2,1:2:0:0:
332,89,138165,1,2,0:0:0:0:
413,210,138341,2,0,L|341:197,1,72.7500027751924,2|0,1:2|0:0,0:0:0:0:
178,342,138693,6,0,P|214:336|251:343,1,72.7500027751924,0|2,1:0|0:0,0:0:0:0:
351,381,139045,1,2,1:2:0:0:
351,381,139221,1,2,0:0:0:0:
505,286,139397,2,0,P|520:217|504:144,1,145.500005550385,2|2,1:2|1:2,0:0:0:0:
214,172,140101,6,0,L|232:75,1,72.7500027751924,2|0,1:2|0:0,0:0:0:0:
321,145,140453,1,2,1:2:0:0:
321,145,140629,1,2,0:0:0:0:
140,56,140805,2,0,P|103:50|66:56,1,72.7500027751924,2|2,1:2|0:0,0:0:0:0:
0,118,141157,1,2,1:2:0:0:
141,372,141509,5,2,1:2:0:0:
141,372,141685,1,2,0:0:0:0:
210,244,141861,2,0,L|222:315,1,72.7500027751924,2|2,1:2|0:0,0:0:0:0:
439,345,142213,2,0,P|454:295|432:197,1,145.500005550385,2|2,1:2|1:2,0:0:0:0:
124,16,142918,6,0,L|136:87,1,72.7500027751924,0|0,1:0|0:0,0:0:0:0:
88,185,143270,1,2,3:2:0:0:
347,52,143622,2,0,P|419:34|487:52,1,145.500005550385,2|2,3:2|3:2,0:0:0:0:
432,368,144326,5,6,1:2:0:0:
446,288,144502,1,2,3:2:0:0:
460,208,144678,1,2,0:0:0:0:
341,24,145030,5,2,0:0:0:0:
327,104,145206,1,2,3:2:0:0:
313,184,145382,1,2,0:0:0:0:
171,360,145734,5,6,1:2:0:0:
185,280,145910,1,2,3:2:0:0:
199,200,146086,1,2,0:0:0:0:
80,16,146438,5,2,0:0:0:0:
66,96,146614,1,2,3:2:0:0:
52,176,146790,1,2,0:0:0:0:
353,155,147142,5,6,1:2:0:0:
351,46,147318,1,2,3:2:0:0:
257,102,147495,1,2,0:0:0:0:
161,338,148023,5,2,3:2:0:0:
159,229,148200,1,2,0:0:0:0:
255,282,148376,1,2,3:2:0:0:
375,201,148551,6,0,P|391:118|370:57,1,145.500005550385,4|0,0:0|3:0,0:0:0:0:
231,30,149255,2,0,P|215:113|236:174,1,145.500005550385,4|0,0:0|0:0,0:0:0:0:
461,350,149959,5,6,1:2:0:0:
381,336,150135,1,2,3:2:0:0:
301,322,150311,1,2,0:0:0:0:
91,262,150663,5,2,0:0:0:0:
171,248,150839,1,2,3:2:0:0:
251,234,151015,1,2,0:0:0:0:
461,174,151367,5,6,1:2:0:0:
381,160,151543,1,2,3:2:0:0:
301,146,151719,1,2,0:0:0:0:
91,86,152071,5,2,0:0:0:0:
171,72,152247,1,2,3:2:0:0:
251,58,152423,1,2,0:0:0:0:
461,174,152776,6,0,L|448:245,1,72.7500027751924,0|0,1:2|0:0,0:0:0:0:
421,351,153128,2,0,P|413:283|327:240,1,145.500005550385,2|0,0:0|0:0,0:0:0:0:
251,351,153656,1,2,0:0:0:0:
251,350,153832,2,0,L|235:261,1,72.7500027751924,2|0,0:0|3:0,0:0:0:0:
153,118,154184,6,0,L|308:90,1,145.500005550385,6|2,0:0|0:0,0:0:0:0:
426,158,154888,2,0,L|282:183,1,145.500005550385,6|2,0:0|0:0,0:0:0:0:
23,52,155592,5,0,1:0:0:0:
35,314,158409,6,0,P|27:261|35:218,1,97,4|0,1:2|0:0,0:0:0:0:
182,93,158761,1,8,1:2:0:0:
60,173,158937,1,0,3:0:0:0:
207,47,159113,1,0,1:0:0:0:
85,127,159289,1,0,3:0:0:0:
229,18,159465,2,0,L|326:35,1,97,10|0,1:0|0:0,0:0:0:0:
512,83,159817,6,0,P|437:110|419:231,1,194,2|8,1:0|1:2,0:0:0:0:
411,212,160345,1,0,0:0:0:0:
509,343,160521,2,0,B|413:326|413:326|318:347,1,194,2|8,1:2|1:2,0:0:0:0:
318,346,161049,1,0,3:0:0:0:
158,288,161225,6,0,L|179:167,1,97,4|0,1:2|0:0,0:0:0:0:
48,272,161577,1,8,1:2:0:0:
180,163,161753,1,0,3:0:0:0:
316,248,161929,2,0,P|363:259|410:251,1,97,2|2,1:0|0:0,0:0:0:0:
496,109,162282,6,0,P|408:82|311:111,1,194,10|2,1:0|1:0,0:0:0:0:
312,109,162810,1,0,0:0:0:0:
206,224,162986,2,0,L|171:30,1,194,10|2,1:2|1:2,0:0:0:0:
171,33,163514,1,0,3:0:0:0:
63,147,163690,2,0,L|79:242,1,97,10|0,1:2|3:0,0:0:0:0:
196,384,164042,6,0,P|161:296|197:209,1,194,0|8,1:0|1:2,0:0:0:0:
197,208,164570,1,0,3:0:0:0:
344,75,164746,2,0,L|320:210,1,97,2|2,1:0|3:2,0:0:0:0:
242,99,165098,2,0,L|265:-28,1,97,10|0,1:0|0:0,0:0:0:0:
460,62,165450,5,2,1:0:0:0:
443,156,165626,1,2,3:2:0:0:
426,251,165802,1,10,1:2:0:0:
409,345,165978,1,0,3:0:0:0:
336,283,166154,5,8,0:0:0:0:
336,283,166506,1,8,0:0:0:0:
81,384,166858,6,0,P|111:294|76:206,1,194,4|8,1:2|1:2,0:0:0:0:
75,205,167387,1,0,3:0:0:0:
192,96,167563,2,0,L|212:215,1,97,0|0,1:0|0:0,0:0:0:0:
320,320,167915,2,0,L|303:224,1,97,10|2,1:0|3:1,0:0:0:0:
425,74,168267,6,0,P|394:162|456:279,1,194,2|8,1:0|1:2,0:0:0:0:
427,253,168795,1,0,0:0:0:0:
308,98,168971,2,0,L|94:61,1,194,2|8,1:2|1:2,0:0:0:0:
116,64,169499,1,0,3:0:0:0:
26,213,169675,6,0,L|9:308,1,97,4|0,1:2|0:0,0:0:0:0:
146,171,170027,1,8,1:2:0:0:
112,316,170203,1,0,3:0:0:0:
178,191,170379,1,0,1:0:0:0:
150,338,170555,1,0,3:0:0:0:
287,176,170731,2,0,P|297:129|288:81,1,97,10|0,1:0|0:0,0:0:0:0:
424,14,171083,6,0,P|394:104|422:195,1,194,2|10,1:0|1:2,0:0:0:0:
422,195,171611,1,0,0:0:0:0:
502,373,171787,2,0,P|512:326|503:278,1,97,2|0,1:2|3:0,0:0:0:0:
503,278,172140,1,10,1:2:0:0:
386,384,172316,1,0,3:0:0:0:
248,246,172492,6,0,L|264:151,1,97,4|0,1:2|0:0,0:0:0:0:
165,36,172844,1,8,1:2:0:0:
268,138,173020,1,0,3:0:0:0:
171,12,173196,1,0,1:0:0:0:
274,114,173372,1,0,3:0:0:0:
103,96,173548,2,0,L|-20:75,1,97,10|0,1:0|0:0,0:0:0:0:
0,258,173900,5,2,1:0:0:0:
94,274,174076,1,2,3:2:0:0:
111,179,174252,1,10,0:0:0:0:
16,162,174428,1,2,3:2:0:0:
185,241,174604,6,0,L|299:261,1,97,2|0,1:2|0:0,0:0:0:0:
383,154,174956,2,0,L|287:137,1,97,10|0,0:0|0:0,0:0:0:0:
191,120,175308,5,0,1:0:0:0:
191,120,175660,1,8,0:0:0:0:
191,120,176012,1,0,1:0:0:0:
191,120,176364,1,8,0:0:0:0:
191,120,176716,6,0,L|143:127,3,48.5,0|0|0|0,3:0|3:0|3:0|3:0,0:0:0:0:
257,151,177069,2,0,L|303:142,3,48.5,0|0|0|0,3:0|0:0|0:0|0:0,0:0:0:0:
206,201,177421,5,0,1:0:0:0:
183,235,177509,1,0,1:0:0:0:
185,277,177597,1,0,1:0:0:0:
212,308,177685,1,0,1:0:0:0:
253,317,177773,1,0,1:0:0:0:
291,299,177861,1,0,1:0:0:0:
310,262,177949,1,0,1:0:0:0:
303,221,178037,1,0,1:0:0:0:
256,192,178125,12,0,180237,0:0:0:0:
400,79,180413,5,2,0:3:0:0:
400,79,180589,1,2,0:3:0:0:
400,79,180765,1,2,0:3:0:0:
400,79,180941,6,0,L|374:222,1,97,6|0,1:0|0:0,0:0:0:0:
238,347,181293,2,0,L|262:203,1,97,8|0,0:0|0:0,0:0:0:0:
183,131,181645,2,0,L|327:156,1,97,0|0,1:0|0:0,0:0:0:0:
452,294,181998,2,0,L|308:268,1,97,8|0,0:0|0:0,0:0:0:0:
99,343,182350,5,2,1:0:0:0:
68,164,182526,1,2,3:2:0:0:
119,340,182702,1,8,0:0:0:0:
87,160,182878,1,2,3:2:0:0:
216,289,183054,2,0,P|273:303|332:288,1,97,0|0,1:0|0:0,0:0:0:0:
498,215,183406,2,0,P|441:201|382:216,1,97,8|0,0:0|0:0,0:0:0:0:
252,86,183758,6,0,L|277:233,1,97,6|0,1:0|0:0,0:0:0:0:
169,54,184110,2,0,L|195:201,1,97,8|0,0:0|0:0,0:0:0:0:
61,302,184462,6,0,L|35:155,1,97,0|0,1:0|0:0,0:0:0:0:
143,334,184814,2,0,L|117:187,1,97,8|0,0:0|0:0,0:0:0:0:
325,180,185166,5,2,1:0:0:0:
469,205,185342,1,2,3:2:0:0:
443,349,185518,1,8,0:0:0:0:
301,324,185694,1,2,3:2:0:0:
392,216,185870,6,0,L|384:264,1,48.5,2|0,1:0|0:0,0:0:0:0:
383,117,186134,2,0,L|392:70,1,48.5,2|0,3:1|0:0,0:0:0:0:
392,70,186398,1,2,3:1:0:0:
199,103,186574,6,0,L|67:126,1,97,2|0,1:0|0:0,0:0:0:0:
267,171,186927,2,0,L|172:188,1,97,8|0,0:0|0:0,0:0:0:0:
75,340,187279,6,0,L|171:324,1,97,0|0,1:0|0:0,0:0:0:0:
7,272,187632,2,0,L|103:256,1,97,8|0,0:0|0:0,0:0:0:0:
307,166,187983,5,2,1:0:0:0:
173,22,188159,1,2,3:2:0:0:
282,159,188335,1,8,0:0:0:0:
148,20,188511,1,2,3:2:0:0:
120,160,188687,2,0,L|101:260,1,97,0|0,1:0|0:0,0:0:0:0:
14,127,189039,1,8,0:0:0:0:
93,303,189215,1,2,3:2:0:0:
283,336,189391,6,0,L|393:355,1,97,2|0,1:0|0:0,0:0:0:0:
447,284,189743,2,0,L|336:264,1,97,8|0,0:0|0:0,0:0:0:0:
271,90,190095,5,2,1:0:0:0:
246,234,190271,1,2,3:1:0:0:
239,90,190447,1,10,0:1:0:0:
214,234,190623,1,0,3:0:0:0:
359,58,190799,5,2,1:0:0:0:
398,274,191063,1,2,3:1:0:0:
318,177,191327,1,2,3:1:0:0:
440,156,191503,1,8,0:0:0:0:
440,156,191855,1,8,0:0:0:0:
64,48,192208,6,0,L|47:143,1,97,6|0,1:0|0:0,0:0:0:0:
97,307,192560,2,0,L|115:212,1,97,8|0,0:0|0:0,0:0:0:0:
200,47,192912,2,0,L|183:143,1,97,0|0,1:0|0:0,0:0:0:0:
234,307,193264,2,0,L|251:212,1,97,8|0,0:0|0:0,0:0:0:0:
388,74,193616,6,0,P|344:158|374:250,1,194,2|8,1:0|0:0,0:0:0:0:
372,247,194144,1,2,3:2:0:0:
233,108,194320,2,0,L|36:73,1,194,0|8,1:0|0:0,0:0:0:0:
41,74,194848,1,0,0:0:0:0:
161,194,195024,6,0,L|137:324,1,97,6|0,1:0|0:0,0:0:0:0:
256,211,195376,2,0,L|239:306,1,97,8|0,0:0|0:0,0:0:0:0:
376,168,195728,6,0,L|392:73,1,97,0|0,1:0|0:0,0:0:0:0:
471,186,196080,2,0,L|494:55,1,97,8|0,0:0|0:0,0:0:0:0:
297,55,196432,6,0,P|205:83|121:37,1,194,2|8,1:0|0:0,0:0:0:0:
122,39,196960,1,2,3:2:0:0:
261,179,197136,2,0,L|452:145,1,194,0|0,1:0|0:0,0:0:0:0:
451,145,197664,1,2,3:1:0:0:
315,282,197841,6,0,L|210:300,1,97,6|0,1:0|0:0,0:0:0:0:
27,330,198193,2,0,L|123:314,1,97,8|0,0:0|0:0,0:0:0:0:
356,162,198545,6,0,L|261:179,1,97,0|0,1:0|0:0,0:0:0:0:
74,210,198897,2,0,L|170:194,1,97,8|0,0:0|0:0,0:0:0:0:
293,65,199249,5,2,1:0:0:0:
426,35,199425,1,2,3:2:0:0:
300,78,199601,1,8,0:0:0:0:
433,49,199777,1,2,3:2:0:0:
384,240,199953,2,0,L|406:361,1,97,0|0,1:0|0:0,0:0:0:0:
470,233,200305,1,8,0:0:0:0:
408,371,200481,1,2,3:2:0:0:
216,337,200657,6,0,L|52:308,1,97,0|0,1:0|0:0,0:0:0:0:
189,251,201009,2,0,L|25:222,1,97,8|0,0:0|0:0,0:0:0:0:
230,96,201361,5,0,1:0:0:0:
366,46,201537,1,0,3:0:0:0:
214,79,201713,1,8,0:0:0:0:
349,43,201889,1,2,3:2:0:0:
312,177,202066,6,0,L|299:226,3,48.5,0|0|0|0,3:0|3:0|3:0|3:0,0:0:0:0:
342,145,202417,2,0,L|390:149,3,48.5,0|0|0|0,3:0|3:0|3:0|3:0,0:0:0:0:
245,115,202769,5,0,1:0:0:0:
217,127,202857,1,0,1:0:0:0:
197,150,202945,1,0,1:0:0:0:
190,180,203033,1,0,1:0:0:0:
197,209,203121,1,0,1:0:0:0:
217,231,203209,1,0,1:0:0:0:
245,242,203297,1,0,1:0:0:0:
275,240,203385,1,0,1:0:0:0:
300,224,203473,1,4,1:0:0:0:
