osu file format v14

[General]
AudioFilename: audio.mp3
AudioLeadIn: 0
PreviewTime: 25290
Countdown: 0
SampleSet: Soft
StackLeniency: 0.4
Mode: 0
LetterboxInBreaks: 0
SkinPreference:Default
WidescreenStoryboard: 1

[Editor]
Bookmarks: 13147,26004,37433,48861,51718,63147,74576,86004,97433,108861,121718,133147,144576,156004,167433
DistanceSpacing: 1.5
BeatDivisor: 4
GridSize: 4
TimelineZoom: 1.9

[Metadata]
Title:Miracle (Nightcore Mix)
TitleUnicode:Miracle (Nightcore Mix)
Artist:Cascada
ArtistUnicode:Cascada
Creator:StripedGoose
Version:Your Beloved
Source:
Tags:english edm electronic dance music pop everytime we touch euro sped up trance andrea1992wr
BeatmapID:3645796
BeatmapSetID:1780238

[Difficulty]
HPDrainRate:5
CircleSize:4
OverallDifficulty:8
ApproachRate:9
SliderMultiplier:2
SliderTickRate:2

[Events]
//Background and Video events
0,0,"BG.jpg",0,0
//Break Periods
2,51918,56833
2,121918,132547
//Storyboard Layer 0 (Background)
//Storyboard Layer 1 (Fail)
//Storyboard Layer 2 (Pass)
//Storyboard Layer 3 (Foreground)
//Storyboard Layer 4 (Overlay)
//Storyboard Sound Samples

[TimingPoints]
1719,357.142857142857,4,2,1,50,1,0
1719,-200,4,2,1,50,0,0
13147,-142.857142857143,4,2,1,60,0,0
26004,-100,4,2,1,70,0,1
36004,-100,4,2,1,70,0,0
36718,-100,4,2,1,50,0,0
37433,-100,4,2,1,70,0,1
47433,-100,4,2,1,50,0,1
48147,-100,4,2,1,60,0,1
48504,-100,4,2,1,70,0,1
48861,-200,4,2,1,50,0,0
51718,-166.666666666667,4,2,1,60,0,0
63147,-100,4,2,1,70,0,1
73147,-100,4,2,1,50,0,0
74576,-100,4,2,1,70,0,1
86004,-125,4,2,1,60,0,0
96004,-125,4,2,1,50,0,0
96361,-125,4,2,1,40,0,0
96718,-125,4,2,1,50,0,0
97433,-166.666666666667,4,2,1,50,0,0
108861,-125,4,2,1,60,0,0
121718,-200,4,2,1,40,0,0
133147,-142.857142857143,4,2,1,60,0,0
144576,-166.666666666667,4,2,1,50,0,0
147076,-166.666666666667,4,2,1,60,0,0
147790,-166.666666666667,4,2,1,50,0,0
156004,-100,4,2,1,70,0,1
166004,-100,4,2,1,60,0,0
167433,-100,4,2,1,70,0,1
177433,-100,4,2,1,50,0,1
178861,-100,4,2,1,70,0,0

[Colours]
Combo1 : 29,111,237
Combo2 : 239,212,183
Combo3 : 198,218,255
Combo4 : 158,99,189

[HitObjects]
156,68,1719,6,0,L|56:68,2,100,4|0|0,1:0|0:0|0:0,0:0:0:0:
228,192,2790,6,0,L|178:192,1,50,2|0,0:0|0:0,0:0:0:0:
62,232,3147,2,0,L|112:232,1,50,2|0,0:0|0:0,0:0:0:0:
228,192,3504,1,2,0:0:0:0:
228,192,3861,1,2,0:0:0:0:
448,275,4218,6,0,P|400:287|352:276,1,100,2|2,0:0|0:0,0:0:0:0:
200,163,4933,2,0,P|224:159|249:163,1,50,2|0,0:0|0:0,0:0:0:0:
349,219,5290,2,0,P|324:223|300:220,1,50,2|0,0:0|0:0,0:0:0:0:
300,107,5647,2,0,P|325:103|350:108,1,50,2|0,0:0|0:0,0:0:0:0:
450,163,6004,2,0,P|425:167|400:163,1,50,2|0,0:0|0:0,0:0:0:0:
300,107,6361,1,2,0:0:0:0:
300,107,6718,1,2,0:0:0:0:
172,36,7076,5,2,0:0:0:0:
172,36,7254,1,2,0:0:0:0:
172,36,7433,2,0,L|172:136,1,100,2|0,0:0|0:0,0:0:0:0:
56,236,8147,1,2,0:0:0:0:
168,336,8504,6,0,L|218:336,1,50,2|0,0:0|0:0,0:0:0:0:
344,336,8861,2,0,L|294:336,1,50,2|0,0:0|0:0,0:0:0:0:
168,336,9218,1,2,0:0:0:0:
168,336,9576,1,2,0:0:0:0:
256,212,9933,5,2,0:0:0:0:
344,336,10290,2,0,P|348:311|344:286,1,50,2|0,0:0|0:0,0:0:0:0:
423,264,10647,2,0,P|415:240|399:221,1,50,2|0,0:0|0:0,0:0:0:0:
414,136,11004,2,0,P|437:145|456:161,1,50,2|0,0:0|0:0,0:0:0:0:
384,56,11361,2,0,P|408:51|433:56,1,50,2|0,0:0|0:0,0:0:0:0:
226,108,11718,6,0,L|176:108,1,50,2|0,0:0|0:0,0:0:0:0:
288,164,12076,2,0,L|338:164,1,50,2|0,0:0|0:0,0:0:0:0:
176,220,12433,5,8,3:0:0:0:
162,220,12522,1,8,3:0:0:0:
150,220,12611,1,8,3:0:0:0:
338,276,12790,1,8,3:0:0:0:
350,276,12879,1,8,3:0:0:0:
362,276,12968,1,8,3:0:0:0:
374,276,13058,1,8,3:0:0:0:
390,276,13147,6,0,B|424:264|464:276|440:288|488:304|528:280,1,139.999995727539,4|8,1:0|0:0,0:0:0:0:
460,196,13683,1,4,3:0:0:0:
492,96,13861,2,0,L|420:96,1,69.9999978637696,4|0,3:0|0:0,0:0:0:0:
223,40,14218,6,0,L|284:76,1,69.9999978637696,8|4,0:0|3:0,0:0:0:0:
288,216,14576,2,0,L|237:165,1,69.9999978637696,2|4,0:0|3:0,0:0:0:0:
136,164,14933,1,8,0:0:0:0:
136,164,15111,1,4,3:0:0:0:
184,256,15290,1,4,3:0:0:0:
136,348,15468,6,0,B|100:353|100:353|66:348,1,69.9999978637696,2|2,0:3|0:3,0:0:0:0:
184,256,15826,1,2,0:3:0:0:
231,347,16004,2,0,P|265:355|299:346,1,69.9999978637696,4|0,3:0|0:0,0:0:0:0:
434,265,16361,2,0,P|400:257|367:268,1,69.9999978637696,8|4,0:0|3:0,0:0:0:0:
231,183,16718,2,0,P|265:175|299:184,1,69.9999978637696,4|0,3:0|0:0,0:0:0:0:
367,268,17076,1,8,0:0:0:0:
367,268,17254,1,4,3:0:0:0:
232,183,17433,6,0,L|148:183,1,69.9999978637696,2|8,0:0|0:0,0:0:0:0:
88,116,17790,1,8,0:0:0:0:
88,116,17968,1,4,3:0:0:0:
162,183,18147,2,0,B|162:211|162:211|158:219|158:219|162:227|162:227|162:259,1,69.9999978637696,2|2,0:3|0:3,0:0:0:0:
164,356,18504,5,8,0:0:0:0:
252,300,18683,1,8,0:0:0:0:
162,251,18861,2,0,B|128:263|88:251|112:239|64:223|24:247,1,139.999995727539,4|8,3:0|0:0,0:0:0:0:
66,348,19397,1,4,3:0:0:0:
27,245,19576,2,0,L|28:168,1,69.9999978637696,4|0,3:0|0:0,0:0:0:0:
112,42,19933,6,0,L|112:112,1,69.9999978637696,8|4,0:0|3:0,0:0:0:0:
197,244,20290,2,0,L|197:174,1,69.9999978637696,2|4,0:0|3:0,0:0:0:0:
283,42,20647,1,8,0:0:0:0:
283,42,20826,1,4,3:0:0:0:
283,42,21004,2,0,L|282:119,1,69.9999978637696,4|8,3:0|0:0,0:0:0:0:
197,244,21361,6,0,L|197:174,1,69.9999978637696,2|0,0:0|0:0,0:0:0:0:
292,276,21718,2,0,L|340:225,1,69.9999978637696,4|0,3:0|0:0,0:0:0:0:
337,365,22076,2,0,L|406:364,1,69.9999978637696,8|4,0:0|3:0,0:0:0:0:
444,256,22433,6,0,B|456:222|444:182|432:206|416:158|440:118,1,139.999995727539,4|8,3:0|0:0,0:0:0:0:
348,56,22968,2,0,P|289:24|225:64,1,139.999995727539,4|4,3:0|3:0,0:0:0:0:
156,132,23504,1,8,0:0:0:0:
80,56,23683,5,4,3:0:0:0:
80,40,23772,1,4,3:0:0:0:
80,24,23861,1,4,3:0:0:0:
156,132,24040,2,0,P|176:200|140:280,1,139.999995727539,4|0,3:0|0:0,0:0:0:0:
80,24,24576,5,4,1:0:0:0:
28,240,26004,6,0,P|7:195|25:150,1,100,4|0,1:0|0:0,0:0:0:0:
150,148,26361,2,0,P|167:193|147:237,1,100,2|0,1:2|0:0,0:0:0:0:
88,344,26718,1,2,1:2:0:0:
28,240,26897,1,2,0:0:0:0:
146,237,27076,1,2,1:2:0:0:
207,343,27254,2,0,B|256:352|256:352|305:344,1,100,2|2,0:0|1:2,0:0:0:0:
364,238,27611,1,2,0:0:0:0:
305,131,27790,2,0,B|256:122|256:122|206:129,1,100,2|0,1:2|0:0,0:0:0:0:
146,237,28147,5,2,1:2:0:0:
207,130,28326,1,2,0:0:0:0:
146,25,28504,1,2,1:2:0:0:
50,218,28683,2,0,B|106:218|106:218|145:236,1,100,2|2,0:0|1:2,0:0:0:0:
207,130,29040,1,2,0:0:0:0:
50,43,29218,2,0,B|106:43|106:43|146:24,1,100,2|0,1:2|0:0,0:0:0:0:
366,237,29576,5,2,1:2:0:0:
305,131,29755,1,2,0:0:0:0:
366,25,29933,1,2,1:2:0:0:
462,218,30112,2,0,B|406:218|406:218|367:236,1,100,2|2,0:0|1:2,0:0:0:0:
305,131,30469,1,2,0:0:0:0:
462,43,30647,2,0,B|406:43|406:43|366:24,1,100,2|0,1:2|0:0,0:0:0:0:
305,344,31004,5,2,1:2:0:0:
366,236,31183,1,2,0:0:0:0:
305,131,31361,1,2,1:2:0:0:
146,237,31540,2,0,P|191:254|237:237,1,100,2|2,0:0|1:2,0:0:0:0:
207,130,31897,1,2,0:0:0:0:
54,236,32076,2,0,P|100:219|146:237,1,100,2|0,1:2|0:0,0:0:0:0:
207,343,32433,5,2,1:2:0:0:
146,237,32612,1,2,0:0:0:0:
207,130,32790,1,2,1:2:0:0:
366,236,32969,2,0,P|320:253|274:236,1,100,2|2,0:0|1:2,0:0:0:0:
305,131,33326,1,2,0:0:0:0:
457,235,33505,2,0,P|411:217|366:236,1,100,2|0,1:2|0:0,0:0:0:0:
504,132,33861,5,2,1:2:0:0:
457,29,34040,1,2,0:0:0:0:
504,132,34218,1,2,1:2:0:0:
457,235,34397,1,2,0:0:0:0:
336,28,34576,6,0,B|292:0|232:16|260:28|196:52|140:24,1,200,2|2,1:2|1:2,0:0:0:0:
24,8,35111,1,2,0:0:0:0:
44,128,35290,2,0,B|44:164|44:164|36:176|36:176|44:188|44:188|44:224,1,100,2|0,1:2|0:0,0:0:0:0:
164,220,35647,2,0,B|164:184|164:184|172:172|172:172|164:160|164:160|164:124,1,100,2|0,1:2|0:0,0:0:0:0:
116,332,36004,6,0,B|164:348|164:348|212:332,1,100,2|0,1:2|0:0,0:0:0:0:
350,220,36361,2,0,B|302:204|302:204|256:220,1,100,2|2,1:2|1:2,0:0:0:0:
164,124,36718,1,10,3:0:0:0:
149,86,36808,1,2,3:0:0:0:
156,48,36897,1,10,3:0:0:0:
183,19,36986,1,2,3:0:0:0:
220,8,37075,1,10,3:0:0:0:
259,18,37165,1,10,3:0:0:0:
285,48,37254,1,10,3:0:0:0:
292,87,37343,1,10,3:0:0:0:
278,124,37433,6,0,B|278:168|270:172|270:172|278:176|278:220,1,100,4|2,1:0|1:2,0:0:0:0:
400,220,37790,2,0,B|400:176|408:172|408:172|400:168|400:124,1,100,8|2,1:0|1:2,0:0:0:0:
231,173,38147,1,2,1:2:0:0:
340,304,38326,1,2,1:2:0:0:
448,172,38504,1,8,1:0:0:0:
340,304,38683,2,0,B|376:304|376:304|391:309|391:309|404:304|404:304|444:304,1,100,2|2,1:2|1:2,0:0:0:0:
231,173,39040,1,2,1:2:0:0:
340,304,39218,2,0,B|304:304|304:304|291:296|291:296|276:304|276:304|236:304,1,100,8|2,1:0|1:2,0:0:0:0:
71,207,39576,5,2,1:2:0:0:
244,304,39754,1,2,1:2:0:0:
71,207,39933,1,8,1:0:0:0:
244,304,40111,2,0,P|255:251|243:207,1,100,2|2,1:2|1:2,0:0:0:0:
155,123,40469,1,2,1:2:0:0:
70,303,40647,2,0,P|58:254|71:207,1,100,8|2,1:0|1:2,0:0:0:0:
441,177,41004,5,2,1:2:0:0:
268,80,41182,1,2,1:2:0:0:
441,177,41361,1,8,1:0:0:0:
268,80,41539,2,0,P|257:133|269:177,1,100,2|2,1:2|1:2,0:0:0:0:
357,261,41897,1,2,1:2:0:0:
442,81,42075,2,0,P|454:130|441:177,1,100,8|2,1:0|1:2,0:0:0:0:
357,261,42433,5,2,1:2:0:0:
441,176,42611,1,2,1:2:0:0:
357,89,42790,1,8,1:0:0:0:
268,176,42968,2,0,L|197:105,1,100,2|2,1:2|1:2,0:0:0:0:
156,220,43326,1,2,1:2:0:0:
44,176,43504,2,0,L|114:105,1,100,8|2,1:0|1:2,0:0:0:0:
268,176,43861,5,2,1:2:0:0:
440,177,44040,1,2,1:2:0:0:
232,244,44218,1,8,1:0:0:0:
476,109,44397,2,0,P|488:60|477:12,1,100,2|2,1:2|1:2,0:0:0:0:
353,177,44754,1,2,1:2:0:0:
477,12,44933,2,0,P|488:60|476:109,1,100,8|2,1:0|1:2,0:0:0:0:
376,12,45290,5,2,1:2:0:0:
256,124,45468,1,2,1:2:0:0:
136,12,45647,1,8,1:0:0:0:
256,124,45826,1,2,1:2:0:0:
376,12,46004,6,0,B|476:124|476:124|426:124,1,200,4|8,1:0|1:0,0:0:0:0:
256,124,46540,1,2,1:2:0:0:
426,124,46718,1,2,1:2:0:0:
344,212,46897,5,0,1:2:0:0:
344,233,46986,1,0,1:2:0:0:
344,253,47076,1,8,1:0:0:0:
440,324,47254,1,2,1:0:0:0:
440,304,47343,1,0,1:0:0:0:
440,287,47433,2,0,L|440:262,6,25,0|0|0|0|0|0|0,1:0|1:0|1:0|1:0|1:0|1:0|1:0,1:0:0:0:
344,336,47790,2,0,L|344:361,6,25,0|0|0|0|0|0|0,1:0|1:0|1:0|1:0|1:0|1:0|1:0,1:0:0:0:
256,276,48147,5,12,3:0:0:0:
243,323,48236,1,12,3:0:0:0:
208,358,48325,1,12,3:0:0:0:
160,369,48414,1,12,3:0:0:0:
113,355,48504,1,12,3:0:0:0:
80,318,48593,1,12,3:0:0:0:
71,269,48682,1,12,3:0:0:0:
88,223,48772,1,12,3:0:0:0:
126,192,48861,5,4,1:0:0:0:
324,192,50290,5,4,3:0:0:0:
336,192,50379,1,4,3:0:0:0:
348,192,50468,1,4,3:0:0:0:
360,192,50558,1,4,3:0:0:0:
372,192,50647,2,0,L|424:192,1,50,4|12,3:0|3:0,0:0:0:0:
280,268,51004,6,0,L|255:268,2,25,4|4|12,3:0|3:0|3:0,0:0:0:0:
208,192,51361,1,12,3:0:0:0:
188,192,51451,1,4,3:0:0:0:
168,192,51540,1,12,3:0:0:0:
148,192,51629,1,4,3:0:0:0:
128,192,51718,5,4,1:0:0:0:
256,192,57433,12,2,62790,0:0:0:0:
464,372,63147,6,0,B|432:320|456:260|472:296|496:232|464:172,1,200,6|8,1:0|1:0,0:0:0:0:
412,80,63683,1,2,0:0:0:0:
412,80,63861,2,0,P|364:68|312:80,1,100,2|2,1:2|0:0,0:0:0:0:
99,81,64218,2,0,P|147:69|196:80,1,100,8|2,1:0|0:0,0:0:0:0:
412,80,64576,6,0,P|456:170|412:252,1,200,2|8,1:0|1:0,0:0:0:0:
308,312,65111,1,2,0:0:0:0:
308,312,65290,2,0,L|308:204,1,100,2|2,1:2|0:0,0:0:0:0:
204,72,65647,2,0,L|204:172,1,100,8|2,1:0|0:0,0:0:0:0:
99,252,66004,6,0,P|55:162|99:80,1,200,2|8,1:0|1:0,0:0:0:0:
203,20,66539,1,2,0:0:0:0:
203,20,66718,2,0,B|212:68|212:68|204:120,1,100,2|2,1:2|0:0,0:0:0:0:
99,252,67076,1,8,1:0:0:0:
204,118,67254,1,2,0:0:0:0:
99,252,67433,6,0,B|151:284|211:260|175:244|239:220|299:252,1,200,2|8,1:0|1:0,0:0:0:0:
396,304,67968,1,2,1:2:0:0:
412,304,68058,1,2,1:2:0:0:
428,304,68147,1,2,1:2:0:0:
460,192,68326,1,2,0:0:0:0:
460,192,68504,2,0,L|356:192,1,100,8|2,1:0|0:0,0:0:0:0:
176,120,68861,6,0,B|216:120|256:64|256:64|296:120|336:120,1,200,2|8,1:0|1:0,0:0:0:0:
256,232,69397,1,2,0:0:0:0:
256,232,69576,2,0,P|207:217|163:233,1,100,2|2,1:2|0:0,0:0:0:0:
2,333,69933,2,0,P|49:348|96:332,1,100,8|2,1:0|0:0,0:0:0:0:
176,120,70290,6,0,B|96:152|48:76|48:76|48:140,1,200,2|8,1:0|1:0,0:0:0:0:
256,232,70825,1,2,0:0:0:0:
256,232,71004,2,0,P|305:217|349:233,1,100,2|2,1:2|0:0,0:0:0:0:
509,333,71361,2,0,P|462:348|416:332,1,100,8|2,1:0|0:0,0:0:0:0:
333,119,71718,6,0,B|413:151|461:75|461:75|461:139,1,200,2|8,1:0|1:0,0:0:0:0:
449,233,72253,1,2,0:0:0:0:
449,233,72433,2,0,L|333:233,1,100,2|2,1:2|0:0,0:0:0:0:
176,120,72790,1,8,1:0:0:0:
333,119,72968,1,2,0:0:0:0:
208,48,73147,5,8,3:0:0:0:
208,48,73236,1,8,3:0:0:0:
304,48,73415,1,8,3:0:0:0:
304,48,73504,1,8,3:0:0:0:
256,176,73683,5,8,3:0:0:0:
256,184,73772,1,8,3:0:0:0:
256,192,73861,2,0,L|256:242,1,50,12|0,3:0|0:0,0:0:0:0:
256,320,74040,2,0,L|256:370,1,50,10|0,3:0|0:0,0:0:0:0:
256,184,74218,2,0,B|248:156|264:108|256:80,1,100,10|2,3:0|3:0,0:0:0:0:
52,12,74576,6,0,B|84:64|60:124|44:88|20:152|52:212,1,200,6|8,1:0|1:0,0:0:0:0:
144,368,75111,2,0,B|156:320|156:320|144:268,1,100,2|0,1:2|1:2,0:0:0:0:
112,156,75468,1,2,1:2:0:0:
257,77,75647,1,8,1:0:0:0:
402,156,75826,1,2,1:2:0:0:
462,12,76004,6,0,B|430:64|454:124|470:88|494:152|462:212,1,200,4|8,1:0|1:0,0:0:0:0:
370,368,76540,2,0,B|358:320|358:320|370:268,1,100,2|0,1:2|1:2,0:0:0:0:
402,156,76897,1,2,1:2:0:0:
256,76,77076,1,8,1:0:0:0:
112,156,77254,1,2,1:2:0:0:
256,236,77433,6,0,B|312:236|312:236|200:144,1,200,4|8,1:0|1:0,0:0:0:0:
36,76,77968,2,0,L|152:76,1,100,2|0,1:2|1:2,0:0:0:0:
256,76,78326,1,2,1:2:0:0:
376,76,78504,1,8,1:0:0:0:
256,76,78683,1,2,1:2:0:0:
256,236,78861,6,0,B|200:236|200:236|312:144,1,200,4|8,1:0|1:0,0:0:0:0:
472,192,79397,1,2,1:2:0:0:
472,216,79487,1,2,1:2:0:0:
472,240,79576,1,2,1:2:0:0:
473,76,79755,1,0,1:2:0:0:
473,76,79933,2,0,B|431:76|431:76|425:72|425:72|417:76|417:76|373:76,1,100,8|0,1:0|1:2,0:0:0:0:
176,262,80290,6,0,B|216:262|256:316|256:316|296:262|336:262,1,200,4|8,1:0|1:0,0:0:0:0:
303,113,80826,2,0,B|279:113|255:105|255:105|231:113|204:112,1,100,2|0,1:2|1:2,0:0:0:0:
176,262,81182,1,2,1:2:0:0:
205,113,81361,1,8,1:0:0:0:
56,84,81540,1,2,1:2:0:0:
29,235,81718,6,0,B|40:288|28:332|28:332|68:312|136:332,1,200,4|8,1:0|1:0,0:0:0:0:
256,199,82254,2,0,L|204:112,1,100,2|0,1:2|1:2,0:0:0:0:
336,262,82611,1,2,1:2:0:0:
307,113,82790,1,8,1:0:0:0:
456,84,82969,1,2,1:2:0:0:
483,235,83147,6,0,B|472:288|484:332|484:332|444:312|376:332,1,200,4|8,1:0|1:0,0:0:0:0:
256,199,83683,2,0,L|307:112,1,100,2|0,1:2|1:2,0:0:0:0:
176,185,84040,1,0,1:2:0:0:
116,292,84218,1,8,1:0:0:0:
4,248,84397,5,2,1:2:0:0:
4,228,84486,1,2,1:2:0:0:
2,209,84576,2,0,L|2:183,6,25,0|0|0|0|0|0|0,1:0|1:0|1:0|1:0|1:0|1:0|1:0,1:0:0:0:
92,192,84933,2,0,L|105:214,6,25,0|0|0|0|0|0|0,1:0|1:0|1:0|1:0|1:0|1:0|1:0,1:0:0:0:
163,143,85290,5,0,1:0:0:0:
163,143,85468,1,0,1:0:0:0:
199,65,85647,1,0,1:0:0:0:
199,65,85736,1,0,1:0:0:0:
199,65,85826,1,0,1:0:0:0:
199,65,85915,1,0,1:0:0:0:
199,65,86004,6,0,B|227:65|227:65|236:55|236:55|247:65|247:65|287:65,1,80,4|0,1:0|0:0,0:0:0:0:
384,172,86361,2,0,B|356:172|356:172|347:182|347:182|336:172|336:172|296:172,1,80,2|0,1:2|0:0,0:0:0:0:
292,172,86629,1,2,1:0:0:0:
272,172,86718,1,2,1:2:0:0:
192,228,86897,1,2,1:0:0:0:
272,284,87076,6,0,B|312:280|312:280|352:284,1,80,2|0,1:2|0:0,0:0:0:0:
392,312,87343,1,2,1:0:0:0:
352,340,87433,2,0,B|312:344|312:344|272:340,1,80,2|2,1:2|0:0,0:0:0:0:
192,228,87790,2,0,B|192:200|192:200|196:192|196:192|196:148,1,80,2|0,1:2|0:0,0:0:0:0:
156,120,88058,1,2,1:0:0:0:
116,148,88147,2,0,B|116:192|116:192|120:200|120:200|120:228,1,80,2|2,1:2|0:0,0:0:0:0:
4,144,88504,1,2,1:0:0:0:
4,124,88593,1,2,1:0:0:0:
4,104,88683,1,2,1:0:0:0:
120,227,88861,6,0,B|120:255|120:255|130:264|130:264|120:275|120:275|120:315,1,80,2|2,1:2|0:0,0:0:0:0:
256,344,89218,2,0,B|256:321|256:321|246:310|246:310|256:301|256:301|256:273,1,80,2|0,1:2|0:0,0:0:0:0:
256,252,89486,1,2,1:0:0:0:
256,232,89576,1,2,1:2:0:0:
256,112,89754,5,2,1:0:0:0:
416,24,89933,2,0,B|380:24|380:24|372:28|372:28|336:28,1,80,2|0,1:2|0:0,0:0:0:0:
316,28,90201,1,2,1:0:0:0:
296,28,90290,1,2,1:2:0:0:
180,28,90468,5,2,1:0:0:0:
256,112,90647,2,0,B|292:112|292:112|300:108|300:108|336:108,1,80,2|0,1:2|0:0,0:0:0:0:
356,108,90915,1,2,1:0:0:0:
376,108,91004,1,2,1:2:0:0:
460,192,91183,5,0,1:0:0:0:
472,192,91272,1,0,1:0:0:0:
484,192,91361,2,0,L|504:192,6,20,2|0|0|0|0|0|0,1:0|1:0|1:0|1:0|1:0|1:0|1:0,1:0:0:0:
368,192,91718,5,2,1:0:0:0:
348,192,91808,1,2,1:0:0:0:
328,192,91897,1,2,1:0:0:0:
256,288,92076,2,0,L|344:288,1,80,2|0,1:2|0:0,0:0:0:0:
356,288,92343,1,2,1:0:0:0:
376,288,92433,2,0,L|464:288,1,80,2|2,1:2|0:0,0:0:0:0:
256,288,92790,6,0,L|168:288,1,80,2|0,1:2|0:0,0:0:0:0:
156,288,93057,1,2,1:0:0:0:
136,288,93147,1,2,1:2:0:0:
116,288,93236,1,2,1:0:0:0:
96,288,93326,1,2,1:0:0:0:
164,192,93504,6,0,B|176:152|176:152|164:116,1,80,2|0,1:2|0:0,0:0:0:0:
156,96,93771,1,2,1:0:0:0:
148,76,93861,2,0,B|136:36|136:36|148:0,1,80,2|2,1:2|0:0,0:0:0:0:
40,52,94218,2,0,L|40:100,2,40,2|2|2,1:2|1:0|1:0,0:0:0:0:
164,192,94576,5,2,1:0:0:0:
196,192,94665,1,2,1:0:0:0:
228,192,94754,1,2,1:0:0:0:
336,308,94933,2,0,L|256:308,1,80,2|0,1:2|0:0,0:0:0:0:
224,308,95201,1,2,1:0:0:0:
192,308,95290,1,2,1:2:0:0:
160,308,95379,1,2,1:0:0:0:
128,308,95468,1,2,1:0:0:0:
196,192,95647,5,2,1:2:0:0:
336,192,95826,1,0,0:0:0:0:
336,216,95915,1,2,1:0:0:0:
336,240,96004,2,0,L|336:284,3,40,2|2|2|2,1:2|1:0|1:0|1:0,0:0:0:0:
448,232,96361,2,0,L|448:188,3,40,2|2|2|2,1:2|1:0|1:0|1:0,0:0:0:0:
392,120,96718,1,2,1:2:0:0:
392,120,96897,1,2,1:2:0:0:
160,48,97433,5,4,1:0:0:0:
160,48,97790,1,8,0:0:0:0:
260,152,98147,1,4,3:0:0:0:
160,256,98504,2,0,L|40:256,1,119.999996337891,8|4,0:0|3:0,0:0:0:0:
160,256,99218,2,0,L|287:256,1,119.999996337891,8|4,0:0|3:0,0:0:0:0:
380,360,99932,1,8,0:0:0:0:
480,256,100290,6,0,P|496:192|480:132,2,119.999996337891,4|8|4,3:0|0:0|3:0,0:0:0:0:
380,360,101361,1,8,0:0:0:0:
280,256,101718,2,0,P|264:192|280:132,1,119.999996337891,4|8,3:0|0:0,0:0:0:0:
375,36,102433,1,4,3:0:0:0:
232,40,102790,1,4,3:0:0:0:
232,40,102968,1,2,0:0:0:0:
232,40,103147,1,4,3:0:0:0:
128,140,103504,1,8,0:0:0:0:
128,140,103861,1,4,3:0:0:0:
232,40,104218,6,0,L|105:40,1,119.999996337891,8|4,0:0|3:0,0:0:0:0:
12,140,104933,1,8,0:0:0:0:
12,140,105290,1,4,3:0:0:0:
156,140,105647,1,8,0:0:0:0:
84,264,106004,5,4,3:0:0:0:
84,264,106183,1,4,3:0:0:0:
84,264,106361,2,0,L|134:314,1,59.9999981689454,8|4,0:0|3:0,0:0:0:0:
260,264,106718,1,4,3:0:0:0:
260,264,106897,1,4,3:0:0:0:
260,264,107075,2,0,L|209:314,1,59.9999981689454,8|4,0:0|3:0,0:0:0:0:
172,192,107433,5,4,3:0:0:0:
172,176,107522,1,4,3:0:0:0:
172,160,107611,1,4,3:0:0:0:
256,68,107790,1,4,3:0:0:0:
256,84,107879,1,4,3:0:0:0:
256,100,107968,1,2,1:2:0:0:
256,116,108058,1,2,1:2:0:0:
256,132,108147,2,0,L|256:156,6,14.9999995422363,0|0|0|0|0|0|0,1:0|1:0|1:0|1:0|1:0|1:0|1:0,1:0:0:0:
368,80,108504,2,0,L|368:53,6,14.9999995422363,0|0|0|0|0|0|0,1:0|1:0|1:0|1:0|1:0|1:0|1:0,1:0:0:0:
488,80,108861,6,0,B|488:109|488:109|480:119|480:119|488:129|488:129|488:169,1,80,4|0,1:0|0:0,0:0:0:0:
372,267,109218,2,0,B|372:241|372:241|380:231|380:231|372:221|372:221|372:192,1,80,0|0,1:2|0:0,0:0:0:0:
256,80,109576,2,0,B|256:109|256:109|264:119|264:119|256:129|256:129|256:154,1,80,0|0,1:2|0:0,0:0:0:0:
140,268,109933,2,0,B|140:242|140:242|132:232|132:232|140:222|140:222|140:193,1,80,2|0,1:2|0:0,0:0:0:0:
24,80,110290,2,0,B|24:136|44:156|44:156|24:176|24:240,1,160,2|0,1:2|1:2,0:0:0:0:
256,300,111004,2,0,B|296:308|296:308|336:300,1,80,0|0,1:2|0:0,0:0:0:0:
468,192,111361,6,0,L|388:192,1,80,2|0,1:2|0:0,0:0:0:0:
216,116,111718,2,0,L|296:116,1,80,2|0,1:2|0:0,0:0:0:0:
124,192,112076,2,0,L|44:192,1,80,2|0,1:2|0:0,0:0:0:0:
216,116,112433,2,0,L|296:116,1,80,2|0,1:2|0:0,0:0:0:0:
468,40,112790,2,0,L|388:40,1,80,2|0,1:2|0:0,0:0:0:0:
124,40,113147,2,0,B|48:40|48:40|80:120,1,160,2|0,1:2|1:2,0:0:0:0:
256,276,113861,6,0,B|264:316|264:316|256:354,1,80,2|0,1:2|0:0,0:0:0:0:
172,192,114218,1,2,1:2:0:0:
256,108,114397,1,2,1:2:0:0:
342,192,114576,6,0,B|413:205|413:205|409:213|409:213|405:205|405:205|473:193,1,160,2|10,1:0|1:0,0:0:0:0:
408,92,115111,1,2,0:0:0:0:
508,24,115290,1,2,1:2:0:0:
408,92,115468,1,2,0:0:0:0:
342,192,115647,1,8,1:0:0:0:
257,109,115826,1,2,0:0:0:0:
172,192,116004,6,0,B|101:205|101:205|105:213|105:213|109:205|109:205|41:193,1,160,2|8,1:0|1:0,0:0:0:0:
104,92,116540,1,2,0:0:0:0:
4,24,116719,1,2,1:2:0:0:
104,92,116897,1,0,0:0:0:0:
40,192,117076,1,8,1:0:0:0:
40,312,117254,1,2,0:0:0:0:
144,252,117433,6,0,L|220:296,1,80,2|2,1:0|0:0,0:0:0:0:
368,252,117790,2,0,L|298:292,1,80,8|2,1:0|0:0,0:0:0:0:
256,180,118147,2,0,L|256:16,1,160,2|8,1:0|1:0,0:0:0:0:
368,252,118683,1,2,0:0:0:0:
144,252,118861,5,8,3:0:0:0:
124,252,118951,1,8,3:0:0:0:
104,252,119040,1,8,3:0:0:0:
368,252,119218,1,2,3:0:0:0:
204,320,119397,2,0,L|176:320,4,20,0|0|0|0|0,3:0|3:0|3:0|3:0|3:0,3:0:0:0:
304,324,119754,5,2,3:0:0:0:
324,324,119843,1,2,3:0:0:0:
344,324,119933,2,0,L|376:324,6,20,0|0|0|0|0|0|0,3:0|3:0|3:0|3:0|3:0|3:0|3:0,3:0:0:0:
256,248,120290,5,4,1:0:0:0:
256,248,121718,5,6,3:0:0:0:
468,192,133147,6,0,P|432:184|400:192,1,69.9999978637696,4|0,1:0|0:0,0:0:0:0:
328,268,133504,1,8,3:0:0:0:
328,268,133683,1,4,3:0:0:0:
256,345,133861,2,0,P|188:357|116:345,1,139.999995727539,4|8,3:0|3:0,0:0:0:0:
48,268,134397,1,4,3:0:0:0:
48,60,134754,1,4,3:0:0:0:
48,60,134933,2,0,L|48:136,1,69.9999978637696,8|4,3:0|3:0,0:0:0:0:
128,252,135290,6,0,L|128:183,1,69.9999978637696,4|8,3:0|3:0,0:0:0:0:
132,64,135647,1,8,3:0:0:0:
132,64,135826,1,8,3:0:0:0:
132,64,136004,2,0,P|192:32|256:64,1,139.999995727539,4|8,3:0|3:0,0:0:0:0:
352,40,136540,1,4,3:0:0:0:
352,40,136718,2,0,L|352:184,1,139.999995727539,4|8,3:0|3:0,0:0:0:0:
352,284,137254,1,4,3:0:0:0:
160,360,137611,1,4,3:0:0:0:
160,360,137790,2,0,L|244:360,1,69.9999978637696,8|4,3:0|3:0,0:0:0:0:
352,284,138147,6,0,P|386:292|420:284,2,69.9999978637696,8|2|8,3:0|0:0|3:0,0:0:0:0:
256,236,138683,1,2,0:0:0:0:
256,236,138861,2,0,L|256:80,1,139.999995727539,4|8,3:0|3:0,0:0:0:0:
180,24,139397,1,4,3:0:0:0:
104,96,139576,6,0,L|104:166,1,69.9999978637696,4|0,3:0|0:0,0:0:0:0:
100,272,139933,1,8,3:0:0:0:
100,272,140111,1,4,3:0:0:0:
256,96,140468,1,4,3:0:0:0:
256,96,140647,2,0,L|328:96,1,69.9999978637696,8|4,3:0|3:0,0:0:0:0:
474,164,141004,2,0,L|404:164,2,69.9999978637696,4|2|4,3:0|0:0|3:0,0:0:0:0:
404,28,141540,5,0,0:0:0:0:
326,96,141718,2,0,B|338:130|326:170|314:146|298:194|322:234,1,139.999995727539,4|4,3:0|3:0,0:0:0:0:
380,320,142254,1,4,3:0:0:0:
380,320,142433,2,0,P|320:352|256:320,1,139.999995727539,8|8,3:0|3:0,0:0:0:0:
152,252,142968,5,2,1:0:0:0:
136,252,143058,1,2,1:0:0:0:
120,252,143147,2,0,L|102:251,6,17.4999994659424,0|0|0|0|0|0|0,1:0|1:0|1:0|1:0|1:0|1:0|1:0,1:0:0:0:
220,192,143504,2,0,L|237:192,6,17.4999994659424,0|0|0|0|0|0|0,1:0|1:0|1:0|1:0|1:0|1:0|1:0,1:0:0:0:
322,132,143861,2,0,L|305:132,6,17.4999994659424,0|0|0|0|0|0|0,1:0|1:0|1:0|1:0|1:0|1:0|1:0,1:0:0:0:
390,72,144218,2,0,L|407:72,6,17.4999994659424,0|0|0|0|0|0|0,1:0|1:0|1:0|1:0|1:0|1:0|1:0,1:0:0:0:
480,192,144576,6,0,B|420:204|420:204|360:192,1,119.999996337891,4|8,1:0|0:0,0:0:0:0:
292,140,145111,2,0,B|282:112|282:112|294:80,1,59.9999981689454,2|8,0:0|0:0,0:0:0:0:
360,20,145468,1,2,0:0:0:0:
360,20,145647,2,0,B|388:10|388:10|420:22,1,59.9999981689454,8|2,0:0|0:0,0:0:0:0:
292,83,146004,2,0,L|232:83,1,59.9999981689454,8|0,0:0|0:0,0:0:0:0:
157,17,146361,1,8,0:0:0:0:
157,17,146540,2,0,L|111:62,1,59.9999981689454,2|8,0:0|0:0,0:0:0:0:
56,124,146897,1,2,0:0:0:0:
116,192,147076,5,10,0:0:0:0:
88,276,147254,1,10,0:0:0:0:
176,260,147433,1,10,0:0:0:0:
116,60,147789,5,8,0:0:0:0:
116,60,147968,2,0,L|161:14,1,59.9999981689454,2|8,0:0|0:0,0:0:0:0:
56,124,148326,1,2,0:0:0:0:
116,192,148504,1,8,0:0:0:0:
60,260,148683,1,2,0:0:0:0:
120,328,148861,2,0,P|177:344|234:329,1,119.999996337891,8|8,0:0|0:0,0:0:0:0:
304,272,149397,5,8,0:0:0:0:
304,256,149486,1,8,0:0:0:0:
304,240,149576,1,8,0:0:0:0:
368,176,149754,1,8,0:0:0:0:
436,236,149933,2,0,L|436:312,1,59.9999981689454,8|8,0:0|0:0,0:0:0:0:
368,356,150290,5,12,0:3:0:0:
304,240,150468,1,4,0:3:0:0:
304,256,150558,1,4,0:3:0:0:
304,272,150647,1,4,0:3:0:0:
436,236,150826,2,0,L|436:160,1,59.9999981689454,2|8,0:0|0:0,0:0:0:0:
384,104,151183,1,2,0:0:0:0:
332,176,151361,1,12,3:0:0:0:
280,104,151540,1,2,0:0:0:0:
228,32,151718,5,12,3:0:0:0:
212,32,151808,1,4,3:0:0:0:
196,32,151897,1,4,3:0:0:0:
180,32,151986,1,4,3:0:0:0:
164,32,152076,1,4,3:0:0:0:
56,36,152254,5,12,3:0:0:0:
112,128,152433,1,8,3:0:0:0:
112,148,152522,1,4,3:0:0:0:
112,164,152611,1,4,3:0:0:0:
112,180,152701,1,4,3:0:0:0:
112,196,152790,2,0,L|112:232,1,29.9999990844727,12|4,3:0|3:0,0:0:0:0:
136,341,152968,6,0,L|136:356,4,14.9999995422363,0|0|0|0|0,1:0|1:0|1:0|1:0|1:0,1:0:0:0:
196,244,153326,2,0,L|196:229,4,14.9999995422363,0|0|0|0|0,1:0|1:0|1:0|1:0|1:0,1:0:0:0:
256,341,153683,2,0,L|256:356,4,14.9999995422363,0|0|0|0|0,1:0|1:0|1:0|1:0|1:0,1:0:0:0:
316,244,154040,2,0,L|316:229,4,14.9999995422363,0|0|0|0|0,1:0|1:0|1:0|1:0|1:0,1:0:0:0:
376,341,154397,2,0,L|376:356,4,14.9999995422363,0|0|0|0|0,1:0|1:0|1:0|1:0|1:0,1:0:0:0:
256,356,154933,5,8,3:0:0:0:
256,268,155111,1,8,3:0:0:0:
256,244,155201,1,8,3:0:0:0:
256,220,155290,1,12,3:0:0:0:
256,132,155468,1,10,3:0:0:0:
256,132,155647,2,0,L|256:64,1,59.9999981689454,10|2,3:0|3:0,0:0:0:0:
464,12,156004,6,0,B|420:64|464:128|464:128|388:128,1,200,6|8,1:0|1:0,0:0:0:0:
136,192,156540,1,2,0:0:0:0:
136,192,156718,2,0,B|136:216|136:216|128:240|128:240|136:264|136:264|136:292,1,100,2|2,1:2|0:0,0:0:0:0:
256,192,157076,2,0,B|256:168|256:168|264:144|264:144|256:120|256:120|256:92,1,100,8|2,1:0|0:0,0:0:0:0:
390,128,157433,6,0,B|414:184|390:224|390:224|414:272|390:320,1,200,2|8,1:0|1:0,0:0:0:0:
204,272,157968,1,2,0:0:0:0:
204,272,158147,2,0,P|256:280|304:272,1,100,2|2,1:2|0:0,0:0:0:0:
390,128,158504,2,0,P|338:120|290:128,1,100,8|2,1:0|0:0,0:0:0:0:
122,320,158861,6,0,B|98:272|122:224|122:224|98:184|122:128,1,200,2|8,1:0|1:0,0:0:0:0:
308,176,159397,1,2,0:0:0:0:
308,176,159576,2,0,B|256:184|256:184|208:176,1,100,2|2,1:2|0:0,0:0:0:0:
122,320,159933,1,8,1:0:0:0:
209,176,160111,1,2,0:0:0:0:
122,320,160290,6,0,B|70:276|6:320|6:320|6:244,1,200,2|8,1:0|1:0,0:0:0:0:
76,152,160825,1,2,1:2:0:0:
100,152,160915,1,2,1:2:0:0:
124,152,161004,1,2,1:2:0:0:
204,64,161183,1,2,0:0:0:0:
204,64,161361,2,0,B|252:64|252:64|260:72|260:72|304:72,1,100,8|2,1:0|0:0,0:0:0:0:
336,272,161718,6,0,B|316:316|256:328|256:328|196:316|176:272,1,200,2|8,1:0|1:0,0:0:0:0:
76,152,162254,1,2,0:0:0:0:
76,152,162433,2,0,B|80:180|80:180|68:228|68:228|76:256,1,100,2|2,1:2|0:0,0:0:0:0:
202,161,162790,2,0,B|198:133|198:133|210:85|210:85|202:57,1,100,8|2,1:0|0:0,0:0:0:0:
74,249,163147,6,0,P|138:313|202:249,1,200,2|8,1:0|1:0,0:0:0:0:
436,152,163683,1,2,0:0:0:0:
436,152,163862,2,0,B|432:180|432:180|444:228|444:228|436:256,1,100,2|2,1:2|0:0,0:0:0:0:
310,161,164218,2,0,B|314:133|314:133|302:85|302:85|310:57,1,100,8|2,1:0|0:0,0:0:0:0:
438,249,164576,6,0,P|374:313|310:249,1,200,2|8,1:0|1:0,0:0:0:0:
449,151,165110,1,2,0:0:0:0:
449,151,165290,2,0,L|333:151,1,100,2|2,1:2|0:0,0:0:0:0:
203,63,165647,1,8,1:0:0:0:
310,249,165825,1,2,0:0:0:0:
349,151,166004,5,8,3:0:0:0:
349,151,166093,1,8,3:0:0:0:
308,64,166272,1,8,3:0:0:0:
308,64,166361,1,8,3:0:0:0:
260,192,166540,5,8,3:0:0:0:
268,192,166629,1,8,3:0:0:0:
276,192,166718,2,0,L|326:192,1,50,12|0,3:0|0:0,0:0:0:0:
458,192,166897,2,0,L|408:192,1,50,10|0,3:0|0:0,0:0:0:0:
260,192,167076,2,0,B|224:196|224:196|204:188|204:188|160:192,1,100,10|2,3:0|3:0,0:0:0:0:
48,372,167433,6,0,B|92:320|48:256|48:256|124:256,1,200,6|8,1:0|1:0,0:0:0:0:
326,192,167968,2,0,B|326:292,1,100,2|0,1:2|1:2,0:0:0:0:
161,191,168325,1,2,1:2:0:0:
326,292,168504,1,8,1:0:0:0:
491,191,168683,1,2,1:2:0:0:
464,372,168861,6,0,B|420:320|464:256|464:256|388:256,1,200,6|8,1:0|1:0,0:0:0:0:
186,192,169397,2,0,B|186:292,1,100,2|0,1:2|1:2,0:0:0:0:
351,191,169753,1,2,1:2:0:0:
186,292,169932,1,8,1:0:0:0:
21,191,170111,1,2,1:2:0:0:
185,87,170290,6,0,B|229:63|257:15|257:15|285:63|321:87,1,200,6|8,1:0|1:0,0:0:0:0:
390,256,170826,2,0,B|390:214|390:214|394:206|394:206|390:198|390:198|389:157,1,100,2|0,1:2|1:2,0:0:0:0:
388,36,171183,1,2,1:2:0:0:
492,96,171361,1,8,1:0:0:0:
389,157,171540,1,2,1:2:0:0:
284,96,171718,6,0,B|224:88|224:88|216:96|216:96|160:88|160:88|152:96|152:96|88:96,1,200,6|8,1:0|1:0,0:0:0:0:
20,240,172254,1,2,1:2:0:0:
20,216,172344,1,2,1:2:0:0:
20,192,172433,1,2,1:2:0:0:
121,256,172611,1,0,1:2:0:0:
121,256,172790,2,0,B|121:298|121:298|125:304|125:304|121:312|121:312|121:356,1,100,8|0,1:0|1:2,0:0:0:0:
176,112,173147,6,0,B|196:68|256:56|256:56|316:72|336:112,1,200,6|8,1:0|1:0,0:0:0:0:
304,268,173682,2,0,B|280:284|256:276|256:276|232:284|208:268,1,100,2|0,1:2|1:2,0:0:0:0:
20,192,174040,1,2,1:2:0:0:
176,112,174218,1,8,1:0:0:0:
256,272,174397,1,2,1:2:0:0:
412,192,174576,6,0,B|358:162|349:99|380:122|369:54|312:18,1,200,6|8,1:0|1:0,0:0:0:0:
102,26,175111,2,0,B|120:35|160:31|140:20|176:16|200:24,1,100,2|0,1:2|1:2,0:0:0:0:
492,192,175468,1,2,1:2:0:0:
336,112,175647,1,8,1:0:0:0:
256,272,175826,1,2,1:2:0:0:
100,192,176004,6,0,B|153:162|162:99|131:122|142:54|200:18,1,200,6|8,1:0|1:0,0:0:0:0:
410,27,176540,2,0,B|392:36|352:32|372:20|336:16|312:24,1,100,2|0,1:2|1:2,0:0:0:0:
256,132,176897,1,0,1:2:0:0:
256,252,177076,1,8,1:0:0:0:
256,372,177254,5,2,1:2:0:0:
272,372,177343,1,2,1:2:0:0:
288,372,177433,2,0,L|314:372,6,25,0|0|0|0|0|0|0,1:0|1:0|1:0|1:0|1:0|1:0|1:0,1:0:0:0:
348,300,177790,2,0,L|326:287,6,25,0|0|0|0|0|0|0,1:0|1:0|1:0|1:0|1:0|1:0|1:0,1:0:0:0:
400,231,178147,2,0,L|413:254,6,25,0|0|0|0|0|0|0,1:0|1:0|1:0|1:0|1:0|1:0|1:0,1:0:0:0:
492,246,178504,2,0,L|492:220,6,25,0|0|0|0|0|0|0,1:0|1:0|1:0|1:0|1:0|1:0|1:0,1:0:0:0:
440,144,178861,5,4,1:0:0:0:
