osu file format v14

[General]
AudioFilename: audio.mp3
AudioLeadIn: 0
PreviewTime: 24642
Countdown: 0
SampleSet: Normal
StackLeniency: 0.4
Mode: 0
LetterboxInBreaks: 0
SkinPreference:Default
EpilepsyWarning: 1
WidescreenStoryboard: 1

[Editor]
Bookmarks: 2418,49739,60555,83540
DistanceSpacing: 1.3
BeatDivisor: 4
GridSize: 4
TimelineZoom: 1.6

[Metadata]
Title:Miracle (Nightcore & Cut Ver.)
TitleUnicode:Miracle (Nightcore & Cut Ver.)
Artist:Cascada
ArtistUnicode:Cascada
Creator:Gero
Version:Easy
Source:
Tags:English Eurotrance Techno Trance EDM Electronic Dance Music Dance-Pop Hardstyle Speed Up Happy Hardcore Hands Up! Up Dance Rave Party Everytime We Touch -Ady
BeatmapID:3191957
BeatmapSetID:1542705

[Difficulty]
HPDrainRate:2
CircleSize:3
OverallDifficulty:2
ApproachRate:3
SliderMultiplier:0.8
SliderTickRate:2

[Events]
//Background and Video events
0,0,"BG.jpg",0,0
//Break Periods
2,49939,59115
//Storyboard Layer 0 (Background)
//Storyboard Layer 1 (Fail)
//Storyboard Layer 2 (Pass)
//Storyboard Layer 3 (Foreground)
//Storyboard Layer 4 (Overlay)
//Storyboard Sound Samples

[TimingPoints]
2418,338.009126246409,4,2,1,50,1,0
2418,-100,4,2,1,50,0,0
13234,-100,4,2,1,50,0,0
25402,-100,4,1,1,70,0,1
36134,-100,4,1,1,70,0,0
36218,-100,4,1,1,70,0,1
45683,-100,4,1,1,50,0,1
46359,-100,4,1,1,70,0,1
47035,-100,4,2,1,70,0,0
48387,-100,4,2,1,30,0,0
49739,-100,4,2,1,60,0,0
60555,-100,4,1,1,70,0,1
60640,-100,4,1,1,70,0,0
71371,-100,4,1,1,70,0,1
80836,-100,4,1,1,60,0,1
81174,-100,4,1,1,55,0,1
81512,-100,4,1,1,50,0,1
81850,-100,4,1,1,45,0,1
82188,-100,4,1,1,40,0,0
82272,-100,4,2,1,5,0,0

[Colours]
Combo1 : 234,109,68
Combo2 : 150,177,199
Combo3 : 185,185,185
Combo4 : 236,198,147
Combo5 : 190,211,124
Combo6 : 253,123,123
Combo7 : 248,186,156
Combo8 : 255,40,40
SliderBorder : 182,182,182
SliderTrackOverride : 182,182,182

[HitObjects]
308,152,2418,6,0,B|308:256|204:256|204:360,1,240,4|2,1:0|0:0,0:0:0:0:
308,360,3770,2,0,B|308:256|204:256|204:152,1,240,2|2,0:0|0:0,0:0:0:0:
204,48,5122,2,0,B|219:8|219:8|293:8|293:8|308:48,2,160,0|2|2,0:0|0:0|0:0,0:0:0:0:
52,192,7150,1,0,0:0:0:0:
204,336,7826,6,0,B|288:336|288:336|336:336|388:304|399:244,1,240,2|2,0:0|0:0,0:0:0:0:
399,139,9178,2,0,B|388:80|336:48|288:48|288:48|204:48,1,240,2|2,0:0|0:0,0:0:0:0:
128,120,10530,2,0,P|98:192|128:264,2,160,2|2|2,0:0|0:0|0:0,0:0:0:0:
324,192,12558,1,8,3:0:0:0:
128,264,13234,6,0,B|128:344|128:344|208:344,1,160,4|4,1:0|3:0,0:0:0:0:
256,252,14248,1,8,0:0:0:0:
304,344,14586,2,0,B|384:344|384:344|384:264,1,160,2|4,0:0|3:0,0:0:0:0:
460,192,15600,1,8,0:0:0:0:
384,120,15938,2,0,L|384:40,1,80,4|8,3:0|0:0,0:0:0:0:
280,40,16614,2,0,B|256:72|256:72|232:40,1,80,4|8,3:0|0:0,0:0:0:0:
128,40,17290,6,0,P|172:105|198:181,1,160,2|8,0:0|0:0,0:0:0:0:
256,268,18304,1,8,0:0:0:0:
313,181,18642,2,0,P|339:105|383:40,1,160,4|4,3:0|3:0,0:0:0:0:
487,40,19656,1,8,0:0:0:0:
487,144,19994,70,0,P|401:192|487:240,1,240,2|8,0:0|0:0,0:0:0:0:
487,344,21346,2,0,B|447:347|447:347|407:344,1,80,4|8,3:0|0:0,0:0:0:0:
303,344,22022,2,0,B|263:341|263:341|223:344,1,80,4|8,3:0|0:0,0:0:0:0:
171,343,22529,2,0,B|73:192|73:192|171:41,1,360,4|4,3:0|1:0,0:0:0:0:
171,41,25402,6,0,B|208:64|208:120|208:120|208:188,1,160,4|2,0:0|0:2,0:0:0:0:
256,280,26416,1,2,0:2:0:0:
304,188,26754,2,0,B|304:120|304:120|304:64|341:41,1,160,0|2,0:0|0:2,0:0:0:0:
444,41,27768,1,2,0:2:0:0:
444,144,28106,2,0,B|444:184|444:184|472:212,1,80,0|2,1:0|0:2,0:0:0:0:
396,280,28782,2,0,P|340:298|284:280,2,120,2|2|2,0:2|3:2|0:2,0:0:0:0:
473,348,30134,1,2,0:2:0:0:
340,188,30810,6,0,B|316:148|332:112|340:112|348:112|364:76|340:36,1,160,0|2,0:0|0:2,0:0:0:0:
256,96,31824,1,2,0:2:0:0:
172,36,32162,2,0,B|148:76|164:112|172:112|180:112|196:148|172:188,1,160,0|2,0:0|0:2,0:0:0:0:
256,252,33176,1,2,0:2:0:0:
340,188,33514,2,0,P|256:78|172:188,1,320,0|2,0:0|0:2,0:0:0:0:
256,380,35542,1,6,3:0:0:0:
340,188,36218,6,0,B|380:188|380:188|408:216,1,80,4|8,0:0|0:0,0:0:0:0:
481,142,36894,1,2,0:2:0:0:
407,68,37232,1,8,0:0:0:0:
303,68,37570,2,0,B|256:133|256:133|209:68,1,160,0|2,0:0|0:2,0:0:0:0:
105,68,38584,1,8,0:0:0:0:
31,142,38922,69,0,0:0:0:0:
103,216,39260,2,0,B|132:188|132:188|172:188,1,80,8|2,0:0|0:2,0:0:0:0:
256,252,39937,1,8,0:0:0:0:
340,188,40275,2,0,B|380:188|380:188|408:216,2,80,0|8|2,0:0|0:0|0:2,0:0:0:0:
256,124,41289,1,8,0:0:0:0:
172,188,41627,6,0,B|172:256|172:256|176:268|176:268|180:280|180:280|180:346,1,160,0|2,0:0|0:2,0:0:0:0:
256,276,42641,1,8,0:0:0:0:
332,346,42979,2,0,B|332:280|332:280|336:268|336:268|340:256|340:256|340:188,1,160,0|2,0:0|0:2,0:0:0:0:
413,114,43993,1,8,0:0:0:0:
340,40,44331,5,4,0:0:0:0:
200,192,45007,1,2,0:2:0:0:
340,344,45683,2,0,P|384:192|340:40,1,320,4|4,1:0|1:0,0:0:0:0:
256,192,47119,12,4,48387,3:0:0:0:
256,192,49739,5,4,1:0:0:0:
256,192,60555,6,0,B|280:116|280:116|256:40,1,160,6|0,0:0|0:0,0:0:0:0:
184,116,61569,1,8,0:0:0:0:
112,40,61907,2,0,B|88:116|88:116|112:192,2,160,2|0|2,0:0|0:0|0:0,0:0:0:0:
256,192,63935,1,0,0:0:0:0:
400,40,64611,2,0,B|424:116|424:116|400:192,1,160,2|0,0:0|0:0,0:0:0:0:
328,268,65625,1,8,0:0:0:0:
256,192,65963,6,0,B|232:116|232:116|256:40,1,160,2|0,0:0|0:0,0:0:0:0:
328,116,66977,1,8,0:0:0:0:
400,40,67315,2,0,B|424:116|424:116|400:192,2,160,2|0|2,0:0|0:0|0:0,0:0:0:0:
256,192,69343,1,0,0:0:0:0:
112,40,70019,2,0,B|88:116|88:116|112:192,1,160,8|12,3:0|3:0,0:0:0:0:
184,268,71033,1,10,3:0:0:0:
256,192,71371,6,0,B|292:175|292:175|328:192,1,80,4|8,0:0|0:0,0:0:0:0:
400,116,72047,2,0,B|436:133|436:133|472:116,1,80,2|8,0:2|0:0,0:0:0:0:
436,20,72723,2,0,B|356:20|356:20|305:82,1,160,4|2,0:0|0:2,0:0:0:0:
256,172,73737,1,8,0:0:0:0:
206,82,74075,2,0,B|156:20|156:20|76:20,1,160,4|2,0:0|0:2,0:0:0:0:
39,115,75089,1,8,0:0:0:0:
75,209,75427,2,0,P|152:210|198:271,1,160,4|2,0:0|0:2,0:0:0:0:
256,360,76441,1,8,0:0:0:0:
313,271,76780,6,0,B|369:249|369:249|425:271,2,120,4|2|8,0:0|0:2|0:0,0:0:0:0:
256,182,78132,2,0,L|256:52,2,120,4|2|8,0:0|0:2|0:0,0:0:0:0:
199,271,79484,2,0,B|143:249|143:249|87:271,2,120,4|2|2,0:0|0:2|0:2,0:0:0:0:
256,360,80836,101,0,0:0:0:0:
380,192,81512,1,0,0:0:0:0:
256,24,82188,5,4,0:0:0:0:
256,192,82272,12,0,83540,0:0:0:0:
