osu file format v14

[General]
AudioFilename: audio.mp3
AudioLeadIn: 0
PreviewTime: 6437
Countdown: 0
SampleSet: Soft
StackLeniency: 0.7
Mode: 0
LetterboxInBreaks: 0
WidescreenStoryboard: 0

[Editor]
Bookmarks: 24357,63574,77677
DistanceSpacing: 1.5
BeatDivisor: 3
GridSize: 8
TimelineZoom: 3.699998

[Metadata]
Title:Let It Snow
TitleUnicode:Let It Snow
Artist:Cascada
ArtistUnicode:Cascada
Creator:TheMefisto
Version:Let It Snow! Let It Snow! Let It Snow!
Source:
Tags:It's Christmas Time -Bakari- Rmdy Marmowka
BeatmapID:1140365
BeatmapSetID:538313

[Difficulty]
HPDrainRate:6
CircleSize:4.5
OverallDifficulty:7
ApproachRate:7.5
SliderMultiplier:1.6
SliderTickRate:1

[Events]
//Background and Video events
0,0,"Sneg.jpg",0,0
//Break Periods
//Storyboard Layer 0 (Background)
//Storyboard Layer 1 (Fail)
//Storyboard Layer 2 (Pass)
//Storyboard Layer 3 (Foreground)
//Storyboard Sound Samples

[TimingPoints]
7172,440.658049353702,4,2,1,60,1,0
13341,-166.666666666667,4,2,1,60,0,0
13781,-100,4,2,1,60,0,0
17747,-100,4,2,1,60,0,1
17821,-100,4,2,1,60,0,0
18629,-100,4,2,1,60,0,1
18702,-100,4,2,1,60,0,0
19510,-100,4,2,1,60,0,1
19583,-100,4,2,1,60,0,0
20097,-100,4,2,1,20,0,0
20171,-100,4,2,1,60,0,0
27442,-166.666666666667,4,2,1,60,0,0
27882,-100,4,2,1,60,0,0
31848,-100,4,2,1,60,0,1
31922,-100,4,2,1,60,0,0
32730,-100,4,2,1,60,0,1
32803,-100,4,2,1,60,0,0
33611,-100,4,2,1,60,0,1
33684,-100,4,2,1,60,0,0
34199,-100,4,2,1,20,0,0
34272,-100,4,2,1,60,0,0
55644,-166.666666666667,4,2,1,60,0,0
56085,-100,4,2,1,60,0,0
60050,-100,4,2,1,60,0,1
60124,-100,4,2,1,60,0,0
60932,-100,4,2,1,60,0,1
61005,-100,4,2,1,60,0,0
61813,-100,4,2,1,60,0,1
61887,-100,4,2,1,60,0,0
62401,-100,4,2,1,20,0,0
62474,-100,4,2,1,60,0,0
63576,-86.9565217391304,4,2,1,60,0,0
77677,-100,4,2,1,60,0,0
97947,-166.666666666667,4,2,1,60,0,0
98388,-100,4,2,1,60,0,0
102354,-100,4,2,1,60,0,1
102427,-100,4,2,1,60,0,0
104116,-100,4,2,1,60,0,1
104190,-100,4,2,1,60,0,0
105879,-100,4,2,1,60,0,1
105952,-100,4,2,1,60,0,0

[Colours]
Combo1 : 136,205,251
Combo2 : 180,164,236
Combo3 : 108,105,214

[HitObjects]
333,111,7171,6,0,P|281:135|269:199,1,106.666666666667,8|0,0:0|0:0,0:0:0:0:
294,259,7612,1,0,0:0:0:0:
250,55,8053,2,0,L|136:38,1,106.666666666667,8|0,0:0|0:0,0:0:0:0:
78,88,8493,1,0,0:0:0:0:
169,232,8787,1,0,0:0:0:0:
200,247,8934,6,0,L|230:352,1,106.666666666667,8|0,0:0|0:0,0:0:0:0:
310,366,9375,1,0,0:0:0:0:
148,332,9669,1,0,0:0:0:0:
117,317,9815,2,0,L|87:214,1,106.666666666667,8|0,0:0|0:0,0:0:0:0:
111,134,10256,2,0,P|133:88|119:31,1,106.666666666667
201,95,10697,22,0,P|243:136|294:137,1,106.666666666667,8|0,0:0|0:0,0:0:0:0:
362,113,11137,2,0,P|412:101|459:124,1,106.666666666667
403,181,11578,2,0,P|388:229|377:305,1,106.666666666667,8|0,0:0|0:0,0:0:0:0:
414,362,12019,1,0,0:0:0:0:
260,279,12313,1,0,0:0:0:0:
275,247,12459,6,0,P|266:194|250:143,1,106.666666666667,8|0,0:0|0:0,0:0:0:0:
169,155,12900,2,0,P|113:158|67:122,1,106.666666666667
5,67,13341,6,0,P|22:110|13:157,1,95.9999970703126,2|0,0:1|0:0,0:0:0:0:
32,284,14222,6,0,P|63:333|133:344,1,106.666666666667,8|0,0:0|0:0,0:0:0:0:
185,327,14663,2,0,B|222:295|222:295|283:290,1,106.666666666667
351,326,15103,2,0,P|399:307|426:262,1,106.666666666667,8|0,0:0|0:0,0:0:0:0:
347,245,15544,1,0,0:0:0:0:
478,154,15838,1,0,0:0:0:0:
462,119,15985,6,0,L|344:97,1,106.666666666667,8|0,0:0|0:0,0:0:0:0:
316,168,16425,2,0,L|211:187,1,106.666666666667
195,263,16866,21,8,0:0:0:0:
131,107,17160,1,0,0:0:0:0:
96,84,17307,2,0,P|97:152|110:189,1,106.666666666667
195,263,17747,5,10,0:0:0:0:
351,199,18041,1,0,0:0:0:0:
374,164,18188,2,0,P|305:165|268:178,1,106.666666666667
195,263,18629,21,10,0:0:0:0:
39,327,18922,1,0,0:0:0:0:
16,362,19069,2,0,P|84:360|121:347,1,106.666666666667
195,263,19510,5,10,0:0:0:0:
336,344,19804,1,0,0:0:0:0:
299,354,19951,2,0,L|245:335,1,53.3333333333333
212,179,20391,2,0,P|207:121|239:80,1,106.666666666667,8|0,0:0|0:0,0:0:0:0:
307,51,20832,2,0,P|311:108|279:149,1,106.666666666667,8|0,0:0|0:0,0:0:0:0:
179,120,21273,22,0,L|46:159,1,106.666666666667,8|0,0:0|0:0,0:0:0:0:
3,182,21713,2,0,L|136:221,1,106.666666666667
163,267,22154,2,0,P|157:321|110:365,1,106.666666666667,8|0,0:0|0:0,0:0:0:0:
84,287,22595,1,0,0:0:0:0:
229,356,22888,1,0,0:0:0:0:
262,336,23035,6,0,P|309:320|381:333,1,106.666666666667,8|0,0:0|0:0,0:0:0:0:
406,256,23476,2,0,P|458:262|508:245,1,106.666666666667
507,165,23917,1,8,0:0:0:0:
278,238,24357,1,0,0:0:0:0:
262,62,24651,1,0,0:0:0:0:
233,84,24798,22,0,L|193:197,1,106.666666666667,8|0,0:0|0:0,0:0:0:0:
202,260,25238,2,0,P|155:217|78:234,1,106.666666666667
39,243,25679,1,8,0:0:0:0:
165,340,25973,1,0,0:0:0:0:
196,358,26120,2,0,L|330:340,1,106.666666666667
399,278,26560,6,0,L|293:264,1,106.666666666667,8|0,0:0|0:0,0:0:0:0:
245,199,27001,2,0,P|273:155|350:142,1,106.666666666667
387,193,27442,6,0,L|486:207,1,95.9999970703126,2|0,0:1|0:0,0:0:0:0:
512,69,28323,6,0,P|477:29|424:21,1,106.666666666667,8|0,0:0|0:0,0:0:0:0:
348,39,28764,1,0,0:0:0:0:
387,193,29058,1,0,0:0:0:0:
363,219,29204,2,0,L|347:330,1,106.666666666667,8|0,0:0|0:0,0:0:0:0:
419,361,29645,2,0,L|434:255,1,106.666666666667
387,193,30086,2,0,P|338:183|260:211,1,106.666666666667,8|0,0:0|0:0,0:0:0:0:
233,258,30526,1,0,0:0:0:0:
398,84,30967,5,8,0:0:0:0:
235,41,31261,1,0,0:0:0:0:
187,22,31408,2,0,L|297:29,1,106.666666666667
398,84,31848,21,10,0:0:0:0:
243,127,32142,1,0,0:0:0:0:
195,146,32289,2,0,L|305:139,1,106.666666666667
398,84,32730,5,10,0:0:0:0:
462,224,33023,1,0,0:0:0:0:
481,272,33170,2,0,L|474:162,1,106.666666666667
398,84,33611,21,10,0:0:0:0:
357,238,33905,1,2,0:0:0:0:
341,277,34052,2,0,L|344:330,1,53.3333333333333,2|0,0:0|0:0,0:0:0:0:
502,367,34492,1,2,0:1:0:0:
377,161,34933,1,0,0:0:0:0:
234,233,35227,1,0,0:0:0:0:
197,220,35374,6,0,P|143:229|99:263,1,106.666666666667,8|0,0:0|0:0,0:0:0:0:
61,328,35814,2,0,L|41:202,1,106.666666666667
99,164,36255,2,0,L|119:38,1,106.666666666667,8|0,0:0|0:0,0:0:0:0:
185,17,36696,1,0,0:0:0:0:
252,168,36989,1,0,0:0:0:0:
232,202,37136,22,0,P|272:219|346:194,1,106.666666666667,8|0,0:0|0:0,0:0:0:0:
393,153,37577,2,0,P|443:138|492:156,1,106.666666666667
442,219,38018,2,0,B|434:244|434:244|445:268|445:268|434:291|434:291|446:319,1,106.666666666667,8|0,0:0|0:0,0:0:0:0:
387,372,38458,1,0,0:0:0:0:
278,254,38752,1,0,0:0:0:0:
360,267,38899,5,8,0:0:0:0:
423,137,39193,1,0,0:0:0:0:
400,112,39340,2,0,P|421:58|492:40,1,106.666666666667
370,45,39780,2,0,L|250:74,1,106.666666666667,8|0,0:0|0:0,0:0:0:0:
221,137,40221,2,0,L|341:166,1,106.666666666667
377,222,40662,22,0,P|361:298|324:238,1,160,8|0,0:0|0:0,0:0:0:0:
421,143,41396,1,0,0:0:0:0:
489,184,41543,1,8,0:0:0:0:
446,351,41837,1,0,0:0:0:0:
415,373,41983,2,0,P|365:356|294:368,1,106.666666666667
199,370,42424,6,0,L|213:251,1,106.666666666667,8|0,0:0|0:0,0:0:0:0:
272,211,42865,1,0,0:0:0:0:
137,135,43159,1,0,0:0:0:0:
104,139,43305,2,0,P|53:122|24:79,1,106.666666666667,8|0,0:0|0:0,0:0:0:0:
101,57,43746,2,0,L|226:45,1,106.666666666667
297,121,44187,22,0,L|190:131,1,106.666666666667,8|0,0:0|0:0,0:0:0:0:
104,139,44627,1,0,0:0:0:0:
12,270,44921,1,0,0:0:0:0:
34,298,45068,2,0,P|84:314|152:307,1,106.666666666667,8|0,0:0|0:0,0:0:0:0:
208,273,45509,2,0,B|260:260|260:260|325:280,1,106.666666666667
384,355,45949,5,8,0:0:0:0:
498,243,46243,1,0,0:0:0:0:
475,216,46390,2,0,P|458:172|482:97,1,106.666666666667
511,21,46831,1,8,0:0:0:0:
360,125,47124,1,0,0:0:0:0:
333,148,47271,2,0,P|289:165|214:141,1,106.666666666667
145,62,47712,21,10,0:0:0:0:
190,265,48006,1,2,0:0:0:0:
157,358,48153,1,2,0:0:0:0:
145,62,48593,1,2,0:1:0:0:
98,281,49034,1,2,0:0:0:0:
270,368,49328,1,0,0:0:0:0:
298,344,49475,6,0,P|352:331|431:353,1,106.666666666667,8|0,0:0|0:0,0:0:0:0:
474,306,49915,2,0,L|487:178,1,106.666666666667
474,119,50356,2,0,P|423:144|411:223,1,106.666666666667,8|0,0:0|0:0,0:0:0:0:
404,268,50797,1,0,0:0:0:0:
311,135,51090,1,0,0:0:0:0:
275,124,51237,22,0,L|262:-4,1,106.666666666667,8|0,0:0|0:0,0:0:0:0:
193,56,51678,2,0,P|147:63|84:18,1,106.666666666667
17,18,52119,2,0,L|6:124,1,106.666666666667,8|0,0:0|0:0,0:0:0:0:
30,200,52559,1,0,0:0:0:0:
3,357,52853,1,0,0:0:0:0:
39,370,53000,6,0,B|116:385|114:327|212:352,1,160,8|0,0:0|0:0,0:0:0:0:
362,368,53734,1,0,0:0:0:0:
395,380,53881,2,0,L|424:202,1,160,8|0,0:0|0:0,0:0:0:0:
437,64,54616,1,0,0:0:0:0:
404,88,54763,22,0,B|327:103|329:45|231:70,1,160,8|0,0:0|0:0,0:0:0:0:
486,214,55644,22,0,P|494:269|463:329,1,95.9999970703126,2|0,0:1|0:0,0:0:0:0:
242,337,56378,21,0,0:0:0:0:
209,263,56525,1,8,0:0:0:0:
81,361,56819,1,0,0:0:0:0:
49,346,56966,2,0,P|31:293|53:227,1,106.666666666667
103,191,57407,2,0,P|113:139|96:89,1,106.666666666667,8|0,0:0|0:0,0:0:0:0:
30,44,57847,1,0,0:0:0:0:
182,40,58141,1,0,0:0:0:0:
212,25,58288,22,0,L|325:45,1,106.666666666667,8|0,0:0|0:0,0:0:0:0:
346,117,58728,2,0,L|233:137,1,106.666666666667
190,205,59169,5,8,0:0:0:0:
72,116,59463,1,0,0:0:0:0:
6,106,59610,2,0,P|15:151|93:180,1,106.666666666667
190,205,60050,21,10,0:0:0:0:
309,116,60344,1,0,0:0:0:0:
375,106,60491,2,0,P|365:151|287:180,1,106.666666666667
190,205,60932,5,10,0:0:0:0:
166,59,61226,1,0,0:0:0:0:
126,6,61373,2,0,P|101:45|139:121,1,106.666666666667
190,205,61813,21,10,0:0:0:0:
284,351,62107,1,0,0:0:0:0:
283,316,62254,2,0,L|194:274,1,53.3333333333333
381,218,62694,2,0,L|481:263,1,106.666666666667,8|0,1:2|0:0,0:0:0:0:
504,338,63135,2,0,B|476:353|444:338|444:338|421:348|421:348|398:341,1,106.666666666667
328,270,63576,6,0,P|302:232|287:137,1,122.666669006348,8|0,0:0|0:0,0:0:0:0:
327,76,64016,1,0,0:0:0:0:
60,21,64457,2,0,L|47:177,1,122.666669006348,8|0,0:0|0:0,0:0:0:0:
11,227,64898,2,0,L|24:383,1,122.666669006348,8|0,0:0|0:0,0:0:0:0:
111,364,65338,22,0,B|201:383|198:327|319:360,1,184.000003509522,8|0,0:0|0:0,0:0:0:0:
474,383,66073,1,0,0:0:0:0:
497,348,66220,2,0,L|481:206,1,122.666669006348,8|0,0:0|0:0,0:0:0:0:
470,134,66660,1,0,0:0:0:0:
298,67,66954,1,0,0:0:0:0:
383,32,67101,5,8,0:0:0:0:
202,68,67395,1,0,0:0:0:0:
117,33,67542,1,8,0:0:0:0:
196,198,67835,1,0,0:0:0:0:
196,235,67982,2,0,P|121:282|70:271,1,122.666669006348,8|0,0:0|0:0,0:0:0:0:
116,190,68423,2,0,P|70:150|10:145,1,122.666669006348,8|0,0:0|0:0,0:0:0:0:
93,75,68864,22,0,B|135:48|180:70|180:70|211:31|262:40,1,184.000003509522,8|0,0:0|0:0,0:0:0:0:
418,137,69598,1,0,0:0:0:0:
398,173,69745,2,0,L|411:297,1,122.666669006348,8|2,0:0|0:3,0:0:0:0:
373,356,70186,1,2,0:3:0:0:
303,366,70333,1,2,0:3:0:0:
260,312,70480,1,2,0:3:0:0:
284,247,70626,5,8,0:0:0:0:
418,137,70920,1,0,0:0:0:0:
428,91,71067,2,0,P|383:90|308:129,1,122.666669006348,8|0,0:0|0:0,0:0:0:0:
231,163,71508,2,0,P|276:162|351:201,1,122.666669006348,8|0,0:0|0:0,0:0:0:0:
427,234,71948,2,0,P|382:233|307:272,1,122.666669006348,8|0,0:0|0:0,0:0:0:0:
267,346,72389,2,0,P|169:340|57:347,2,184.000003509522,8|0|8,0:0|0:0|0:0,0:0:0:0:
449,370,73564,21,0,0:0:0:0:
499,295,73711,1,0,1:0:0:0:
390,146,74005,2,0,L|398:217,1,61.3333345031739,2|0,0:0|0:0,0:0:0:0:
331,370,74445,5,0,0:0:0:0:
281,295,74592,1,0,1:0:0:0:
390,146,74886,2,0,L|381:217,1,61.3333345031739,2|0,0:0|0:0,0:0:0:0:
449,370,75327,21,0,0:0:0:0:
499,295,75473,1,0,0:0:0:0:
390,146,75767,2,0,L|398:217,1,61.3333345031739,2|0,0:0|0:0,0:0:0:0:
194,323,76355,6,0,L|182:363,1,30.6666672515869,8|0,0:0|0:0,0:0:0:0:
121,323,76502,2,0,L|84:344,1,30.6666672515869
85,259,76649,2,0,L|45:251,1,30.6666672515869
121,197,76795,1,8,0:0:0:0:
343,310,77677,22,0,P|389:335|442:335,1,106.666666666667,8|0,0:0|0:0,0:0:0:0:
466,258,78117,2,0,B|453:207|453:207|473:148,1,106.666666666667
414,98,78558,2,0,L|365:239,1,106.666666666667,8|0,0:0|0:0,0:0:0:0:
303,225,78999,2,0,P|252:240|179:220,1,106.666666666667
161,161,79439,6,0,P|110:146|58:154,1,106.666666666667,8|0,0:0|0:0,0:0:0:0:
26,228,79880,2,0,L|75:369,1,106.666666666667
138,351,80321,2,0,B|163:359|163:359|187:348|187:348|210:359|210:359|238:347,1,106.666666666667,8|0,0:0|0:0,0:0:0:0:
300,299,80761,1,0,0:0:0:0:
176,196,81055,1,0,0:0:0:0:
203,171,81202,22,0,L|319:137,1,106.666666666667,8|0,0:0|0:0,0:0:0:0:
374,181,81643,2,0,L|476:150,1,106.666666666667
500,74,82083,1,8,0:0:0:0:
488,233,82377,1,0,0:0:0:0:
506,265,82524,2,0,P|503:324|462:374,1,106.666666666667
396,367,82965,6,0,L|293:336,1,106.666666666667,8|0,0:0|0:0,0:0:0:0:
230,286,83405,2,0,B|202:206|258:206|230:126,1,160,0|8,0:0|0:0,0:0:0:0:
341,246,84140,1,0,0:0:0:0:
367,270,84287,2,0,P|411:241|429:190,1,106.666666666667
402,110,84727,22,0,L|504:137,1,106.666666666667,8|0,0:0|0:0,0:0:0:0:
484,59,85168,2,0,L|381:31,1,106.666666666667
316,79,85609,2,0,P|265:110|189:81,1,106.666666666667,8|0,0:0|0:0,0:0:0:0:
172,40,86049,2,0,P|141:91|170:167,1,106.666666666667
205,190,86490,6,0,L|307:217,1,106.666666666667,8|0,0:0|0:0,0:0:0:0:
360,279,86931,2,0,L|257:306,1,106.666666666667
182,277,87371,1,8,0:0:0:0:
32,342,87665,1,0,0:0:0:0:
62,369,87812,2,0,P|80:319|62:234,1,106.666666666667
28,201,88253,21,8,0:0:0:0:
106,60,88546,1,0,0:0:0:0:
135,83,88693,2,0,L|272:98,1,106.666666666667
332,164,89134,1,8,0:0:0:0:
203,266,89428,1,0,0:0:0:0:
232,289,89575,2,0,L|338:277,1,106.666666666667
460,258,90015,5,10,0:0:0:0:
491,104,90309,1,2,0:0:0:0:
458,18,90456,1,2,0:0:0:0:
241,94,90897,1,2,0:1:0:0:
9,30,91337,1,2,0:0:0:0:
62,178,91631,1,0,0:0:0:0:
94,165,91778,22,0,P|106:222|66:280,1,106.666666666667,8|0,0:0|0:0,0:0:0:0:
27,319,92219,2,0,P|80:313|157:336,1,106.666666666667
204,357,92659,2,0,P|255:367|308:361,1,106.666666666667,8|0,0:0|0:0,0:0:0:0:
359,299,93100,2,0,L|343:171,1,106.666666666667
282,144,93540,6,0,L|268:249,1,106.666666666667,8|0,0:0|0:0,0:0:0:0:
207,301,93981,1,0,0:0:0:0:
179,143,94275,1,0,0:0:0:0:
193,109,94422,2,0,P|236:62|305:57,1,106.666666666667,8|0,0:0|0:0,0:0:0:0:
355,64,94862,1,0,0:0:0:0:
395,218,95156,1,0,0:0:0:0:
422,237,95303,22,0,B|430:290|430:290|411:339,1,106.666666666667,8|0,0:0|0:0,0:0:0:0:
328,327,95744,2,0,P|284:323|197:360,1,106.666666666667
151,372,96184,1,8,0:0:0:0:
233,232,96478,1,0,0:0:0:0:
267,245,96625,2,0,P|285:211|269:132,1,106.666666666667
199,123,97066,6,0,P|177:88|197:10,1,106.666666666667,8|0,0:0|0:0,0:0:0:0:
252,66,97506,2,0,L|382:84,1,106.666666666667
421,134,97947,6,0,P|433:187|418:239,1,95.9999970703126,2|0,0:1|0:0,0:0:0:0:
291,184,98681,5,0,0:0:0:0:
257,180,98828,2,0,L|151:165,1,106.666666666667,8|0,0:0|0:0,0:0:0:0:
156,254,99269,2,0,L|261:268,1,106.666666666667
340,260,99710,2,0,P|375:216|369:143,1,106.666666666667,8|0,0:0|0:0,0:0:0:0:
331,103,100150,2,0,P|275:94|215:136,1,106.666666666667
201,189,100591,6,0,P|221:241|287:272,1,106.666666666667,8|0,0:0|0:0,0:0:0:0:
291,184,101032,1,0,0:0:0:0:
399,300,101325,1,0,0:0:0:0:
350,363,101472,1,8,0:0:0:0:
188,364,101766,21,0,0:0:0:0:
152,269,101913,1,0,1:0:0:0:
360,150,102354,2,0,P|438:155|495:208,1,160,8|0,0:0|0:0,0:0:0:0:
188,364,103529,5,0,0:0:0:0:
138,280,103676,1,0,1:0:0:0:
320,123,104117,2,0,P|397:114|463:157,1,160,8|0,0:0|0:0,0:0:0:0:
188,364,105291,21,0,0:0:0:0:
130,296,105438,1,0,0:0:0:0:
276,104,105879,2,0,P|351:82|409:106,1,106.666666666667,8|0,0:0|0:0,0:0:0:0:
450,144,106320,2,0,L|434:262,1,106.666666666667,8|0,0:0|0:0,0:0:0:0:
341,202,106760,2,0,L|325:320,1,106.666666666667,8|0,0:0|0:0,0:0:0:0:
232,260,107201,2,0,L|216:378,1,106.666666666667,8|0,0:0|0:0,0:0:0:0:
123,318,107642,5,10,0:0:0:0:
