osu file format v14

[General]
AudioFilename: audio.mp3
AudioLeadIn: 0
PreviewTime: 23327
Countdown: 0
SampleSet: Soft
StackLeniency: 0.7
Mode: 0
LetterboxInBreaks: 0
SkinPreference:Default
WidescreenStoryboard: 0

[Editor]
Bookmarks: 2201,80522,91514,102507,112125,157469
DistanceSpacing: 1
BeatDivisor: 4
GridSize: 4
TimelineZoom: 2.2

[Metadata]
Title:Everytime We Touch (Nightcore Mix)
TitleUnicode:Everytime We Touch (Nightcore Mix)
Artist:Cascada
ArtistUnicode:Cascada
Creator:LeomineXD
Version:Striped's Normal
Source:
Tags:stripedgoose striped appetible appe english electronic electrodance electro dance techno eurodance remix edm every time
BeatmapID:3945567
BeatmapSetID:1912753

[Difficulty]
HPDrainRate:3
CircleSize:3
OverallDifficulty:4
ApproachRate:5.5
SliderMultiplier:1.2
SliderTickRate:1

[Events]
//Background and Video events
0,0,"84728476_p0.png",0,0
//Break Periods
2,46370,50542
2,80522,90389
2,102507,111000
//Storyboard Layer 0 (Background)
//Storyboard Layer 1 (Fail)
//Storyboard Layer 2 (Pass)
//Storyboard Layer 3 (Foreground)
//Storyboard Layer 4 (Overlay)
//Storyboard Sound Samples

[TimingPoints]
2201,343.514728193971,4,2,1,40,1,0
2201,-125,4,2,1,40,0,0
13193,-111.111111111111,4,2,1,50,0,0
23327,-111.111111111111,4,2,1,55,0,0
24185,-100,4,2,1,85,0,1
34491,-100,4,2,1,70,0,0
35178,-100,4,2,1,85,0,1
44796,-100,4,2,1,70,0,0
45312,-100,4,2,1,60,0,0
46170,-100,4,2,1,70,0,0
55789,-100,4,2,1,65,0,0
56304,-100,4,2,1,55,0,0
57163,-100,4,2,1,85,0,1
67984,-100,4,2,1,85,0,0
68155,-100,4,2,1,85,0,1
77774,-100,4,2,1,80,0,0
77945,-100,4,2,1,77,0,0
78117,-100,4,2,1,74,0,0
78289,-100,4,2,1,71,0,0
78461,-100,4,2,1,68,0,0
78633,-100,4,2,1,65,0,0
78804,-100,4,2,1,62,0,0
78976,-100,4,2,1,59,0,0
79148,-100,4,2,1,55,0,0
91514,-100,4,2,1,75,0,0
101648,-100,4,2,1,70,0,0
102507,-100,4,2,1,60,0,0
112125,-125,4,2,1,65,0,0
113499,-111.111111111111,4,2,1,70,0,0
123118,-111.111111111111,4,2,1,65,0,0
123805,-111.111111111111,4,2,1,55,0,0
124492,-100,4,2,1,85,0,1
135312,-100,4,2,1,85,0,0
135484,-100,4,2,1,85,0,1
145103,-100,4,2,1,70,0,0
146477,-100,4,2,1,85,0,1
156095,-100,4,2,1,75,0,0
156439,-100,4,2,1,70,0,0
156782,-100,4,2,1,65,0,0
157126,-100,4,2,1,60,0,0
157469,-100,4,2,1,70,0,0

[Colours]
Combo1 : 230,135,89
Combo2 : 98,148,202
Combo3 : 189,147,174
Combo4 : 118,128,190
SliderBorder : 255,255,255

[HitObjects]
200,79,2201,6,0,P|256:42|312:80,2,144,2|2|2,2:2|2:2|2:2,0:0:0:0:
156,168,3575,1,2,2:2:0:0:
199,303,4090,2,0,P|255:341|311:304,1,144,2|2,2:2|2:2,0:0:0:0:
356,215,4949,1,2,2:2:0:0:
432,336,5464,1,2,2:2:0:0:
508,216,5979,1,2,2:2:0:0:
432,154,6323,2,0,P|396:72|304:64,1,192,2|0,2:2|0:0,0:0:0:0:
209,64,7353,5,2,2:2:0:0:
168,152,7697,2,0,B|128:156|120:197|120:197|80:184|57:215,2,144,2|2|2,2:2|2:2|2:2,0:0:0:0:
256,192,9071,1,2,2:2:0:0:
200,323,9586,2,0,P|254:284|311:321,1,144,2|2,2:2|2:2,0:0:0:0:
392,148,10788,2,0,B|288:164|256:78|256:78|224:164|120:148,1,336,2|0,2:2|0:0,0:0:0:0:
256,348,12849,5,2,2:2:0:0:
352,300,13193,2,0,B|400:268|400:268|336:228|336:190,1,161.999995056153,4|2,1:2|2:2,0:0:0:0:
348,136,13880,1,8,0:3:0:0:
256,80,14224,1,2,2:2:0:0:
164,136,14567,2,0,B|116:168|116:168|180:208|179:245,1,161.999995056153,2|2,1:2|3:2,0:0:0:0:
168,300,15254,1,8,0:3:0:0:
68,344,15598,5,2,2:2:0:0:
23,243,15941,2,0,P|8:193|22:142,1,107.999996704102,2|0,1:2|0:0,0:0:0:0:
64,104,16456,2,0,B|112:104|112:104|172:80|172:80|221:80,1,161.999995056153,2|2,2:2|2:2,0:0:0:0:
320,120,17315,2,0,B|352:168|401:192|401:192|352:216|320:260,1,215.999993408203,2|8,1:2|0:3,0:0:0:0:
256,344,18346,1,2,2:2:0:0:
192,258,18689,2,0,P|154:296|102:298,1,107.999996704102,2|0,1:2|0:0,0:0:0:0:
60,264,19204,2,0,B|88:224|68:192|52:192|32:152|60:112,1,161.999995056153,2|2,2:2|2:2,0:0:0:0:
120,24,20063,6,0,P|189:61|208:140,1,161.999995056153,2|2,1:2|3:2,0:0:0:0:
204,192,20750,1,8,0:3:0:0:
303,137,21094,6,0,P|322:61|392:24,1,161.999995056153,2|2,2:2|2:2,0:0:0:0:
448,24,21781,1,2,2:2:0:0:
256,192,21953,12,2,23499,2:2:0:0:
256,232,24185,5,4,1:2:0:0:
136,364,24701,1,2,2:2:0:0:
136,364,24872,2,0,B|84:364|84:364|32:312,1,120,2|2,1:2|1:2,0:0:0:0:
36,256,25388,1,2,2:2:0:0:
136,192,25731,1,2,2:2:0:0:
36,128,26075,5,2,2:2:0:0:
36,128,26247,2,0,L|36:56,1,60,2|2,1:2|2:2,0:0:0:0:
76,20,26590,2,0,B|136:4|136:4|191:18,1,120,2|2,1:2|1:2,0:0:0:0:
256,120,27277,1,2,1:2:0:0:
256,120,27449,2,0,L|256:240,1,120,2|2,2:2|2:2,0:0:0:0:
256,300,27964,1,2,1:2:0:0:
256,300,28136,2,0,B|300:276|344:292|344:304|392:320|430:301,1,180,2|0,2:2|1:1,0:0:0:0:
484,192,28995,6,0,L|432:162,1,60,2|2,1:2|2:2,0:0:0:0:
426,102,29338,2,0,L|366:102,1,60,2|2,1:2|2:2,0:0:0:0:
312,72,29682,2,0,B|260:68|256:60|256:60|252:68|192:72,2,120,2|10|2,1:2|2:2|1:2,0:0:0:0:
256,244,30884,1,2,2:2:0:0:
256,244,31056,2,0,L|256:304,1,60,2|2,1:2|2:2,0:0:0:0:
216,348,31399,1,10,2:2:0:0:
216,348,31571,2,0,P|120:336|80:264,1,180,2|8,2:2|2:2,0:0:0:0:
40,156,32430,6,0,B|92:156|92:156|132:92,1,120,2|10,1:2|2:2,0:0:0:0:
156,44,32945,1,2,2:2:0:0:
256,108,33289,1,2,2:2:0:0:
356,44,33632,2,0,B|401:77|438:75|438:75|435:111|469:157,1,180,2|8,2:2|2:2,0:0:0:0:
424,196,34319,1,2,2:2:0:0:
424,196,34491,2,0,L|362:179,2,60,2|2|10,1:2|2:2|2:2,0:0:0:0:
440,256,35006,1,2,3:2:0:0:
424,312,35178,5,4,1:2:0:0:
256,248,35693,1,2,2:2:0:0:
256,248,35865,2,0,B|272:208|260:184|252:184|240:164|251:131,1,120,2|10,1:2|2:2,0:0:0:0:
275,76,36381,1,2,2:2:0:0:
168,24,36724,1,2,2:2:0:0:
60,76,37068,5,2,2:2:0:0:
60,76,37240,2,0,P|52:104|59:133,1,60,2|2,1:2|2:2,0:0:0:0:
28,184,37583,2,0,P|42:209|67:225,1,60,10|2,2:2|2:2,0:0:0:0:
84,284,37926,1,2,1:2:0:0:
200,248,38270,5,10,2:2:0:0:
200,248,38441,2,0,L|255:280,1,60,2|0,2:2|1:1,0:0:0:0:
312,316,38785,1,2,2:2:0:0:
312,316,38957,1,10,2:2:0:0:
312,316,39129,2,0,B|356:356|356:356|484:356,1,180,2|8,2:2|2:2,0:0:0:0:
508,236,39988,6,0,L|448:236,1,60,2|2,1:2|2:2,0:0:0:0:
408,192,40331,2,0,L|348:192,1,60,10|2,2:2|2:2,0:0:0:0:
307,236,40675,2,0,B|255:266|255:266|203:236,2,120,2|10|2,1:2|2:2|1:2,0:0:0:0:
256,64,41877,1,2,2:2:0:0:
256,64,42049,2,0,L|256:0,2,60,2|2|10,1:2|2:2|2:2,0:0:0:0:
212,104,42564,2,0,B|172:140|132:148|132:148|92:140|56:108,1,180,2|8,2:2|2:2,0:0:0:0:
8,232,43423,6,0,B|48:216|72:228|72:236|96:248|124:233,1,120,2|10,1:2|2:2,0:0:0:0:
188,232,43938,1,2,3:2:0:0:
256,120,44282,1,2,3:2:0:0:
324,234,44625,2,0,P|390:289|384:375,1,180,2|0,3:2|0:0,0:0:0:0:
256,192,46170,5,12,2:2:0:0:
256,192,51667,12,2,55789,1:2:0:0:
392,124,57163,5,4,1:2:0:0:
392,260,57506,1,10,2:2:0:0:
264,224,57850,2,0,P|208:243|152:224,1,120,2|10,1:2|2:2,0:0:0:0:
152,164,58365,2,0,L|214:128,1,60,2|0,2:2|1:1,0:0:0:0:
256,104,58709,1,2,2:2:0:0:
348,192,59052,5,2,2:2:0:0:
348,192,59224,2,0,L|398:242,1,60,2|2,1:2|2:2,0:0:0:0:
452,228,59567,2,0,L|497:182,1,60,10|2,2:2|2:2,0:0:0:0:
492,124,59911,1,2,1:2:0:0:
392,68,60254,1,10,2:2:0:0:
392,68,60426,2,0,L|288:8,1,120,2|2,2:2|2:2,0:0:0:0:
228,8,60942,1,10,2:2:0:0:
228,8,61113,2,0,P|189:86|104:104,1,180,2|8,2:2|2:2,0:0:0:0:
0,164,61972,6,0,L|30:215,1,60,2|2,1:2|2:2,0:0:0:0:
84,244,62316,2,0,L|54:295,1,60,10|2,2:2|2:2,0:0:0:0:
83,348,62659,2,0,B|123:372|123:372|211:372,1,120,2|10,1:2|2:2,0:0:0:0:
316,372,63346,2,0,B|389:372|389:372|429:348,1,120,2|10,1:2|2:2,0:0:0:0:
508,256,64033,6,0,P|476:244|460:212,1,60,2|2,1:2|2:2,0:0:0:0:
460,160,64377,2,0,P|477:136|505:127,2,60,10|2|2,2:2|2:2|1:2,0:0:0:0:
344,192,65064,2,0,L|334:254,1,60,10|2,2:2|0:0,0:0:0:0:
291,294,65407,2,0,P|240:296|180:256,1,120,2|10,1:2|2:2,0:0:0:0:
84,192,66094,1,2,1:2:0:0:
188,132,66438,2,0,L|197:69,1,60,10|2,2:2|2:2,0:0:0:0:
241,30,66781,2,0,P|292:28|352:68,1,120,2|8,1:2|2:2,0:0:0:0:
348,184,67468,2,0,L|306:226,1,60,2|2,1:2|2:2,0:0:0:0:
256,260,67812,2,0,L|214:217,1,60,10|2,2:2|3:2,0:0:0:0:
152,216,68155,6,0,L|104:264,2,60,4|0|10,1:2|0:0|2:2,0:0:0:0:
184,100,68842,2,0,L|184:40,1,60,2|0,1:2|0:0,0:0:0:0:
132,24,69186,1,10,2:2:0:0:
132,24,69358,2,0,B|88:40|88:40|36:100,1,120,2|2,2:2|2:2,0:0:0:0:
84,212,70045,5,2,2:2:0:0:
84,212,70216,2,0,L|52:267,2,60,2|2|10,1:2|2:2|2:2,0:0:0:0:
136,180,70732,1,2,2:2:0:0:
136,180,70903,1,2,1:2:0:0:
256,216,71247,1,10,2:2:0:0:
256,216,71419,2,0,B|234:272|234:272|256:328,1,120,2|2,2:2|2:2,0:0:0:0:
308,356,71934,1,10,2:2:0:0:
308,356,72106,2,0,P|396:352|440:276,1,180,2|8,2:2|2:2,0:0:0:0:
508,180,72965,6,0,B|492:155|492:155|463:134,1,60,2|2,1:2|2:2,0:0:0:0:
408,140,73308,2,0,B|384:157|384:157|367:182,1,60,10|2,2:2|2:2,0:0:0:0:
332,232,73652,1,2,1:2:0:0:
256,140,73995,1,10,2:2:0:0:
256,20,74339,2,0,L|320:20,1,60,2|0,1:2|0:0,0:0:0:0:
376,20,74682,1,10,2:2:0:0:
496,76,75026,5,2,1:2:0:0:
496,76,75197,1,2,2:2:0:0:
496,76,75369,2,0,L|513:137,1,60,10|2,2:2|2:2,0:0:0:0:
492,192,75713,1,2,1:2:0:0:
376,156,76056,2,0,L|360:217,1,60,10|2,2:2|0:0,0:0:0:0:
344,272,76400,1,12,1:2:0:0:
256,192,76571,12,4,79148,1:2:0:0:
200,340,91514,6,0,B|248:340|248:340|264:324|264:324|316:324,1,120,4|10,1:2|2:2,0:0:0:0:
372,323,92030,2,0,P|445:277|448:192,1,180,2|10,2:2|2:2,0:0:0:0:
331,156,92888,2,0,P|273:156|226:120,1,120,2|10,1:2|2:2,0:0:0:0:
228,60,93404,2,0,P|274:23|333:24,1,120,2|2,2:2|2:2,0:0:0:0:
384,56,93919,1,10,2:2:0:0:
448,156,94262,2,0,B|464:192|452:216|445:217|432:240|448:272,1,120,2|10,1:2|2:2,0:0:0:0:
468,328,94778,2,0,B|408:312|380:328|380:336|352:348|292:328,1,180,2|10,2:2|2:2,0:0:0:0:
180,284,95637,6,0,L|60:284,2,120,2|8|2,1:2|2:2|1:2,0:0:0:0:
256,192,96667,1,8,2:2:0:0:
332,100,97011,2,0,B|376:100|376:100|435:160,1,120,2|10,1:2|2:2,0:0:0:0:
444,212,97526,2,0,P|380:284|296:284,1,180,2|10,2:2|2:2,0:0:0:0:
180,284,98385,2,0,B|136:284|136:284|77:224,1,120,2|10,1:2|2:2,0:0:0:0:
68,172,98900,2,0,P|132:100|216:100,2,180,2|10|2,2:2|2:2|2:2,0:0:0:0:
116,208,100102,2,0,B|216:216|256:305|256:305|296:216|396:208,1,360,10|0,2:2|1:1,0:0:0:0:
256,292,112125,6,0,L|256:148,1,144,0|2,3:3|3:2,0:0:0:0:
256,100,112812,1,2,3:2:0:0:
160,100,113156,2,0,L|118:124,1,48,2|2,3:2|3:2,0:0:0:0:
72,156,113499,6,0,L|72:264,1,107.999996704102,12|8,1:2|2:2,0:0:0:0:
152,336,114186,1,10,2:2:0:0:
260,316,114530,1,10,2:2:0:0:
260,316,114702,2,0,P|312:316|356:268,2,107.999996704102,2|2|2,2:2|2:2|2:2,0:0:0:0:
252,264,115560,2,0,B|236:206,1,53.9999983520508,10|2,2:2|2:2,0:0:0:0:
280,180,115904,2,0,B|295:122,1,53.9999983520508,10|2,2:2|2:2,0:0:0:0:
256,88,116247,1,10,2:2:0:0:
160,52,116591,5,10,2:2:0:0:
160,52,116763,2,0,B|160:108|160:108|128:148,1,107.999996704102,2|2,2:2|2:2,0:0:0:0:
96,196,117278,1,10,2:2:0:0:
96,196,117450,2,0,B|60:244|60:244|84:342,1,161.999995056153,2|8,2:2|2:2,0:0:0:0:
192,368,118308,2,0,L|240:320,1,53.9999983520508,10|2,2:2|2:2,0:0:0:0:
284,328,118652,2,0,L|322:366,1,53.9999983520508,10|2,2:2|2:2,0:0:0:0:
376,368,118996,2,0,B|416:368|416:368|440:356|440:356|480:356,2,107.999996704102,10|10|10,2:2|2:2|2:2,0:0:0:0:
300,232,120198,5,2,3:2:0:0:
300,232,120370,2,0,P|320:212|332:184,2,53.9999983520508,10|2|10,2:2|3:2|2:2,0:0:0:0:
256,260,120885,2,0,B|216:244|176:252|176:268|136:276|97:260,1,161.999995056153,2|8,3:2|2:2,0:0:0:0:
16,192,121744,2,0,B|40:140|40:140|22:92,1,107.999996704102,10|10,2:2|2:2,0:0:0:0:
64,56,122259,1,2,3:2:0:0:
160,100,122602,1,2,3:2:0:0:
256,56,122946,1,2,3:2:0:0:
256,56,123118,2,0,L|256:272,1,215.999993408203,8|2,2:2|2:2,0:0:0:0:
44,360,124492,5,4,1:2:0:0:
128,276,124835,1,10,2:2:0:0:
44,192,125179,2,0,B|72:152|72:152|144:128,1,120,2|10,1:2|2:2,0:0:0:0:
200,128,125694,2,0,L|242:85,1,60,2|0,2:2|1:1,0:0:0:0:
256,28,126038,1,2,2:2:0:0:
380,32,126381,5,2,2:2:0:0:
380,32,126553,2,0,P|372:64|380:92,1,60,2|2,1:2|2:2,0:0:0:0:
424,132,126896,2,0,P|431:160|423:189,1,60,10|2,2:2|2:2,0:0:0:0:
384,236,127240,1,2,1:2:0:0:
280,188,127583,1,10,2:2:0:0:
280,188,127755,2,0,B|256:212|256:212|256:304,1,120,2|2,2:2|2:2,0:0:0:0:
256,364,128271,1,10,2:2:0:0:
256,364,128442,2,0,B|188:364|188:364|156:340|156:340|84:340,1,180,2|8,2:2|2:2,0:0:0:0:
64,220,129301,6,0,B|36:192|36:192|16:192,1,60,2|2,1:2|2:2,0:0:0:0:
20,132,129645,2,0,B|40:132|40:132|68:104,1,60,10|2,2:2|2:2,0:0:0:0:
84,44,129988,2,0,B|128:44|128:44|152:68|152:68|196:68,1,120,2|10,1:2|2:2,0:0:0:0:
317,68,130675,2,0,B|360:68|360:68|384:44|384:44|428:44,1,120,2|10,1:2|2:2,0:0:0:0:
480,140,131362,6,0,B|475:169|475:169|456:192,1,60,2|2,1:2|2:2,0:0:0:0:
396,192,131706,2,0,B|376:214|376:214|372:244,2,60,10|2|2,2:2|2:2|1:2,0:0:0:0:
316,104,132393,2,0,L|256:104,1,60,10|2,2:2|0:0,0:0:0:0:
196,92,132736,2,0,B|188:136|188:136|120:168,1,120,2|10,1:2|2:2,0:0:0:0:
76,280,133423,1,2,1:2:0:0:
196,280,133767,2,0,L|255:279,1,60,10|2,2:2|2:2,0:0:0:0:
316,292,134110,2,0,B|324:248|324:248|392:216,1,120,2|8,1:2|2:2,0:0:0:0:
512,196,134797,2,0,L|482:144,1,60,2|2,1:2|2:2,0:0:0:0:
472,84,135141,2,0,L|412:84,1,60,10|2,2:2|3:2,0:0:0:0:
355,62,135484,6,0,B|332:72|332:72|320:112,2,60,4|2|10,1:2|0:0|2:2,0:0:0:0:
248,8,136171,2,0,L|180:8,1,60,2|0,1:2|0:0,0:0:0:0:
136,36,136515,1,10,2:2:0:0:
136,36,136687,2,0,B|164:80|164:80|136:108|148:148,1,120,2|2,2:2|2:2,0:0:0:0:
256,204,137374,1,2,2:2:0:0:
256,204,137545,2,0,L|256:284,2,60,2|2|10,1:2|2:2|2:2,0:0:0:0:
292,156,138061,1,2,2:2:0:0:
292,156,138232,1,2,1:2:0:0:
332,44,138576,5,10,2:2:0:0:
332,44,138748,2,0,B|368:70|368:70|452:68,1,120,2|2,2:2|2:2,0:0:0:0:
508,68,139263,1,10,2:2:0:0:
508,68,139435,2,0,P|496:153|418:192,1,180,2|8,2:2|2:2,0:0:0:0:
340,280,140294,6,0,B|284:252,1,60,2|2,1:2|2:2,0:0:0:0:
224,252,140637,2,0,B|170:278,1,60,10|2,2:2|2:2,0:0:0:0:
144,332,140981,1,2,1:2:0:0:
256,376,141324,1,10,2:2:0:0:
368,331,141668,2,0,B|398:325|398:325|426:330,1,60,2|0,1:2|0:0,0:0:0:0:
484,348,142011,1,10,2:2:0:0:
508,236,142355,5,2,1:2:0:0:
508,236,142526,1,2,2:2:0:0:
508,236,142698,2,0,P|494:210|470:193,1,60,10|2,2:2|2:2,0:0:0:0:
419,158,143042,1,2,1:2:0:0:
300,192,143385,2,0,P|275:209|261:235,1,60,10|2,2:2|0:0,0:0:0:0:
256,296,143729,2,0,B|227:330|239:350|239:350|217:342|189:376,2,120,2|10|2,1:2|2:2|1:2,0:0:0:0:
148,268,144759,5,10,2:2:0:0:
148,268,144931,1,2,2:2:0:0:
148,268,145103,2,0,B|100:192|100:192|148:116,1,180,2|2,1:2|3:2,0:0:0:0:
176,64,145790,2,0,P|196:42|225:34,1,60,2|2,3:2|3:2,0:0:0:0:
283,35,146133,2,0,P|312:44|333:65,1,60,10|2,2:2|3:2,0:0:0:0:
351,123,146477,5,4,1:2:0:0:
392,304,146993,1,2,2:2:0:0:
392,304,147164,2,0,B|289:364,1,120,2|2,1:2|1:2,0:0:0:0:
228,364,147680,1,2,2:2:0:0:
140,284,148023,1,2,2:2:0:0:
228,204,148367,5,2,2:2:0:0:
228,204,148538,2,0,P|221:176|201:154,1,60,2|2,1:2|2:2,0:0:0:0:
140,156,148882,2,0,B|88:156|88:156|72:164|72:164|20:164,1,120,2|2,1:2|1:2,0:0:0:0:
20,44,149569,1,2,1:2:0:0:
20,44,149740,2,0,B|71:44|71:44|87:52|87:52|139:52,1,120,2|2,2:2|2:2,0:0:0:0:
196,28,150256,1,2,1:2:0:0:
196,28,150428,2,0,B|228:12|256:81|256:81|284:12|316:28,1,180,2|0,2:2|1:1,0:0:0:0:
420,92,151287,6,0,L|436:150,1,60,2|2,1:2|2:2,0:0:0:0:
480,192,151629,2,0,L|465:250,1,60,2|2,1:2|2:2,0:0:0:0:
436,304,151974,2,0,B|436:340|436:340|356:384,2,120,2|2|2,1:2|1:2|1:2,0:0:0:0:
256,300,153176,1,2,3:2:0:0:
256,300,153348,2,0,B|264:272|264:272|257:243,1,60,2|2,1:2|3:2,0:0:0:0:
224,192,153691,1,2,1:2:0:0:
224,192,153863,2,0,B|166:208|166:208|114:176|114:176|56:192,1,180,2|0,3:2|1:1,0:0:0:0:
12,304,154722,6,0,P|50:351|106:368,1,120,2|2,1:2|1:2,0:0:0:0:
164,368,155236,2,0,P|221:351|258:305,2,120,2|2|2,3:2|3:2|3:2,0:0:0:0:
256,192,156095,12,4,157469,1:2:0:0:
