osu file format v14

[General]
AudioFilename: audio.mp3
AudioLeadIn: 0
PreviewTime: 23327
Countdown: 0
SampleSet: Soft
StackLeniency: 0.4
Mode: 0
LetterboxInBreaks: 0
SkinPreference:Default
WidescreenStoryboard: 0

[Editor]
Bookmarks: 2201,80522,91514,102507,112125,157469
DistanceSpacing: 1
BeatDivisor: 4
GridSize: 16
TimelineZoom: 2.2

[Metadata]
Title:Everytime We Touch (Nightcore Mix)
TitleUnicode:Everytime We Touch (Nightcore Mix)
Artist:Cascada
ArtistUnicode:Cascada
Creator:LeomineXD
Version:Hard
Source:
Tags:stripedgoose striped appetible appe english electronic electrodance electro dance techno eurodance remix edm every time
BeatmapID:3945566
BeatmapSetID:1912753

[Difficulty]
HPDrainRate:5
CircleSize:3.5
OverallDifficulty:6
ApproachRate:7.5
SliderMultiplier:1.4
SliderTickRate:1

[Events]
//Background and Video events
0,0,"84728476_p0.png",0,0
//Break Periods
2,46370,50842
2,80522,90689
2,102707,111300
//Storyboard Layer 0 (Background)
//Storyboard Layer 1 (Fail)
//Storyboard Layer 2 (Pass)
//Storyboard Layer 3 (Foreground)
//Storyboard Layer 4 (Overlay)
//Storyboard Sound Samples

[TimingPoints]
2201,343.514728193971,4,2,1,40,1,0
2201,-166.666666666667,4,2,1,40,0,0
13193,-142.857142857143,4,2,1,50,0,0
23327,-142.857142857143,4,2,1,55,0,0
24185,-111.111111111111,4,2,1,85,0,1
34491,-125,4,2,1,70,0,0
35178,-111.111111111111,4,2,1,85,0,1
44796,-125,4,2,1,70,0,0
45312,-125,4,2,1,60,0,0
46170,-125,4,2,1,70,0,0
54415,-117.647058823529,4,2,1,70,0,0
55789,-117.647058823529,4,2,1,65,0,0
56304,-117.647058823529,4,2,1,55,0,0
57163,-105.263157894737,4,2,1,85,0,1
67984,-105.263157894737,4,2,1,85,0,0
68155,-105.263157894737,4,2,1,85,0,1
77774,-117.647058823529,4,2,1,80,0,0
77945,-117.647058823529,4,2,1,77,0,0
78117,-117.647058823529,4,2,1,74,0,0
78289,-117.647058823529,4,2,1,71,0,0
78461,-117.647058823529,4,2,1,68,0,0
78633,-117.647058823529,4,2,1,65,0,0
78804,-117.647058823529,4,2,1,62,0,0
78976,-117.647058823529,4,2,1,59,0,0
79148,-117.647058823529,4,2,1,55,0,0
91514,-117.647058823529,4,2,1,75,0,0
101648,-117.647058823529,4,2,1,70,0,0
102507,-133.333333333333,4,2,1,60,0,0
112125,-133.333333333333,4,2,1,65,0,0
113499,-125,4,2,1,70,0,0
123118,-125,4,2,1,65,0,0
123805,-125,4,2,1,55,0,0
124492,-105.263157894737,4,2,1,85,0,1
135312,-105.263157894737,4,2,1,85,0,0
135484,-105.263157894737,4,2,1,85,0,1
145103,-125,4,2,1,70,0,0
146477,-111.111111111111,4,2,1,85,0,1
156095,-125,4,2,1,75,0,0
156439,-125,4,2,1,70,0,0
156782,-125,4,2,1,65,0,0
157126,-125,4,2,1,60,0,0
157469,-125,4,2,1,70,0,0

[Colours]
Combo1 : 230,135,89
Combo2 : 98,148,202
Combo3 : 189,147,174
Combo4 : 118,128,190
SliderBorder : 255,255,255

[HitObjects]
82,254,2201,6,0,P|39:296|49:356,2,125.999996154785,2|2|2,2:2|2:2|2:2,0:0:0:0:
178,315,3575,2,0,P|242:294|309:279,1,125.999996154785,2|2,2:2|2:2,0:0:0:0:
441,150,4605,1,2,2:2:0:0:
441,150,4949,6,0,B|476:89|417:89|455:29,2,125.999996154785,2|2|2,2:2|2:2|2:2,0:0:0:0:
341,105,6323,1,2,2:2:0:0:
34,216,7353,1,2,2:2:0:0:
34,216,7697,6,0,B|51:192|51:192|39:95,2,125.999996154785,2|2|2,2:2|2:2|2:2,0:0:0:0:
109,301,9071,2,0,B|150:287|150:287|181:302|181:302|230:288,1,125.999996154785,2|2,2:2|2:2,0:0:0:0:
406,149,10101,2,0,P|473:142|491:207,1,146.999995513916,2|2,2:2|0:0,0:0:0:0:
49,99,12849,1,2,2:2:0:0:
49,99,13193,6,0,B|104:90|89:121|153:111,1,97.9999970092774,4|0,1:2|0:0,0:0:0:0:
209,64,13708,1,2,2:2:0:0:
209,64,13880,2,0,P|256:64|285:102,1,97.9999970092774,8|2,0:3|2:2,0:0:0:0:
210,234,14567,6,0,P|224:280|235:328,1,97.9999970092774,2|0,1:2|1:1,0:0:0:0:
302,375,15082,1,2,3:2:0:0:
302,375,15254,2,0,P|349:378|387:349,1,97.9999970092774,8|2,0:3|2:2,0:0:0:0:
493,233,15941,6,0,P|481:185|467:138,1,97.9999970092774,2|0,1:2|0:0,0:0:0:0:
397,93,16456,2,0,P|366:129|318:131,1,97.9999970092774,2|0,2:2|0:0,0:0:0:0:
254,82,16972,1,2,2:2:0:0:
198,152,17143,1,0,1:1:0:0:
198,152,17315,6,0,L|103:127,1,97.9999970092774,2|0,1:2|1:1,0:0:0:0:
45,67,17830,1,0,3:3:0:0:
45,67,18002,2,0,P|30:87|23:111,1,48.9999985046387,8|0,0:3|3:3,0:0:0:0:
46,189,18346,1,2,2:2:0:0:
157,292,18689,6,0,L|251:267,1,97.9999970092774,2|0,1:2|0:0,0:0:0:0:
312,213,19204,1,2,2:2:0:0:
312,213,19376,2,0,L|406:237,1,97.9999970092774,8|2,0:3|2:2,0:0:0:0:
512,120,20063,6,0,P|502:73|460:52,1,97.9999970092774,2|0,1:2|1:1,0:0:0:0:
383,86,20579,1,2,3:2:0:0:
383,86,20750,2,0,B|348:77|348:77|333:59|333:59|292:48,1,97.9999970092774,8|2,0:3|2:2,0:0:0:0:
152,0,21437,6,0,P|181:37|176:85,1,97.9999970092774,0|2,1:1|2:2,0:0:0:0:
55,168,22124,2,0,L|79:262,1,97.9999970092774,8|0,0:3|0:0,0:0:0:0:
140,321,22640,1,0,1:1:0:0:
140,321,22811,5,0,1:1:0:0:
338,181,23327,1,2,2:2:0:0:
338,181,23498,2,0,L|385:193,1,48.9999985046387,2|2,2:2|2:2,0:0:0:0:
432,266,23842,1,2,2:2:0:0:
432,266,24014,1,2,2:2:0:0:
352,332,24185,6,0,L|230:300,1,125.999996154785,4|0,1:2|1:1,0:0:0:0:
157,239,24701,1,2,2:2:0:0:
157,239,24872,2,0,P|112:281|51:276,1,125.999996154785,2|2,1:2|1:2,0:0:0:0:
1,196,25388,2,0,L|32:74,1,125.999996154785,2|2,2:2|2:2,0:0:0:0:
110,19,25903,1,0,1:1:0:0:
178,89,26075,5,2,2:2:0:0:
178,89,26247,2,0,L|238:73,1,62.9999980773926,2|2,1:2|2:2,0:0:0:0:
308,8,26590,1,2,1:2:0:0:
375,75,26762,1,2,2:2:0:0:
466,32,26934,6,0,P|505:77|494:138,1,125.999996154785,2|2,1:2|1:2,0:0:0:0:
412,184,27449,2,0,B|400:231|400:231|414:258|414:258|404:309,1,125.999996154785,2|2,2:2|2:2,0:0:0:0:
327,358,27964,1,2,1:2:0:0:
259,292,28136,1,2,2:2:0:0:
172,337,28308,6,0,P|111:341|69:297,1,125.999996154785,2|0,1:2|1:1,0:0:0:0:
61,113,28995,2,0,P|30:119|0:129,1,62.9999980773926,2|2,1:2|2:2,0:0:0:0:
130,49,29338,1,2,1:2:0:0:
222,98,29510,1,2,2:2:0:0:
222,98,29596,1,2,2:2:0:0:
222,98,29682,6,0,P|212:127|205:158,1,62.9999980773926,2|0,1:2|0:0,0:0:0:0:
123,206,30025,2,0,P|133:235|140:266,1,62.9999980773926,10|0,2:2|0:0,0:0:0:0:
221,322,30369,2,0,P|263:277|323:282,1,125.999996154785,2|8,1:2|2:2,0:0:0:0:
408,327,30884,1,2,2:2:0:0:
408,327,31056,6,0,P|437:315|468:309,2,62.9999980773926,2|2|10,1:2|2:2|2:2,0:0:0:0:
323,282,31571,2,0,P|278:239|283:179,1,125.999996154785,2|0,2:2|0:0,0:0:0:0:
350,111,32086,1,8,2:2:0:0:
278,50,32258,1,0,0:0:0:0:
214,120,32430,6,0,P|154:98|93:83,1,125.999996154785,2|10,1:2|2:2,0:0:0:0:
0,56,32945,2,0,P|11:85|10:116,1,62.9999980773926,2|0,2:2|1:1,0:0:0:0:
78,183,33289,2,0,P|64:211|64:242,1,62.9999980773926,2|8,2:2|2:2,0:0:0:0:
7,318,33632,1,2,2:2:0:0:
85,377,33804,6,0,P|144:355|205:340,1,125.999996154785,2|8,1:2|2:2,0:0:0:0:
277,274,34319,1,2,2:2:0:0:
277,274,34491,2,0,L|330:290,1,56,2|2,1:2|2:2,0:0:0:0:
403,338,34834,1,10,2:2:0:0:
482,258,35006,1,2,3:2:0:0:
482,258,35092,1,0,3:3:0:0:
482,258,35178,6,0,P|466:197|445:137,1,125.999996154785,4|8,1:2|2:2,0:0:0:0:
364,83,35693,1,2,2:2:0:0:
364,83,35865,2,0,P|338:101|307:105,1,62.9999980773926,2|0,1:2|0:0,0:0:0:0:
225,53,36208,1,10,2:2:0:0:
169,129,36380,6,0,L|205:249,1,125.999996154785,2|2,2:2|2:2,0:0:0:0:
290,292,36895,1,8,2:2:0:0:
252,379,37067,1,2,2:2:0:0:
252,379,37239,2,0,P|221:369|191:362,1,62.9999980773926,2|2,1:2|2:2,0:0:0:0:
124,295,37583,1,10,2:2:0:0:
42,341,37754,1,2,2:2:0:0:
0,253,37926,6,0,B|20:227|20:227|5:131,1,125.999996154785,2|10,1:2|2:2,0:0:0:0:
75,66,38441,2,0,P|119:107|180:102,1,125.999996154785,2|2,2:2|2:2,0:0:0:0:
246,34,38957,1,10,2:2:0:0:
318,99,39128,1,2,2:2:0:0:
399,50,39300,6,0,B|461:38|461:38|510:77,1,125.999996154785,2|8,1:2|2:2,0:0:0:0:
429,248,39987,2,0,L|448:307,2,62.9999980773926,2|2|10,1:2|2:2|2:2,0:0:0:0:
336,195,40502,1,2,2:2:0:0:
336,195,40588,1,2,2:2:0:0:
336,195,40674,6,0,P|310:213|279:216,1,62.9999980773926,2|0,1:2|0:0,0:0:0:0:
224,294,41018,2,0,P|198:276|166:275,1,62.9999980773926,10|0,2:2|0:0,0:0:0:0:
92,212,41361,2,0,B|102:169|102:169|131:152|131:152|142:104,1,125.999996154785,2|8,1:2|2:2,0:0:0:0:
215,44,41876,1,2,2:2:0:0:
215,44,42048,6,0,P|243:57|274:59,2,62.9999980773926,2|2|10,1:2|2:2|2:2,0:0:0:0:
127,2,42563,2,0,P|65:16|5:35,1,125.999996154785,2|0,2:2|0:0,0:0:0:0:
0,128,43079,1,8,2:2:0:0:
75,186,43251,1,0,0:0:0:0:
18,265,43422,6,0,P|17:325|65:362,1,125.999996154785,2|10,1:2|2:2,0:0:0:0:
147,308,43938,1,2,3:2:0:0:
147,308,44109,2,0,L|176:315,3,31.4999990386963,0|0|2|0,1:1|3:3|3:2|3:3,0:0:0:0:
198,340,44453,2,0,L|227:347,3,31.4999990386963,8|0|2|0,2:2|3:3|3:2|3:3,0:0:0:0:
250,370,44796,5,10,2:2:0:0:
438,228,45312,1,2,2:2:0:0:
438,228,45483,2,0,L|493:242,1,56,2|2,2:2|2:2,0:0:0:0:
378,158,45827,2,0,L|323:171,1,56,2|2,2:2|3:2,0:0:0:0:
313,181,46085,1,0,3:3:0:0:
302,189,46170,5,12,2:2:0:0:
162,258,51667,6,0,P|190:257|215:270,1,56,10|0,1:2|3:3,0:0:0:0:
94,316,52010,2,0,P|66:317|41:304,1,56,10|0,1:2|3:3,0:0:0:0:
0,228,52354,2,0,L|32:120,1,112,10|10,1:2|1:2,0:0:0:0:
157,35,53041,6,0,P|179:50|207:54,1,56,10|2,1:2|3:2,0:0:0:0:
289,18,53384,2,0,P|316:19|340:33,1,56,10|2,1:2|3:2,0:0:0:0:
398,103,53728,2,0,B|381:167|364:135|344:200,1,112,10|10,1:2|1:2,0:0:0:0:
210,316,54415,6,0,L|153:298,1,59.5000011348725,10|0,1:2|3:3,0:0:0:0:
179,213,54758,2,0,L|235:230,1,59.5000011348725,10|0,1:2|3:3,0:0:0:0:
301,297,55102,2,0,L|329:288,3,29.7500005674362,10|0|0|0,1:2|3:3|3:3|3:3,0:0:0:0:
358,297,55445,2,0,L|386:288,3,29.7500005674362,10|0|2|0,1:2|3:3|3:2|3:3,0:0:0:0:
415,298,55789,5,2,1:2:0:0:
225,86,56304,1,2,2:2:0:0:
225,86,56390,1,2,2:2:0:0:
225,86,56476,2,0,L|242:29,1,59.5000011348725,2|2,2:2|2:2,0:0:0:0:
226,174,56819,2,0,P|196:170|170:155,1,59.5000011348725,2|2,2:2|2:2,0:0:0:0:
101,74,57163,6,0,B|99:96|84:113|59:119|59:119|74:140|72:162|58:180,1,132.999996448517,4|10,1:2|2:2,0:0:0:0:
0,262,57678,1,0,0:0:0:0:
0,262,57850,2,0,B|75:282|29:311|108:333,1,132.999996448517,2|10,1:2|2:2,0:0:0:0:
191,278,58365,6,0,P|254:270|300:315,1,132.999996448517,2|2,2:2|2:2,0:0:0:0:
380,382,58880,1,8,2:2:0:0:
446,307,59052,1,2,2:2:0:0:
446,307,59224,2,0,P|437:274|426:243,1,66.4999982242585,2|2,1:2|2:2,0:0:0:0:
348,182,59567,1,10,2:2:0:0:
413,106,59739,1,2,2:2:0:0:
337,36,59911,6,0,B|287:47|287:47|274:74|274:74|220:86,1,132.999996448517,2|10,1:2|2:2,0:0:0:0:
145,148,60426,2,0,P|131:210|177:254,1,132.999996448517,2|2,2:2|2:2,0:0:0:0:
264,305,60942,1,10,2:2:0:0:
321,224,61113,1,2,2:2:0:0:
321,224,61285,6,0,P|386:237|449:256,1,132.999996448517,0|8,1:1|2:2,0:0:0:0:
419,158,61800,1,2,2:2:0:0:
419,158,61886,1,2,2:2:0:0:
419,158,61972,2,0,P|400:130|396:97,1,66.4999982242585,2|2,1:2|2:2,0:0:0:0:
392,0,62316,2,0,P|424:6|455:17,1,66.4999982242585,10|2,2:2|2:2,0:0:0:0:
307,57,62659,6,0,P|244:34|179:18,1,132.999996448517,2|10,1:2|2:2,0:0:0:0:
96,73,63174,1,0,0:0:0:0:
96,73,63346,2,0,P|129:128|110:189,1,132.999996448517,2|10,1:2|2:2,0:0:0:0:
256,336,64033,6,0,P|287:326|320:320,1,66.4999982242585,2|2,1:2|2:2,0:0:0:0:
294,224,64377,2,0,P|261:229|229:239,1,66.4999982242585,10|2,2:2|2:2,0:0:0:0:
160,311,64720,1,2,1:2:0:0:
7,183,65064,2,0,L|29:85,1,99.7499973363877,10|2,2:2|2:2,0:0:0:0:
52,65,65407,6,0,P|78:84|111:88,1,66.4999982242585,2|0,1:2|0:0,0:0:0:0:
197,36,65751,2,0,P|229:36|258:53,1,66.4999982242585,10|0,2:2|0:0,0:0:0:0:
316,135,66094,2,0,L|443:97,1,132.999996448517,2|10,1:2|2:2,0:0:0:0:
512,171,66610,1,2,2:2:0:0:
498,269,66781,6,0,L|370:306,1,132.999996448517,2|8,1:2|2:2,0:0:0:0:
280,351,67297,1,2,2:2:0:0:
280,351,67382,1,2,2:2:0:0:
280,351,67468,2,0,P|248:339|216:330,1,66.4999982242585,2|2,1:2|2:2,0:0:0:0:
161,247,67812,2,0,P|169:214|181:183,1,66.4999982242585,10|2,2:2|3:2,0:0:0:0:
195,174,68069,1,0,3:3:0:0:
209,165,68155,6,0,P|246:113|230:50,1,132.999996448517,4|10,1:2|2:2,0:0:0:0:
144,0,68671,1,0,0:0:0:0:
144,0,68842,2,0,B|97:12|97:12|82:42|82:42|29:56,1,132.999996448517,2|10,1:2|2:2,0:0:0:0:
0,150,69358,6,0,P|20:175|26:208,1,66.4999982242585,2|0,2:2|1:1,0:0:0:0:
76,291,69701,2,0,P|43:299|12:310,1,66.4999982242585,2|8,2:2|2:2,0:0:0:0:
134,212,70045,1,2,2:2:0:0:
134,212,70216,2,0,P|166:220|197:230,1,66.4999982242585,2|2,1:2|2:2,0:0:0:0:
252,315,70560,1,10,2:2:0:0:
345,278,70732,1,2,2:2:0:0:
290,191,70903,6,0,L|327:63,1,132.999996448517,2|10,1:2|2:2,0:0:0:0:
408,4,71419,2,0,P|471:13|500:70,1,132.999996448517,2|2,2:2|2:2,0:0:0:0:
448,156,71934,1,10,2:2:0:0:
357,115,72106,1,2,2:2:0:0:
357,115,72278,6,0,B|280:130|330:167|246:188,1,132.999996448517,0|8,1:1|2:2,0:0:0:0:
154,154,72793,1,2,2:2:0:0:
154,154,72879,1,2,2:2:0:0:
154,154,72965,2,0,P|142:123|151:92,1,66.4999982242585,2|2,1:2|2:2,0:0:0:0:
251,187,73308,2,0,P|262:217|253:248,1,66.4999982242585,10|2,2:2|2:2,0:0:0:0:
180,327,73652,6,0,B|135:317|135:317|102:334|102:334|50:322,1,132.999996448517,2|10,1:2|2:2,0:0:0:0:
0,239,74167,1,0,0:0:0:0:
0,239,74339,2,0,B|7:203|39:188|39:188|16:161|23:126,1,132.999996448517,2|10,1:2|2:2,0:0:0:0:
184,8,75026,6,0,P|216:6|246:20,1,66.4999982242585,2|2,1:2|2:2,0:0:0:0:
308,100,75369,2,0,L|290:164,1,66.4999982242585,10|2,2:2|2:2,0:0:0:0:
214,229,75713,1,2,1:2:0:0:
361,363,76056,2,0,P|408:346|456:334,1,99.7499973363877,10|2,2:2|2:2,0:0:0:0:
486,327,76400,6,0,P|498:296|489:265,1,66.4999982242585,12|0,1:2|0:0,0:0:0:0:
417,197,76743,2,0,P|404:166|413:135,1,66.4999982242585,10|0,3:2|0:0,0:0:0:0:
465,49,77087,2,0,B|431:38|431:38|401:53|401:53|385:22|352:12,1,132.999996448517,10|10,2:2|3:2,0:0:0:0:
275,74,77602,1,2,2:2:0:0:
192,41,77774,6,0,L|133:50,1,59.5000011348725,12|8,1:2|2:2,0:0:0:0:
144,138,78117,2,0,L|202:128,1,59.5000011348725,8|8,3:2|2:2,0:0:0:0:
275,74,78461,2,0,L|304:80,3,29.7500005674362,8|8|8|8,2:2|2:2|2:2|2:2,0:0:0:0:
324,102,78804,2,0,L|353:108,3,29.7500005674362,8|8|8|8,3:2|2:2|2:2|2:2,0:0:0:0:
373,130,79148,5,4,1:2:0:0:
60,300,91514,6,0,B|129:288|88:249|162:237,1,119.000002269745,4|10,1:2|2:2,0:0:0:0:
243,260,92030,2,0,P|289:225|293:168,1,119.000002269745,2|2,2:2|2:2,0:0:0:0:
223,108,92545,1,10,2:2:0:0:
356,8,92888,6,0,L|471:34,1,119.000002269745,2|10,1:2|2:2,0:0:0:0:
512,115,93404,2,0,B|476:162|476:162|486:221,1,119.000002269745,2|2,2:2|2:2,0:0:0:0:
507,309,93919,1,10,2:2:0:0:
361,207,94262,6,0,P|302:218|245:233,1,119.000002269745,2|10,1:2|2:2,0:0:0:0:
166,276,94778,1,2,2:2:0:0:
166,276,94949,2,0,P|181:300|186:330,1,59.5000011348725,0|2,1:1|2:2,0:0:0:0:
108,375,95293,1,10,2:2:0:0:
30,201,95637,6,0,B|43:157|43:157|67:142|67:142|79:95,1,119.000002269745,2|8,1:2|2:2,0:0:0:0:
147,41,96152,1,2,2:2:0:0:
147,41,96324,2,0,P|170:58|199:64,1,59.5000011348725,2|2,1:2|2:2,0:0:0:0:
282,24,96667,1,8,2:2:0:0:
416,133,97011,6,0,P|399:190|386:248,1,119.000002269745,2|10,1:2|2:2,0:0:0:0:
305,291,97526,2,0,P|261:252|203:254,1,119.000002269745,2|2,2:2|2:2,0:0:0:0:
127,300,98041,1,10,2:2:0:0:
8,175,98385,6,0,P|1:118|46:82,1,119.000002269745,2|10,1:2|2:2,0:0:0:0:
130,44,98900,2,0,B|171:53|171:53|187:82|187:82|237:95,1,119.000002269745,2|2,2:2|2:2,0:0:0:0:
301,147,99415,1,10,2:2:0:0:
456,71,99759,6,0,B|477:96|477:96|465:185,1,119.000002269745,0|10,1:1|2:2,0:0:0:0:
407,249,100274,1,0,0:0:0:0:
407,249,100446,2,0,P|419:276|428:304,1,59.5000011348725,0|2,1:1|2:2,0:0:0:0:
365,371,100789,2,0,P|337:358|309:349,1,59.5000011348725,10|2,2:2|2:2,0:0:0:0:
242,290,101133,5,0,1:1:0:0:
343,69,101648,1,2,2:2:0:0:
343,69,101820,2,0,L|400:83,1,59.5000011348725,2|2,2:2|2:2,0:0:0:0:
273,18,102163,2,0,L|215:32,1,59.5000011348725,2|2,2:2|2:2,0:0:0:0:
153,97,102507,5,4,2:2:0:0:
86,47,112125,5,0,3:3:0:0:
138,113,112297,1,0,3:3:0:0:
73,166,112469,2,0,L|86:216,1,52.5000020027161,8|2,0:3|3:2,0:0:0:0:
161,267,112812,2,0,L|186:260,3,26.2500010013581,2|0|2|0,3:2|3:3|3:2|3:3,0:0:0:0:
216,267,113156,2,0,L|241:260,3,26.2500010013581,2|0|2|0,3:2|3:0|3:2|3:3,0:0:0:0:
271,268,113499,6,0,P|294:252|321:247,1,56,12|0,1:2|0:0,0:0:0:0:
358,371,113843,2,0,P|336:355|322:332,1,56,8|2,2:2|2:2,0:0:0:0:
405,297,114186,2,0,P|420:245|402:193,1,112,10|10,2:2|2:2,0:0:0:0:
333,132,114702,1,2,2:2:0:0:
333,132,114873,6,0,L|278:146,1,56,8|2,2:2|2:2,0:0:0:0:
201,95,115217,2,0,L|146:109,1,56,8|2,2:2|2:2,0:0:0:0:
77,165,115560,2,0,P|59:143|54:116,2,56,10|2|10,2:2|2:2|2:2,0:0:0:0:
155,221,116076,1,2,2:2:0:0:
155,221,116247,6,0,L|210:207,1,56,10|0,2:2|0:0,0:0:0:0:
278,145,116591,1,10,2:2:0:0:
216,80,116763,1,2,2:2:0:0:
216,80,116934,2,0,P|214:52|229:28,1,56,8|2,2:2|2:2,0:0:0:0:
315,0,117278,2,0,L|370:14,1,56,10|2,2:2|2:2,0:0:0:0:
441,72,117621,6,0,P|408:115|417:169,1,112,10|8,2:2|2:2,0:0:0:0:
479,331,118308,2,0,P|453:320|425:317,1,56,10|2,2:2|2:2,0:0:0:0:
357,254,118652,2,0,P|331:264|303:267,1,56,10|2,2:2|2:2,0:0:0:0:
234,334,118996,6,0,B|194:322|194:322|176:297|176:297|129:284,1,112,10|10,2:2|2:2,0:0:0:0:
55,322,119511,1,0,0:0:0:0:
1,247,119683,2,0,B|-8:191|-8:191|27:149,1,112,10|8,2:2|2:2,0:0:0:0:
110,107,120198,1,2,3:2:0:0:
110,107,120370,6,0,P|103:79|93:53,2,56,10|2|10,2:2|3:2|2:2,0:0:0:0:
194,146,120885,1,2,3:2:0:0:
194,146,121057,2,0,B|266:123|209:98|287:74,1,112,8|8,2:2|2:2,0:0:0:0:
356,30,121572,1,0,3:3:0:0:
434,85,121744,6,0,P|436:112|423:136,1,56,10|0,2:2|3:3,0:0:0:0:
343,183,122087,2,0,P|330:207|334:235,1,56,10|2,2:2|3:2,0:0:0:0:
413,290,122431,2,0,L|405:316,3,28,8|0|2|0,2:2|3:3|3:2|3:3,0:0:0:0:
382,337,122774,2,0,L|374:363,3,28,8|0|2|0,2:2|3:3|3:2|3:3,0:0:0:0:
351,384,123118,5,8,2:2:0:0:
184,219,123633,1,2,2:2:0:0:
184,219,123719,1,2,2:2:0:0:
184,219,123805,2,0,L|130:234,1,56,2|2,2:2|2:2,0:0:0:0:
39,262,124148,2,0,P|50:236|49:208,1,56,2|2,2:2|2:2,0:0:0:0:
1,117,124492,6,0,P|0:52|52:15,1,132.999996448517,4|10,1:2|2:2,0:0:0:0:
132,77,125007,1,0,0:0:0:0:
132,77,125179,2,0,B|179:63|179:63|196:34|196:34|249:20,1,132.999996448517,2|10,1:2|2:2,0:0:0:0:
328,76,125694,6,0,P|392:79|435:30,1,132.999996448517,2|2,2:2|2:2,0:0:0:0:
512,95,126209,1,8,2:2:0:0:
459,172,126381,1,2,2:2:0:0:
459,172,126553,2,0,L|481:234,1,66.4999982242585,2|2,1:2|2:2,0:0:0:0:
437,324,126896,1,10,2:2:0:0:
346,275,127068,1,2,2:2:0:0:
284,353,127240,6,0,B|210:337|252:299|175:282,1,132.999996448517,2|10,1:2|2:2,0:0:0:0:
87,327,127755,2,0,P|34:291|38:227,1,132.999996448517,2|2,2:2|2:2,0:0:0:0:
99,149,128270,1,10,2:2:0:0:
192,186,128442,1,2,2:2:0:0:
192,186,128614,6,0,P|254:162|318:145,1,132.999996448517,0|8,1:1|2:2,0:0:0:0:
396,77,129129,1,2,2:2:0:0:
396,77,129215,1,2,2:2:0:0:
396,77,129301,2,0,P|428:79|454:99,1,66.4999982242585,2|2,1:2|2:2,0:0:0:0:
508,184,129644,2,0,L|487:247,1,66.4999982242585,10|2,2:2|2:2,0:0:0:0:
400,309,129988,6,0,P|356:261|291:264,1,132.999996448517,2|10,1:2|2:2,0:0:0:0:
216,328,130503,1,0,0:0:0:0:
216,328,130675,2,0,L|88:290,1,132.999996448517,2|10,1:2|2:2,0:0:0:0:
1,111,131362,6,0,P|22:86|26:54,1,66.4999982242585,2|2,1:2|2:2,0:0:0:0:
124,80,131706,2,0,P|155:69|188:62,1,66.4999982242585,10|2,2:2|2:2,0:0:0:0:
270,0,132049,1,2,1:2:0:0:
442,113,132393,2,0,P|426:160|415:209,1,99.7499973363877,10|2,2:2|2:2,0:0:0:0:
393,229,132736,6,0,P|365:211|332:207,1,66.4999982242585,2|0,1:2|0:0,0:0:0:0:
242,251,133080,2,0,P|209:249|180:232,1,66.4999982242585,10|0,2:2|0:0,0:0:0:0:
113,155,133423,2,0,P|128:90|148:26,1,132.999996448517,2|10,1:2|2:2,0:0:0:0:
245,2,133938,1,2,2:2:0:0:
322,66,134110,6,0,P|302:129|286:194,1,132.999996448517,2|8,1:2|2:2,0:0:0:0:
207,260,134625,1,2,2:2:0:0:
207,260,134711,1,2,2:2:0:0:
207,260,134797,2,0,P|206:292|223:320,1,66.4999982242585,2|2,1:2|2:2,0:0:0:0:
313,367,135141,2,0,P|344:356|376:347,1,66.4999982242585,10|2,2:2|3:2,0:0:0:0:
393,351,135398,1,0,3:3:0:0:
409,355,135484,6,0,P|453:307|446:243,1,132.999996448517,4|10,1:2|2:2,0:0:0:0:
384,165,135999,1,0,0:0:0:0:
384,165,136171,2,0,P|319:180|256:200,1,132.999996448517,2|10,1:2|2:2,0:0:0:0:
167,254,136687,6,0,P|138:237|125:207,1,66.4999982242585,2|0,2:2|1:1,0:0:0:0:
176,121,137030,2,0,L|155:57,1,66.4999982242585,2|8,2:2|2:2,0:0:0:0:
71,4,137374,1,2,2:2:0:0:
71,4,137545,2,0,P|38:5|10:23,1,66.4999982242585,2|2,1:2|2:2,0:0:0:0:
61,110,137889,1,10,2:2:0:0:
0,193,138061,1,2,2:2:0:0:
83,253,138232,6,0,L|209:212,1,132.999996448517,2|10,1:2|2:2,0:0:0:0:
284,145,138748,2,0,B|361:164|318:192|403:210,1,132.999996448517,2|2,2:2|2:2,0:0:0:0:
490,164,139263,1,10,2:2:0:0:
443,72,139435,1,2,2:2:0:0:
443,72,139606,6,0,B|364:55|407:27|330:7,1,132.999996448517,0|8,1:1|2:2,0:0:0:0:
243,57,140122,1,2,2:2:0:0:
243,57,140208,1,2,2:2:0:0:
243,57,140293,2,0,P|210:49|186:27,1,66.4999982242585,2|2,1:2|2:2,0:0:0:0:
117,100,140637,2,0,L|52:80,1,66.4999982242585,10|2,2:2|2:2,0:0:0:0:
1,166,140980,6,0,P|48:209|40:273,1,132.999996448517,2|10,1:2|2:2,0:0:0:0:
93,359,141496,1,0,0:0:0:0:
93,359,141667,2,0,B|140:347|140:347|175:363|175:363|226:351,1,132.999996448517,2|10,1:2|2:2,0:0:0:0:
376,217,142355,6,0,P|407:227|429:251,1,66.4999982242585,2|2,1:2|2:2,0:0:0:0:
291,247,142698,2,0,P|282:215|290:183,1,66.4999982242585,10|2,2:2|2:2,0:0:0:0:
364,115,143042,1,2,1:2:0:0:
208,3,143385,2,0,P|159:15|112:30,1,99.7499973363877,10|2,2:2|2:2,0:0:0:0:
82,28,143729,6,0,P|101:54|104:87,1,66.4999982242585,2|0,1:2|0:0,0:0:0:0:
43,166,144072,2,0,P|41:198|57:227,1,66.4999982242585,10|0,2:2|0:0,0:0:0:0:
147,273,144416,2,0,B|223:250|173:212|257:186,1,132.999996448517,2|10,1:2|2:2,0:0:0:0:
327,133,144931,1,2,2:2:0:0:
405,188,145103,6,0,P|388:241|374:295,1,112,2|8,1:2|2:2,0:0:0:0:
297,341,145618,1,2,3:2:0:0:
297,341,145790,2,0,L|270:333,3,28,2|0|2|0,3:2|3:3|3:2|3:3,0:0:0:0:
245,315,146133,2,0,L|218:322,3,28,10|0|2|0,2:2|3:3|3:2|3:3,0:0:0:0:
199,344,146477,6,0,L|77:309,1,125.999996154785,4|0,1:2|1:1,0:0:0:0:
10,243,146992,1,2,2:2:0:0:
10,243,147164,2,0,P|0:182|42:138,1,125.999996154785,2|2,1:2|1:2,0:0:0:0:
130,95,147679,2,0,B|165:105|187:80|187:80|193:113|229:123,1,125.999996154785,2|2,2:2|2:2,0:0:0:0:
313,79,148194,1,0,1:1:0:0:
365,158,148366,1,2,2:2:0:0:
365,158,148538,6,0,L|346:218,1,62.9999980773926,2|2,1:2|2:2,0:0:0:0:
266,268,148881,1,2,1:2:0:0:
211,187,149053,1,2,2:2:0:0:
115,218,149225,6,0,P|76:265|89:325,1,125.999996154785,2|2,1:2|1:2,0:0:0:0:
166,381,149740,2,0,B|209:367|209:367|238:379|238:379|288:362,1,125.999996154785,2|2,2:2|2:2,0:0:0:0:
351,296,150255,1,2,1:2:0:0:
289,220,150427,1,2,2:2:0:0:
363,156,150599,6,0,P|364:95|318:55,1,125.999996154785,2|0,1:2|1:1,0:0:0:0:
238,6,151114,1,2,2:2:0:0:
238,6,151200,1,2,2:2:0:0:
238,6,151286,2,0,L|177:23,1,62.9999980773926,2|2,1:2|2:2,0:0:0:0:
123,101,151629,1,2,1:2:0:0:
193,169,151801,1,2,2:2:0:0:
124,243,151973,6,0,L|63:225,1,62.9999980773926,2|0,1:2|0:0,0:0:0:0:
34,315,152316,2,0,L|94:332,1,62.9999980773926,2|0,1:2|0:0,0:0:0:0:
188,315,152660,2,0,B|256:293|237:351|312:328,1,125.999996154785,2|0,1:2|1:1,0:0:0:0:
372,261,153175,1,2,3:2:0:0:
372,261,153347,6,0,L|354:200,2,62.9999980773926,2|2|2,1:2|3:2|1:2,0:0:0:0:
460,304,153862,2,0,P|508:267|510:206,1,125.999996154785,2|0,3:2|3:3,0:0:0:0:
440,143,154378,2,0,L|466:51,1,94.499997116089,0|2,1:1|2:2,0:0:0:0:
450,29,154721,6,0,P|420:40|389:46,1,62.9999980773926,2|0,1:2|3:3,0:0:0:0:
317,107,155065,1,2,1:2:0:0:
317,107,155236,2,0,P|287:95|256:89,1,62.9999980773926,2|0,3:2|1:1,0:0:0:0:
179,30,155580,2,0,B|157:30|135:40|135:40|116:71|116:71|96:81|72:81,1,125.999996154785,2|2,3:2|3:2,0:0:0:0:
256,192,156095,12,4,157469,1:2:0:0:
