osu file format v14

[General]
AudioFilename: audio.mp3
AudioLeadIn: 0
PreviewTime: 23282
Countdown: 0
SampleSet: Normal
StackLeniency: 0
Mode: 1
LetterboxInBreaks: 0
WidescreenStoryboard: 0

[Editor]
Bookmarks: 24184,46169,57161,80520,102505,124490,146475
DistanceSpacing: 1.6
BeatDivisor: 4
GridSize: 32
TimelineZoom: 2.102001

[Metadata]
Title:Everytime We Touch (Nightcore Mix)
TitleUnicode:Everytime We Touch (Nightcore Mix)
Artist:Cascada
ArtistUnicode:Cascada
Creator:Genjuro
Version:Inner Oni
Source:
Tags:english electronic electrodance electro dance techno eurodance hands up sped speed up remix edm every time greenshell homielove hivie
BeatmapID:4143266
BeatmapSetID:1993798

[Difficulty]
HPDrainRate:6
CircleSize:2
OverallDifficulty:6
ApproachRate:10
SliderMultiplier:1.4
SliderTickRate:1

[Events]
//Background and Video events
0,0,"bg.jpg",0,80
//Break Periods
//Storyboard Layer 0 (Background)
//Storyboard Layer 1 (Fail)
//Storyboard Layer 2 (Pass)
//Storyboard Layer 3 (Foreground)
//Storyboard Layer 4 (Overlay)
//Storyboard Sound Samples

[TimingPoints]
2208,343.516694911373,4,1,0,25,1,0
13114,-100,4,1,0,50,0,0
24107,-100,4,1,0,100,0,0
24193,-100,4,1,0,100,0,1
44804,-100,4,1,0,100,0,0
46092,-100,4,1,0,75,0,0
57084,-100,4,1,0,100,0,0
57170,-100,4,1,0,100,0,1
79155,-100,4,1,0,100,0,0
80443,-100,4,1,0,50,0,0
80529,343.516694911373,4,1,0,50,1,0
91435,-100,4,1,0,88,0,0
102428,-100,4,1,0,75,0,0
124413,-100,4,1,0,100,0,0
124499,-100,4,1,0,100,0,1
146398,-100,4,1,0,88,0,1
146484,-100,4,1,0,88,0,0

[HitObjects]
256,192,2208,5,0,0:0:0:0:
256,192,2895,1,0,0:0:0:0:
256,192,3582,1,2,0:0:0:0:
256,192,4956,1,2,0:0:0:0:
256,192,5643,1,2,0:0:0:0:
256,192,6330,1,0,0:0:0:0:
256,192,7704,1,0,0:0:0:0:
256,192,8391,1,0,0:0:0:0:
256,192,9078,1,2,0:0:0:0:
256,192,9765,1,2,0:0:0:0:
256,192,10452,1,0,0:0:0:0:
256,192,11826,1,2,0:0:0:0:
256,192,13200,1,0,0:0:0:0:
256,192,13544,1,2,0:0:0:0:
256,192,13715,1,0,0:0:0:0:
256,192,14059,1,0,0:0:0:0:
256,192,14231,1,2,0:0:0:0:
256,192,14574,1,0,0:0:0:0:
256,192,14918,1,2,0:0:0:0:
256,192,15089,1,2,0:0:0:0:
256,192,15261,1,0,0:0:0:0:
256,192,15605,1,2,0:0:0:0:
256,192,15948,1,0,0:0:0:0:
256,192,16292,1,2,0:0:0:0:
256,192,16463,1,0,0:0:0:0:
256,192,16807,1,2,0:0:0:0:
256,192,16979,1,2,0:0:0:0:
256,192,17322,1,0,0:0:0:0:
256,192,17666,1,2,0:0:0:0:
256,192,17838,1,2,0:0:0:0:
256,192,18009,1,0,0:0:0:0:
256,192,18181,1,0,0:0:0:0:
256,192,18353,1,2,0:0:0:0:
256,192,18696,1,0,0:0:0:0:
256,192,19040,1,2,0:0:0:0:
256,192,19212,1,0,0:0:0:0:
256,192,19555,1,0,0:0:0:0:
256,192,19727,1,2,0:0:0:0:
256,192,20070,1,0,0:0:0:0:
256,192,20414,1,2,0:0:0:0:
256,192,20586,1,2,0:0:0:0:
256,192,20757,1,0,0:0:0:0:
256,192,21101,1,2,0:0:0:0:
256,192,21444,8,0,23849,0:0:0:0:
256,192,24193,5,4,0:0:0:0:
256,192,24364,1,0,0:0:0:0:
256,192,24450,1,0,0:0:0:0:
256,192,24536,1,8,0:0:0:0:
256,192,24708,1,0,0:0:0:0:
256,192,24880,1,8,0:0:0:0:
256,192,24965,1,8,0:0:0:0:
256,192,25051,1,0,0:0:0:0:
256,192,25223,1,8,0:0:0:0:
256,192,25309,1,0,0:0:0:0:
256,192,25395,1,0,0:0:0:0:
256,192,25567,1,0,0:0:0:0:
256,192,25738,1,0,0:0:0:0:
256,192,25824,1,0,0:0:0:0:
256,192,25910,1,8,0:0:0:0:
256,192,26082,1,0,0:0:0:0:
256,192,26254,1,8,0:0:0:0:
256,192,26340,1,8,0:0:0:0:
256,192,26425,1,0,0:0:0:0:
256,192,26511,1,0,0:0:0:0:
256,192,26597,1,8,0:0:0:0:
256,192,26769,1,8,0:0:0:0:
256,192,26941,1,0,0:0:0:0:
256,192,27112,1,0,0:0:0:0:
256,192,27198,1,0,0:0:0:0:
256,192,27284,1,8,0:0:0:0:
256,192,27456,1,0,0:0:0:0:
256,192,27628,1,8,0:0:0:0:
256,192,27714,1,8,0:0:0:0:
256,192,27799,1,0,0:0:0:0:
256,192,27971,1,8,0:0:0:0:
256,192,28057,1,0,0:0:0:0:
256,192,28143,1,0,0:0:0:0:
256,192,28315,1,0,0:0:0:0:
256,192,28487,1,0,0:0:0:0:
256,192,28572,1,0,0:0:0:0:
256,192,28658,1,8,0:0:0:0:
256,192,28830,1,0,0:0:0:0:
256,192,29002,1,8,0:0:0:0:
256,192,29088,1,8,0:0:0:0:
256,192,29174,1,0,0:0:0:0:
256,192,29259,1,0,0:0:0:0:
256,192,29345,1,8,0:0:0:0:
256,192,29431,1,0,0:0:0:0:
256,192,29517,1,8,0:0:0:0:
256,192,29689,1,0,0:0:0:0:
256,192,29861,1,0,0:0:0:0:
256,192,29946,1,0,0:0:0:0:
256,192,30032,1,8,0:0:0:0:
256,192,30204,1,0,0:0:0:0:
256,192,30376,1,0,0:0:0:0:
256,192,30462,1,0,0:0:0:0:
256,192,30548,1,0,0:0:0:0:
256,192,30634,1,0,0:0:0:0:
256,192,30719,1,8,0:0:0:0:
256,192,30891,1,0,0:0:0:0:
256,192,31063,1,0,0:0:0:0:
256,192,31235,1,0,0:0:0:0:
256,192,31321,1,0,0:0:0:0:
256,192,31406,1,8,0:0:0:0:
256,192,31578,1,0,0:0:0:0:
256,192,31664,1,0,0:0:0:0:
256,192,31750,1,0,0:0:0:0:
256,192,31922,1,0,0:0:0:0:
256,192,32008,1,0,0:0:0:0:
256,192,32093,1,8,0:0:0:0:
256,192,32265,1,0,0:0:0:0:
256,192,32437,1,0,0:0:0:0:
256,192,32609,1,0,0:0:0:0:
256,192,32695,1,0,0:0:0:0:
256,192,32780,1,8,0:0:0:0:
256,192,32952,1,0,0:0:0:0:
256,192,33124,1,0,0:0:0:0:
256,192,33210,1,0,0:0:0:0:
256,192,33296,1,0,0:0:0:0:
256,192,33382,1,0,0:0:0:0:
256,192,33468,1,8,0:0:0:0:
256,192,33639,1,0,0:0:0:0:
256,192,33811,1,8,0:0:0:0:
256,192,33897,1,0,0:0:0:0:
256,192,33983,1,0,0:0:0:0:
256,192,34155,1,8,0:0:0:0:
256,192,34240,1,0,0:0:0:0:
256,192,34326,1,0,0:0:0:0:
256,192,34498,1,8,0:0:0:0:
256,192,34584,1,8,0:0:0:0:
256,192,34670,1,0,0:0:0:0:
256,192,34842,1,8,0:0:0:0:
256,192,34927,1,8,0:0:0:0:
256,192,35013,1,0,0:0:0:0:
256,192,35185,1,4,0:0:0:0:
256,192,35357,1,0,0:0:0:0:
256,192,35443,1,0,0:0:0:0:
256,192,35529,1,8,0:0:0:0:
256,192,35700,1,0,0:0:0:0:
256,192,35786,1,0,0:0:0:0:
256,192,35872,1,8,0:0:0:0:
256,192,35958,1,8,0:0:0:0:
256,192,36044,1,0,0:0:0:0:
256,192,36216,1,8,0:0:0:0:
256,192,36302,1,8,0:0:0:0:
256,192,36387,1,0,0:0:0:0:
256,192,36559,1,0,0:0:0:0:
256,192,36731,1,0,0:0:0:0:
256,192,36817,1,0,0:0:0:0:
256,192,36903,1,8,0:0:0:0:
256,192,36989,1,0,0:0:0:0:
256,192,37074,1,8,0:0:0:0:
256,192,37160,1,8,0:0:0:0:
256,192,37246,1,0,0:0:0:0:
256,192,37418,1,8,0:0:0:0:
256,192,37504,1,0,0:0:0:0:
256,192,37590,1,8,0:0:0:0:
256,192,37676,1,0,0:0:0:0:
256,192,37761,1,8,0:0:0:0:
256,192,37933,1,0,0:0:0:0:
256,192,38105,1,0,0:0:0:0:
256,192,38191,1,0,0:0:0:0:
256,192,38277,1,8,0:0:0:0:
256,192,38449,1,0,0:0:0:0:
256,192,38534,1,0,0:0:0:0:
256,192,38620,1,8,0:0:0:0:
256,192,38706,1,8,0:0:0:0:
256,192,38792,1,0,0:0:0:0:
256,192,38964,1,8,0:0:0:0:
256,192,39050,1,8,0:0:0:0:
256,192,39136,1,0,0:0:0:0:
256,192,39307,1,0,0:0:0:0:
256,192,39479,1,0,0:0:0:0:
256,192,39565,1,0,0:0:0:0:
256,192,39651,1,8,0:0:0:0:
256,192,39737,1,0,0:0:0:0:
256,192,39823,1,8,0:0:0:0:
256,192,39908,1,8,0:0:0:0:
256,192,39994,1,0,0:0:0:0:
256,192,40166,1,8,0:0:0:0:
256,192,40252,1,8,0:0:0:0:
256,192,40338,1,8,0:0:0:0:
256,192,40424,1,8,0:0:0:0:
256,192,40510,1,8,0:0:0:0:
256,192,40681,1,0,0:0:0:0:
256,192,40853,1,0,0:0:0:0:
256,192,40939,1,0,0:0:0:0:
256,192,41025,1,8,0:0:0:0:
256,192,41111,1,8,0:0:0:0:
256,192,41197,1,0,0:0:0:0:
256,192,41368,1,8,0:0:0:0:
256,192,41454,1,8,0:0:0:0:
256,192,41540,1,0,0:0:0:0:
256,192,41626,1,0,0:0:0:0:
256,192,41712,1,8,0:0:0:0:
256,192,41884,1,8,0:0:0:0:
256,192,41970,1,8,0:0:0:0:
256,192,42055,1,0,0:0:0:0:
256,192,42227,1,0,0:0:0:0:
256,192,42313,1,0,0:0:0:0:
256,192,42399,1,8,0:0:0:0:
256,192,42485,1,8,0:0:0:0:
256,192,42571,1,0,0:0:0:0:
256,192,42742,1,8,0:0:0:0:
256,192,42828,1,8,0:0:0:0:
256,192,42914,1,0,0:0:0:0:
256,192,43000,1,0,0:0:0:0:
256,192,43086,1,8,0:0:0:0:
256,192,43258,1,0,0:0:0:0:
256,192,43430,1,8,0:0:0:0:
256,192,43515,1,8,0:0:0:0:
256,192,43601,1,0,0:0:0:0:
256,192,43687,1,0,0:0:0:0:
256,192,43773,1,8,0:0:0:0:
256,192,43859,1,0,0:0:0:0:
256,192,43945,1,0,0:0:0:0:
256,192,44031,1,0,0:0:0:0:
256,192,44117,1,8,0:0:0:0:
256,192,44202,1,8,0:0:0:0:
256,192,44288,1,0,0:0:0:0:
256,192,44374,1,0,0:0:0:0:
256,192,44460,1,8,0:0:0:0:
256,192,44546,1,8,0:0:0:0:
256,192,44632,1,8,0:0:0:0:
256,192,44718,1,8,0:0:0:0:
256,192,44804,1,0,0:0:0:0:
256,192,46178,1,0,0:0:0:0:
256,192,46349,1,0,0:0:0:0:
256,192,46435,1,0,0:0:0:0:
256,192,46521,1,0,0:0:0:0:
256,192,46693,1,0,0:0:0:0:
256,192,46865,1,0,0:0:0:0:
256,192,46951,1,0,0:0:0:0:
256,192,47036,1,0,0:0:0:0:
256,192,47122,1,0,0:0:0:0:
256,192,47208,1,0,0:0:0:0:
256,192,47380,1,0,0:0:0:0:
256,192,47552,1,0,0:0:0:0:
256,192,47723,1,0,0:0:0:0:
256,192,47809,1,0,0:0:0:0:
256,192,47895,1,0,0:0:0:0:
256,192,48067,1,0,0:0:0:0:
256,192,48239,1,0,0:0:0:0:
256,192,48325,1,0,0:0:0:0:
256,192,48410,1,0,0:0:0:0:
256,192,48582,1,0,0:0:0:0:
256,192,48668,1,0,0:0:0:0:
256,192,48754,1,0,0:0:0:0:
256,192,48926,1,0,0:0:0:0:
256,192,49098,1,0,0:0:0:0:
256,192,49183,1,0,0:0:0:0:
256,192,49269,1,0,0:0:0:0:
256,192,49441,1,0,0:0:0:0:
256,192,49613,1,0,0:0:0:0:
256,192,49699,1,0,0:0:0:0:
256,192,49785,1,0,0:0:0:0:
256,192,49870,1,0,0:0:0:0:
256,192,49956,1,0,0:0:0:0:
256,192,50128,1,0,0:0:0:0:
256,192,50300,1,0,0:0:0:0:
256,192,50472,1,0,0:0:0:0:
256,192,50557,1,0,0:0:0:0:
256,192,50643,1,0,0:0:0:0:
256,192,50815,1,0,0:0:0:0:
256,192,50987,1,0,0:0:0:0:
256,192,51073,1,0,0:0:0:0:
256,192,51159,1,0,0:0:0:0:
256,192,51330,1,0,0:0:0:0:
256,192,51416,1,0,0:0:0:0:
256,192,51502,1,0,0:0:0:0:
256,192,51674,1,8,0:0:0:0:
256,192,51846,1,0,0:0:0:0:
256,192,51932,1,0,0:0:0:0:
256,192,52017,1,8,0:0:0:0:
256,192,52189,1,0,0:0:0:0:
256,192,52361,1,8,0:0:0:0:
256,192,52447,1,0,0:0:0:0:
256,192,52533,1,0,0:0:0:0:
256,192,52619,1,0,0:0:0:0:
256,192,52704,1,8,0:0:0:0:
256,192,52876,1,0,0:0:0:0:
256,192,53048,1,8,0:0:0:0:
256,192,53220,1,0,0:0:0:0:
256,192,53306,1,0,0:0:0:0:
256,192,53391,1,8,0:0:0:0:
256,192,53563,1,0,0:0:0:0:
256,192,53735,1,8,0:0:0:0:
256,192,53821,1,0,0:0:0:0:
256,192,53907,1,0,0:0:0:0:
256,192,54079,1,8,0:0:0:0:
256,192,54164,1,0,0:0:0:0:
256,192,54250,1,0,0:0:0:0:
256,192,54422,1,8,0:0:0:0:
256,192,54594,1,0,0:0:0:0:
256,192,54680,1,0,0:0:0:0:
256,192,54766,1,8,0:0:0:0:
256,192,54937,1,0,0:0:0:0:
256,192,55109,1,8,0:0:0:0:
256,192,55195,1,0,0:0:0:0:
256,192,55281,1,0,0:0:0:0:
256,192,55367,1,0,0:0:0:0:
256,192,55453,1,8,0:0:0:0:
256,192,55624,1,0,0:0:0:0:
256,192,55796,1,8,0:0:0:0:
256,192,56311,1,8,0:0:0:0:
256,192,56397,1,8,0:0:0:0:
256,192,56483,1,8,0:0:0:0:
256,192,56655,1,8,0:0:0:0:
256,192,56827,1,8,0:0:0:0:
256,192,56998,1,8,0:0:0:0:
256,192,57170,1,4,0:0:0:0:
256,192,57342,1,0,0:0:0:0:
256,192,57428,1,0,0:0:0:0:
256,192,57514,1,8,0:0:0:0:
256,192,57685,1,0,0:0:0:0:
256,192,57857,1,0,0:0:0:0:
256,192,57943,1,0,0:0:0:0:
256,192,58029,1,8,0:0:0:0:
256,192,58201,1,0,0:0:0:0:
256,192,58372,1,0,0:0:0:0:
256,192,58458,1,0,0:0:0:0:
256,192,58544,1,8,0:0:0:0:
256,192,58630,1,8,0:0:0:0:
256,192,58716,1,0,0:0:0:0:
256,192,58888,1,0,0:0:0:0:
256,192,58974,1,8,0:0:0:0:
256,192,59060,1,0,0:0:0:0:
256,192,59231,1,8,0:0:0:0:
256,192,59403,1,0,0:0:0:0:
256,192,59489,1,8,0:0:0:0:
256,192,59661,1,0,0:0:0:0:
256,192,59747,1,8,0:0:0:0:
256,192,59918,1,0,0:0:0:0:
256,192,60090,1,0,0:0:0:0:
256,192,60176,1,0,0:0:0:0:
256,192,60262,1,8,0:0:0:0:
256,192,60434,1,0,0:0:0:0:
256,192,60605,1,0,0:0:0:0:
256,192,60691,1,0,0:0:0:0:
256,192,60777,1,8,0:0:0:0:
256,192,60949,1,0,0:0:0:0:
256,192,61121,1,0,0:0:0:0:
256,192,61206,1,0,0:0:0:0:
256,192,61292,1,8,0:0:0:0:
256,192,61378,1,8,0:0:0:0:
256,192,61464,1,0,0:0:0:0:
256,192,61636,1,0,0:0:0:0:
256,192,61722,1,8,0:0:0:0:
256,192,61808,1,0,0:0:0:0:
256,192,61979,1,8,0:0:0:0:
256,192,62065,1,0,0:0:0:0:
256,192,62151,1,0,0:0:0:0:
256,192,62237,1,8,0:0:0:0:
256,192,62323,1,0,0:0:0:0:
256,192,62409,1,0,0:0:0:0:
256,192,62495,1,8,0:0:0:0:
256,192,62666,1,0,0:0:0:0:
256,192,62838,1,0,0:0:0:0:
256,192,62924,1,0,0:0:0:0:
256,192,63010,1,8,0:0:0:0:
256,192,63182,1,0,0:0:0:0:
256,192,63268,1,8,0:0:0:0:
256,192,63439,1,8,0:0:0:0:
256,192,63525,1,0,0:0:0:0:
256,192,63697,1,8,0:0:0:0:
256,192,63869,1,8,0:0:0:0:
256,192,63955,1,8,0:0:0:0:
256,192,64041,1,0,0:0:0:0:
256,192,64212,1,0,0:0:0:0:
256,192,64298,1,0,0:0:0:0:
256,192,64384,1,8,0:0:0:0:
256,192,64556,1,0,0:0:0:0:
256,192,64642,1,8,0:0:0:0:
256,192,64813,1,8,0:0:0:0:
256,192,64899,1,0,0:0:0:0:
256,192,64985,1,0,0:0:0:0:
256,192,65071,1,8,0:0:0:0:
256,192,65243,1,8,0:0:0:0:
256,192,65329,1,8,0:0:0:0:
256,192,65415,1,0,0:0:0:0:
256,192,65586,1,0,0:0:0:0:
256,192,65672,1,0,0:0:0:0:
256,192,65758,1,8,0:0:0:0:
256,192,65930,1,0,0:0:0:0:
256,192,66016,1,8,0:0:0:0:
256,192,66187,1,8,0:0:0:0:
256,192,66273,1,0,0:0:0:0:
256,192,66445,1,8,0:0:0:0:
256,192,66617,1,8,0:0:0:0:
256,192,66703,1,8,0:0:0:0:
256,192,66789,1,0,0:0:0:0:
256,192,66960,1,0,0:0:0:0:
256,192,67046,1,0,0:0:0:0:
256,192,67132,1,8,0:0:0:0:
256,192,67304,1,0,0:0:0:0:
256,192,67390,1,8,0:0:0:0:
256,192,67476,1,8,0:0:0:0:
256,192,67562,1,0,0:0:0:0:
256,192,67647,1,8,0:0:0:0:
256,192,67733,1,8,0:0:0:0:
256,192,67819,1,0,0:0:0:0:
256,192,67905,1,0,0:0:0:0:
256,192,67991,1,8,0:0:0:0:
256,192,68163,1,4,0:0:0:0:
256,192,68334,1,0,0:0:0:0:
256,192,68420,1,0,0:0:0:0:
256,192,68506,1,8,0:0:0:0:
256,192,68678,1,0,0:0:0:0:
256,192,68764,1,0,0:0:0:0:
256,192,68850,1,8,0:0:0:0:
256,192,69021,1,0,0:0:0:0:
256,192,69107,1,0,0:0:0:0:
256,192,69193,1,8,0:0:0:0:
256,192,69279,1,0,0:0:0:0:
256,192,69365,1,8,0:0:0:0:
256,192,69451,1,8,0:0:0:0:
256,192,69537,1,0,0:0:0:0:
256,192,69709,1,0,0:0:0:0:
256,192,69794,1,0,0:0:0:0:
256,192,69880,1,8,0:0:0:0:
256,192,70052,1,8,0:0:0:0:
256,192,70138,1,8,0:0:0:0:
256,192,70224,1,8,0:0:0:0:
256,192,70310,1,0,0:0:0:0:
256,192,70481,1,8,0:0:0:0:
256,192,70567,1,0,0:0:0:0:
256,192,70653,1,0,0:0:0:0:
256,192,70739,1,8,0:0:0:0:
256,192,70911,1,0,0:0:0:0:
256,192,71083,1,0,0:0:0:0:
256,192,71168,1,0,0:0:0:0:
256,192,71254,1,8,0:0:0:0:
256,192,71426,1,0,0:0:0:0:
256,192,71512,1,0,0:0:0:0:
256,192,71598,1,8,0:0:0:0:
256,192,71770,1,0,0:0:0:0:
256,192,71856,1,0,0:0:0:0:
256,192,71941,1,8,0:0:0:0:
256,192,72027,1,0,0:0:0:0:
256,192,72113,1,8,0:0:0:0:
256,192,72199,1,8,0:0:0:0:
256,192,72285,1,0,0:0:0:0:
256,192,72457,1,0,0:0:0:0:
256,192,72543,1,0,0:0:0:0:
256,192,72628,1,8,0:0:0:0:
256,192,72800,1,0,0:0:0:0:
256,192,72886,1,8,0:0:0:0:
256,192,72972,1,0,0:0:0:0:
256,192,73058,1,8,0:0:0:0:
256,192,73144,1,0,0:0:0:0:
256,192,73315,1,8,0:0:0:0:
256,192,73401,1,8,0:0:0:0:
256,192,73487,1,8,0:0:0:0:
256,192,73659,1,0,0:0:0:0:
256,192,73831,1,0,0:0:0:0:
256,192,73917,1,0,0:0:0:0:
256,192,74002,1,8,0:0:0:0:
256,192,74174,1,0,0:0:0:0:
256,192,74260,1,0,0:0:0:0:
256,192,74346,1,8,0:0:0:0:
256,192,74432,1,8,0:0:0:0:
256,192,74518,1,0,0:0:0:0:
256,192,74690,1,8,0:0:0:0:
256,192,74775,1,8,0:0:0:0:
256,192,74861,1,0,0:0:0:0:
256,192,75033,1,0,0:0:0:0:
256,192,75205,1,0,0:0:0:0:
256,192,75291,1,0,0:0:0:0:
256,192,75377,1,8,0:0:0:0:
256,192,75548,1,0,0:0:0:0:
256,192,75634,1,0,0:0:0:0:
256,192,75720,1,8,0:0:0:0:
256,192,75806,1,8,0:0:0:0:
256,192,75892,1,0,0:0:0:0:
256,192,76064,1,8,0:0:0:0:
256,192,76149,1,8,0:0:0:0:
256,192,76235,1,0,0:0:0:0:
256,192,76407,1,8,0:0:0:0:
256,192,76579,1,0,0:0:0:0:
256,192,76751,1,8,0:0:0:0:
256,192,76922,1,0,0:0:0:0:
256,192,77094,1,8,0:0:0:0:
256,192,77266,1,0,0:0:0:0:
256,192,77438,1,8,0:0:0:0:
256,192,77609,1,0,0:0:0:0:
256,192,77781,1,8,0:0:0:0:
256,192,77953,1,8,0:0:0:0:
256,192,78125,1,8,0:0:0:0:
256,192,78296,1,8,0:0:0:0:
256,192,78468,1,8,0:0:0:0:
256,192,78554,1,8,0:0:0:0:
256,192,78640,1,8,0:0:0:0:
256,192,78726,1,8,0:0:0:0:
256,192,78812,1,8,0:0:0:0:
256,192,78898,1,8,0:0:0:0:
256,192,78983,1,8,0:0:0:0:
256,192,79069,1,8,0:0:0:0:
256,192,79155,1,0,0:0:0:0:
256,192,80529,1,0,0:0:0:0:
256,192,80872,1,2,0:0:0:0:
256,192,81044,1,0,0:0:0:0:
256,192,81387,1,0,0:0:0:0:
256,192,81559,1,2,0:0:0:0:
256,192,81903,1,0,0:0:0:0:
256,192,82246,1,2,0:0:0:0:
256,192,82418,1,2,0:0:0:0:
256,192,82590,1,0,0:0:0:0:
256,192,82933,1,2,0:0:0:0:
256,192,83277,1,0,0:0:0:0:
256,192,83620,1,2,0:0:0:0:
256,192,83792,1,0,0:0:0:0:
256,192,84135,1,2,0:0:0:0:
256,192,84307,1,2,0:0:0:0:
256,192,84651,1,0,0:0:0:0:
256,192,84994,1,2,0:0:0:0:
256,192,85166,1,2,0:0:0:0:
256,192,85338,1,0,0:0:0:0:
256,192,85509,1,0,0:0:0:0:
256,192,85681,1,2,0:0:0:0:
256,192,86025,1,0,0:0:0:0:
256,192,86368,1,2,0:0:0:0:
256,192,86540,1,0,0:0:0:0:
256,192,86884,1,0,0:0:0:0:
256,192,87055,1,2,0:0:0:0:
256,192,87399,1,0,0:0:0:0:
256,192,87742,1,2,0:0:0:0:
256,192,87914,1,2,0:0:0:0:
256,192,88086,1,0,0:0:0:0:
256,192,88429,1,2,0:0:0:0:
256,192,88773,1,0,0:0:0:0:
256,192,89116,1,2,0:0:0:0:
256,192,89288,1,0,0:0:0:0:
256,192,89632,1,0,0:0:0:0:
256,192,89803,1,2,0:0:0:0:
256,192,90147,1,0,0:0:0:0:
256,192,90490,1,2,0:0:0:0:
256,192,90662,1,2,0:0:0:0:
256,192,90834,1,2,0:0:0:0:
256,192,91521,1,4,0:0:0:0:
256,192,91693,1,8,0:0:0:0:
256,192,91779,1,8,0:0:0:0:
256,192,91865,1,0,0:0:0:0:
256,192,92036,1,8,0:0:0:0:
256,192,92208,1,0,0:0:0:0:
256,192,92294,1,0,0:0:0:0:
256,192,92380,1,8,0:0:0:0:
256,192,92466,1,8,0:0:0:0:
256,192,92552,1,0,0:0:0:0:
256,192,92723,1,8,0:0:0:0:
256,192,92895,1,0,0:0:0:0:
256,192,93067,1,8,0:0:0:0:
256,192,93153,1,8,0:0:0:0:
256,192,93239,1,0,0:0:0:0:
256,192,93410,1,8,0:0:0:0:
256,192,93582,1,0,0:0:0:0:
256,192,93668,1,0,0:0:0:0:
256,192,93754,1,8,0:0:0:0:
256,192,93926,1,0,0:0:0:0:
256,192,94012,1,0,0:0:0:0:
256,192,94097,1,8,0:0:0:0:
256,192,94269,1,0,0:0:0:0:
256,192,94441,1,8,0:0:0:0:
256,192,94527,1,8,0:0:0:0:
256,192,94613,1,0,0:0:0:0:
256,192,94784,1,8,0:0:0:0:
256,192,94956,1,0,0:0:0:0:
256,192,95042,1,0,0:0:0:0:
256,192,95128,1,8,0:0:0:0:
256,192,95214,1,8,0:0:0:0:
256,192,95300,1,0,0:0:0:0:
256,192,95471,1,8,0:0:0:0:
256,192,95643,1,0,0:0:0:0:
256,192,95815,1,8,0:0:0:0:
256,192,95901,1,8,0:0:0:0:
256,192,95987,1,0,0:0:0:0:
256,192,96159,1,8,0:0:0:0:
256,192,96330,1,0,0:0:0:0:
256,192,96416,1,8,0:0:0:0:
256,192,96502,1,0,0:0:0:0:
256,192,96674,1,0,0:0:0:0:
256,192,96760,1,8,0:0:0:0:
256,192,96846,1,0,0:0:0:0:
256,192,97017,1,0,0:0:0:0:
256,192,97189,1,8,0:0:0:0:
256,192,97275,1,8,0:0:0:0:
256,192,97361,1,0,0:0:0:0:
256,192,97533,1,8,0:0:0:0:
256,192,97704,1,0,0:0:0:0:
256,192,97790,1,0,0:0:0:0:
256,192,97876,1,8,0:0:0:0:
256,192,97962,1,8,0:0:0:0:
256,192,98048,1,0,0:0:0:0:
256,192,98220,1,8,0:0:0:0:
256,192,98391,1,0,0:0:0:0:
256,192,98563,1,8,0:0:0:0:
256,192,98649,1,8,0:0:0:0:
256,192,98735,1,0,0:0:0:0:
256,192,98907,1,8,0:0:0:0:
256,192,99078,1,0,0:0:0:0:
256,192,99164,1,0,0:0:0:0:
256,192,99250,1,8,0:0:0:0:
256,192,99422,1,0,0:0:0:0:
256,192,99508,1,0,0:0:0:0:
256,192,99594,1,8,0:0:0:0:
256,192,99765,1,8,0:0:0:0:
256,192,99851,1,8,0:0:0:0:
256,192,99937,1,0,0:0:0:0:
256,192,100023,1,0,0:0:0:0:
256,192,100109,1,8,0:0:0:0:
256,192,100195,1,8,0:0:0:0:
256,192,100281,1,0,0:0:0:0:
256,192,100452,1,8,0:0:0:0:
256,192,100538,1,8,0:0:0:0:
256,192,100624,1,0,0:0:0:0:
256,192,100710,1,0,0:0:0:0:
256,192,100796,1,8,0:0:0:0:
256,192,100882,1,8,0:0:0:0:
256,192,100968,1,0,0:0:0:0:
256,192,101140,1,4,0:0:0:0:
256,192,102514,1,8,0:0:0:0:
256,192,102685,1,0,0:0:0:0:
256,192,102857,1,0,0:0:0:0:
256,192,103029,1,0,0:0:0:0:
256,192,103201,1,8,0:0:0:0:
256,192,103372,1,0,0:0:0:0:
256,192,103544,1,0,0:0:0:0:
256,192,103716,1,0,0:0:0:0:
256,192,103888,1,8,0:0:0:0:
256,192,104059,1,0,0:0:0:0:
256,192,104231,1,8,0:0:0:0:
256,192,104403,1,0,0:0:0:0:
256,192,104575,1,8,0:0:0:0:
256,192,104746,1,8,0:0:0:0:
256,192,104918,1,0,0:0:0:0:
256,192,105090,1,0,0:0:0:0:
256,192,105262,1,8,0:0:0:0:
256,192,105433,1,0,0:0:0:0:
256,192,105605,1,0,0:0:0:0:
256,192,105777,1,0,0:0:0:0:
256,192,105949,1,8,0:0:0:0:
256,192,106120,1,0,0:0:0:0:
256,192,106292,1,0,0:0:0:0:
256,192,106464,1,0,0:0:0:0:
256,192,106636,1,8,0:0:0:0:
256,192,106808,1,0,0:0:0:0:
256,192,106979,1,8,0:0:0:0:
256,192,107151,1,0,0:0:0:0:
256,192,107323,1,8,0:0:0:0:
256,192,107495,1,8,0:0:0:0:
256,192,107666,1,0,0:0:0:0:
256,192,107838,1,0,0:0:0:0:
256,192,108010,1,8,0:0:0:0:
256,192,108182,1,0,0:0:0:0:
256,192,108353,1,8,0:0:0:0:
256,192,108525,1,8,0:0:0:0:
256,192,108697,1,0,0:0:0:0:
256,192,108869,1,8,0:0:0:0:
256,192,109040,1,0,0:0:0:0:
256,192,109212,1,0,0:0:0:0:
256,192,109384,1,8,0:0:0:0:
256,192,109556,1,0,0:0:0:0:
256,192,109727,1,8,0:0:0:0:
256,192,109899,1,8,0:0:0:0:
256,192,110071,1,0,0:0:0:0:
256,192,110243,1,8,0:0:0:0:
256,192,110414,1,0,0:0:0:0:
256,192,110586,1,0,0:0:0:0:
256,192,110758,1,8,0:0:0:0:
256,192,110930,1,8,0:0:0:0:
256,192,111101,1,8,0:0:0:0:
256,192,111273,1,8,0:0:0:0:
256,192,111445,1,0,0:0:0:0:
256,192,111617,1,0,0:0:0:0:
256,192,111789,1,0,0:0:0:0:
256,192,111960,1,0,0:0:0:0:
256,192,112132,1,8,0:0:0:0:
256,192,112304,1,8,0:0:0:0:
256,192,112476,1,0,0:0:0:0:
256,192,112647,1,0,0:0:0:0:
256,192,112819,1,8,0:0:0:0:
256,192,112991,1,8,0:0:0:0:
256,192,113163,1,0,0:0:0:0:
256,192,113334,1,0,0:0:0:0:
256,192,113506,1,8,0:0:0:0:
256,192,113678,1,8,0:0:0:0:
256,192,113764,1,8,0:0:0:0:
256,192,113850,1,8,0:0:0:0:
256,192,114021,1,8,0:0:0:0:
256,192,114193,1,8,0:0:0:0:
256,192,114279,1,8,0:0:0:0:
256,192,114365,1,8,0:0:0:0:
256,192,114451,1,8,0:0:0:0:
256,192,114537,1,8,0:0:0:0:
256,192,114708,1,8,0:0:0:0:
256,192,114880,1,8,0:0:0:0:
256,192,115052,1,8,0:0:0:0:
256,192,115138,1,8,0:0:0:0:
256,192,115224,1,8,0:0:0:0:
256,192,115395,1,8,0:0:0:0:
256,192,115567,1,8,0:0:0:0:
256,192,115653,1,8,0:0:0:0:
256,192,115739,1,8,0:0:0:0:
256,192,115911,1,8,0:0:0:0:
256,192,115997,1,8,0:0:0:0:
256,192,116082,1,8,0:0:0:0:
256,192,116254,1,8,0:0:0:0:
256,192,116426,1,8,0:0:0:0:
256,192,116512,1,8,0:0:0:0:
256,192,116598,1,8,0:0:0:0:
256,192,116770,1,8,0:0:0:0:
256,192,116941,1,8,0:0:0:0:
256,192,117027,1,8,0:0:0:0:
256,192,117113,1,8,0:0:0:0:
256,192,117199,1,8,0:0:0:0:
256,192,117285,1,8,0:0:0:0:
256,192,117457,1,8,0:0:0:0:
256,192,117628,1,8,0:0:0:0:
256,192,117800,1,8,0:0:0:0:
256,192,117886,1,8,0:0:0:0:
256,192,117972,1,8,0:0:0:0:
256,192,118144,1,8,0:0:0:0:
256,192,118315,1,8,0:0:0:0:
256,192,118401,1,8,0:0:0:0:
256,192,118487,1,8,0:0:0:0:
256,192,118659,1,8,0:0:0:0:
256,192,118745,1,8,0:0:0:0:
256,192,118831,1,8,0:0:0:0:
256,192,119002,1,0,0:0:0:0:
256,192,119174,1,8,0:0:0:0:
256,192,119260,1,8,0:0:0:0:
256,192,119346,1,0,0:0:0:0:
256,192,119518,1,8,0:0:0:0:
256,192,119689,1,0,0:0:0:0:
256,192,119775,1,8,0:0:0:0:
256,192,119861,1,8,0:0:0:0:
256,192,119947,1,8,0:0:0:0:
256,192,120033,1,0,0:0:0:0:
256,192,120205,1,8,0:0:0:0:
256,192,120376,1,0,0:0:0:0:
256,192,120548,1,8,0:0:0:0:
256,192,120634,1,8,0:0:0:0:
256,192,120720,1,0,0:0:0:0:
256,192,120892,1,8,0:0:0:0:
256,192,121063,1,0,0:0:0:0:
256,192,121149,1,8,0:0:0:0:
256,192,121235,1,8,0:0:0:0:
256,192,121407,1,0,0:0:0:0:
256,192,121493,1,8,0:0:0:0:
256,192,121579,1,8,0:0:0:0:
256,192,121751,1,0,0:0:0:0:
256,192,121836,1,0,0:0:0:0:
256,192,121922,1,8,0:0:0:0:
256,192,122008,1,8,0:0:0:0:
256,192,122094,1,0,0:0:0:0:
256,192,122180,1,0,0:0:0:0:
256,192,122266,1,8,0:0:0:0:
256,192,122352,1,8,0:0:0:0:
256,192,122438,1,0,0:0:0:0:
256,192,122523,1,0,0:0:0:0:
256,192,122609,1,8,0:0:0:0:
256,192,122695,1,8,0:0:0:0:
256,192,122781,1,0,0:0:0:0:
256,192,122867,1,0,0:0:0:0:
256,192,122953,1,8,0:0:0:0:
256,192,123125,2,0,L|256:128,6,35
256,192,124499,1,4,0:0:0:0:
256,192,124670,1,0,0:0:0:0:
256,192,124756,1,0,0:0:0:0:
256,192,124842,1,8,0:0:0:0:
256,192,125014,1,0,0:0:0:0:
256,192,125100,1,0,0:0:0:0:
256,192,125186,1,0,0:0:0:0:
256,192,125272,1,0,0:0:0:0:
256,192,125357,1,8,0:0:0:0:
256,192,125529,1,0,0:0:0:0:
256,192,125701,1,0,0:0:0:0:
256,192,125787,1,0,0:0:0:0:
256,192,125873,1,8,0:0:0:0:
256,192,125959,1,8,0:0:0:0:
256,192,126044,1,0,0:0:0:0:
256,192,126216,1,0,0:0:0:0:
256,192,126302,1,8,0:0:0:0:
256,192,126388,1,0,0:0:0:0:
256,192,126560,1,8,0:0:0:0:
256,192,126731,1,0,0:0:0:0:
256,192,126817,1,8,0:0:0:0:
256,192,126989,1,0,0:0:0:0:
256,192,127075,1,8,0:0:0:0:
256,192,127247,1,0,0:0:0:0:
256,192,127419,1,0,0:0:0:0:
256,192,127504,1,0,0:0:0:0:
256,192,127590,1,8,0:0:0:0:
256,192,127762,1,0,0:0:0:0:
256,192,127848,1,0,0:0:0:0:
256,192,127934,1,0,0:0:0:0:
256,192,128020,1,0,0:0:0:0:
256,192,128106,1,8,0:0:0:0:
256,192,128277,1,0,0:0:0:0:
256,192,128449,1,0,0:0:0:0:
256,192,128535,1,0,0:0:0:0:
256,192,128621,1,8,0:0:0:0:
256,192,128707,1,8,0:0:0:0:
256,192,128793,1,0,0:0:0:0:
256,192,128964,1,0,0:0:0:0:
256,192,129050,1,8,0:0:0:0:
256,192,129136,1,0,0:0:0:0:
256,192,129308,1,8,0:0:0:0:
256,192,129394,1,0,0:0:0:0:
256,192,129480,1,0,0:0:0:0:
256,192,129566,1,8,0:0:0:0:
256,192,129651,1,0,0:0:0:0:
256,192,129737,1,0,0:0:0:0:
256,192,129823,1,8,0:0:0:0:
256,192,129995,1,0,0:0:0:0:
256,192,130167,1,0,0:0:0:0:
256,192,130253,1,0,0:0:0:0:
256,192,130338,1,8,0:0:0:0:
256,192,130510,1,0,0:0:0:0:
256,192,130596,1,8,0:0:0:0:
256,192,130682,1,8,0:0:0:0:
256,192,130768,1,0,0:0:0:0:
256,192,130940,1,0,0:0:0:0:
256,192,131025,1,8,0:0:0:0:
256,192,131197,1,8,0:0:0:0:
256,192,131283,1,8,0:0:0:0:
256,192,131369,1,0,0:0:0:0:
256,192,131541,1,0,0:0:0:0:
256,192,131627,1,0,0:0:0:0:
256,192,131712,1,8,0:0:0:0:
256,192,131884,1,8,0:0:0:0:
256,192,131970,1,0,0:0:0:0:
256,192,132056,1,8,0:0:0:0:
256,192,132142,1,0,0:0:0:0:
256,192,132314,1,8,0:0:0:0:
256,192,132400,1,0,0:0:0:0:
256,192,132485,1,0,0:0:0:0:
256,192,132571,1,8,0:0:0:0:
256,192,132743,1,0,0:0:0:0:
256,192,132915,1,0,0:0:0:0:
256,192,133001,1,0,0:0:0:0:
256,192,133087,1,8,0:0:0:0:
256,192,133258,1,0,0:0:0:0:
256,192,133344,1,8,0:0:0:0:
256,192,133430,1,8,0:0:0:0:
256,192,133516,1,0,0:0:0:0:
256,192,133688,1,0,0:0:0:0:
256,192,133774,1,8,0:0:0:0:
256,192,133945,1,8,0:0:0:0:
256,192,134031,1,8,0:0:0:0:
256,192,134117,1,0,0:0:0:0:
256,192,134289,1,0,0:0:0:0:
256,192,134375,1,0,0:0:0:0:
256,192,134461,1,8,0:0:0:0:
256,192,134632,1,0,0:0:0:0:
256,192,134718,1,8,0:0:0:0:
256,192,134804,1,8,0:0:0:0:
256,192,134890,1,0,0:0:0:0:
256,192,134976,1,8,0:0:0:0:
256,192,135062,1,8,0:0:0:0:
256,192,135148,1,0,0:0:0:0:
256,192,135234,1,0,0:0:0:0:
256,192,135319,1,8,0:0:0:0:
256,192,135491,1,4,0:0:0:0:
256,192,135663,1,0,0:0:0:0:
256,192,135749,1,0,0:0:0:0:
256,192,135835,1,8,0:0:0:0:
256,192,135921,1,8,0:0:0:0:
256,192,136006,1,0,0:0:0:0:
256,192,136092,1,0,0:0:0:0:
256,192,136178,1,8,0:0:0:0:
256,192,136350,1,0,0:0:0:0:
256,192,136436,1,0,0:0:0:0:
256,192,136522,1,8,0:0:0:0:
256,192,136608,1,0,0:0:0:0:
256,192,136693,1,8,0:0:0:0:
256,192,136779,1,8,0:0:0:0:
256,192,136865,1,0,0:0:0:0:
256,192,137037,1,0,0:0:0:0:
256,192,137123,1,0,0:0:0:0:
256,192,137209,1,8,0:0:0:0:
256,192,137381,1,8,0:0:0:0:
256,192,137466,1,8,0:0:0:0:
256,192,137552,1,8,0:0:0:0:
256,192,137638,1,0,0:0:0:0:
256,192,137810,1,8,0:0:0:0:
256,192,137896,1,0,0:0:0:0:
256,192,137982,1,0,0:0:0:0:
256,192,138068,1,8,0:0:0:0:
256,192,138239,1,0,0:0:0:0:
256,192,138411,1,0,0:0:0:0:
256,192,138497,1,0,0:0:0:0:
256,192,138583,1,8,0:0:0:0:
256,192,138669,1,8,0:0:0:0:
256,192,138755,1,0,0:0:0:0:
256,192,138840,1,0,0:0:0:0:
256,192,138926,1,8,0:0:0:0:
256,192,139098,1,0,0:0:0:0:
256,192,139184,1,0,0:0:0:0:
256,192,139270,1,8,0:0:0:0:
256,192,139356,1,0,0:0:0:0:
256,192,139442,1,8,0:0:0:0:
256,192,139527,1,8,0:0:0:0:
256,192,139613,1,0,0:0:0:0:
256,192,139785,1,0,0:0:0:0:
256,192,139871,1,0,0:0:0:0:
256,192,139957,1,8,0:0:0:0:
256,192,140129,1,0,0:0:0:0:
256,192,140215,1,8,0:0:0:0:
256,192,140300,1,0,0:0:0:0:
256,192,140386,1,8,0:0:0:0:
256,192,140472,1,0,0:0:0:0:
256,192,140644,1,8,0:0:0:0:
256,192,140730,1,8,0:0:0:0:
256,192,140816,1,8,0:0:0:0:
256,192,140987,1,0,0:0:0:0:
256,192,141159,1,0,0:0:0:0:
256,192,141245,1,0,0:0:0:0:
256,192,141331,1,8,0:0:0:0:
256,192,141503,1,0,0:0:0:0:
256,192,141589,1,0,0:0:0:0:
256,192,141674,1,8,0:0:0:0:
256,192,141760,1,8,0:0:0:0:
256,192,141846,1,0,0:0:0:0:
256,192,142018,1,8,0:0:0:0:
256,192,142104,1,8,0:0:0:0:
256,192,142190,1,0,0:0:0:0:
256,192,142362,1,0,0:0:0:0:
256,192,142533,1,0,0:0:0:0:
256,192,142619,1,0,0:0:0:0:
256,192,142705,1,8,0:0:0:0:
256,192,142877,1,0,0:0:0:0:
256,192,142963,1,0,0:0:0:0:
256,192,143049,1,8,0:0:0:0:
256,192,143134,1,8,0:0:0:0:
256,192,143220,1,0,0:0:0:0:
256,192,143392,1,8,0:0:0:0:
256,192,143478,1,8,0:0:0:0:
256,192,143564,1,0,0:0:0:0:
256,192,143736,1,8,0:0:0:0:
256,192,143821,1,0,0:0:0:0:
256,192,143907,1,8,0:0:0:0:
256,192,143993,1,8,0:0:0:0:
256,192,144079,1,0,0:0:0:0:
256,192,144165,1,0,0:0:0:0:
256,192,144251,1,8,0:0:0:0:
256,192,144423,1,0,0:0:0:0:
256,192,144508,1,8,0:0:0:0:
256,192,144594,1,0,0:0:0:0:
256,192,144680,1,0,0:0:0:0:
256,192,144766,1,8,0:0:0:0:
256,192,144852,1,8,0:0:0:0:
256,192,144938,1,0,0:0:0:0:
256,192,145110,1,8,0:0:0:0:
256,192,145196,1,0,0:0:0:0:
256,192,145281,1,0,0:0:0:0:
256,192,145367,1,8,0:0:0:0:
256,192,145453,1,0,0:0:0:0:
256,192,145539,1,0,0:0:0:0:
256,192,145625,1,8,0:0:0:0:
256,192,145711,1,8,0:0:0:0:
256,192,145797,1,0,0:0:0:0:
256,192,145883,1,8,0:0:0:0:
256,192,145968,1,8,0:0:0:0:
256,192,146054,1,0,0:0:0:0:
256,192,146140,1,0,0:0:0:0:
256,192,146226,1,0,0:0:0:0:
256,192,146312,1,8,0:0:0:0:
256,192,146484,1,4,0:0:0:0:
256,192,146655,1,8,0:0:0:0:
256,192,146741,1,8,0:0:0:0:
256,192,146827,1,0,0:0:0:0:
256,192,146999,1,8,0:0:0:0:
256,192,147171,1,0,0:0:0:0:
256,192,147257,1,0,0:0:0:0:
256,192,147342,1,8,0:0:0:0:
256,192,147428,1,8,0:0:0:0:
256,192,147514,1,0,0:0:0:0:
256,192,147686,1,8,0:0:0:0:
256,192,147858,1,0,0:0:0:0:
256,192,148030,1,8,0:0:0:0:
256,192,148115,1,8,0:0:0:0:
256,192,148201,1,0,0:0:0:0:
256,192,148373,1,8,0:0:0:0:
256,192,148545,1,0,0:0:0:0:
256,192,148631,1,0,0:0:0:0:
256,192,148717,1,8,0:0:0:0:
256,192,148888,1,0,0:0:0:0:
256,192,148974,1,0,0:0:0:0:
256,192,149060,1,8,0:0:0:0:
256,192,149232,1,0,0:0:0:0:
256,192,149404,1,8,0:0:0:0:
256,192,149489,1,8,0:0:0:0:
256,192,149575,1,0,0:0:0:0:
256,192,149747,1,8,0:0:0:0:
256,192,149919,1,0,0:0:0:0:
256,192,150005,1,0,0:0:0:0:
256,192,150091,1,8,0:0:0:0:
256,192,150262,1,0,0:0:0:0:
256,192,150434,1,8,0:0:0:0:
256,192,150606,1,0,0:0:0:0:
256,192,150778,1,8,0:0:0:0:
256,192,150864,1,8,0:0:0:0:
256,192,150949,1,0,0:0:0:0:
256,192,151121,1,8,0:0:0:0:
256,192,151293,1,0,0:0:0:0:
256,192,151379,1,0,0:0:0:0:
256,192,151465,1,8,0:0:0:0:
256,192,151551,1,8,0:0:0:0:
256,192,151636,1,0,0:0:0:0:
256,192,151808,1,8,0:0:0:0:
256,192,151980,1,0,0:0:0:0:
256,192,152323,1,8,0:0:0:0:
256,192,152667,1,0,0:0:0:0:
256,192,153011,1,8,0:0:0:0:
256,192,153354,1,0,0:0:0:0:
256,192,153698,1,8,0:0:0:0:
256,192,154041,1,0,0:0:0:0:
256,192,154385,1,8,0:0:0:0:
256,192,154728,1,0,0:0:0:0:
256,192,154900,1,0,0:0:0:0:
256,192,155072,1,8,0:0:0:0:
256,192,155243,1,8,0:0:0:0:
256,192,155415,1,0,0:0:0:0:
256,192,155587,1,0,0:0:0:0:
256,192,155759,1,8,0:0:0:0:
256,192,155930,1,8,0:0:0:0:
256,192,156102,1,0,0:0:0:0:
256,192,156188,1,0,0:0:0:0:
256,192,156274,1,8,0:0:0:0:
256,192,156360,1,8,0:0:0:0:
256,192,156446,1,0,0:0:0:0:
256,192,156532,1,0,0:0:0:0:
256,192,156617,1,8,0:0:0:0:
256,192,156703,1,8,0:0:0:0:
256,192,156789,1,0,0:0:0:0:
256,192,156875,1,0,0:0:0:0:
256,192,156961,1,8,0:0:0:0:
256,192,157047,1,8,0:0:0:0:
256,192,157133,1,0,0:0:0:0:
256,192,157219,1,0,0:0:0:0:
256,192,157304,1,8,0:0:0:0:
256,192,157390,1,8,0:0:0:0:
256,192,157476,1,0,0:0:0:0:
