osu file format v14

[General]
AudioFilename: audio.mp3
AudioLeadIn: 0
PreviewTime: -1
Countdown: 0
SampleSet: Soft
StackLeniency: 1
Mode: 0
LetterboxInBreaks: 0
WidescreenStoryboard: 0

[Editor]
Bookmarks: 2814,24451,48963,155629
DistanceSpacing: 0.8
BeatDivisor: 2
GridSize: 16
TimelineZoom: 1.3

[Metadata]
Title:Every Time We Touch
TitleUnicode:Every Time We Touch
Artist:Cascada
ArtistUnicode:Cascada
Creator:[Robert]
Version:Kaylyn's Hard
Source:
Tags:
BeatmapID:1246057
BeatmapSetID:588593

[Difficulty]
HPDrainRate:3
CircleSize:3
OverallDifficulty:3.3
ApproachRate:8.3
SliderMultiplier:1.5
SliderTickRate:1

[Events]
//Background and Video events
0,0,"535515-1680x1050.jpg",0,0
//Break Periods
2,78745,90012
//Storyboard Layer 0 (Background)
//Storyboard Layer 1 (Fail)
//Storyboard Layer 2 (Pass)
//Storyboard Layer 3 (Foreground)
//Storyboard Sound Samples

[TimingPoints]
24451.7031312879,338.087817772778,4,2,2,100,1,0
24472,-66.6666666666667,4,2,2,100,0,0
45075,-133.333333333333,4,2,2,100,0,0
56739,-66.6666666666667,4,2,2,100,0,0
90547,-100,4,2,2,100,0,0
101366,-133.333333333333,4,2,2,100,0,0
122835,-66.6666666666667,4,2,2,100,0,0
123153,-66.6666666666667,4,2,2,100,0,1

[Colours]
Combo1 : 113,0,113
Combo2 : 255,128,255
Combo3 : 255,207,159

[HitObjects]
112,64,2814,6,0,B|192:96|256:64|304:48|352:64|368:112,1,225,2|2,0:0|0:0,0:0:0:0:
400,320,4166,2,0,B|320:288|256:320|208:336|160:320|144:272,1,225
323,207,5518,6,0,P|327:148|401:238,1,225
189,177,6871,2,0,P|185:236|111:146,1,225
384,48,8223,6,0,B|352:128|384:192|400:240|384:288|336:304,1,225
128,336,9575,2,0,B|160:256|128:192|112:144|128:96|176:80,1,225
256,192,10590,12,0,13294,0:0:0:0:
72,282,13632,6,0,P|196:271|247:337,1,150
278,340,14309,1,0,0:0:0:0:
356,284,14647,2,0,L|364:203,1,75
326,191,14985,2,0,L|318:110,2,75
272,250,15661,2,0,P|383:253|415:204,1,150
326,191,16337,6,0,P|346:121|307:59,1,150
267,130,17013,2,0,P|156:127|124:176,1,150
210,189,17689,2,0,P|189:258|228:320,2,150
210,189,18704,1,0,0:0:0:0:
271,247,19042,6,0,L|427:215,1,150
419,247,19718,2,0,L|263:215,1,150
290,183,20394,2,0,L|414:281,1,150
385,296,21070,2,0,L|309:155,1,150
256,192,21747,12,0,24113,0:0:0:0:
256,80,24451,5,0,0:0:0:0:
306,173,24620,1,0,0:0:0:0:
416,144,24789,2,0,P|381:263|342:287,1,112.500004291535,8|0,0:0|0:0,0:0:0:0:
318,284,25127,2,0,P|199:249|175:210,1,112.500004291535
173,189,25465,2,0,P|208:70|247:46,1,112.500004291535,8|0,0:0|0:0,0:0:0:0:
195,82,25804,5,0,0:0:0:0:
173,189,25973,1,0,0:0:0:0:
275,159,26142,2,0,L|253:290,1,112.500004291535,8|8,0:0|0:0,0:0:0:0:
344,330,26480,2,0,L|363:220,1,112.500004291535
376,136,26818,1,8,0:0:0:0:
376,136,26987,1,0,0:0:0:0:
286,135,27156,6,0,P|194:167|173:316,1,225.000008583069,0|8,0:0|0:0,0:0:0:0:
304,289,27832,2,0,P|409:262|449:161,1,225.000008583069,0|8,0:0|0:0,0:0:0:0:
138,58,28508,6,0,L|16:72,1,112.500004291535
0,164,28846,2,8,L|112:152,1,112.500004291535
208,229,29184,2,0,L|86:243,1,112.500004291535
60,339,29522,2,0,L|171:326,1,112.500004291535,8|0,0:0|0:0,0:0:0:0:
277,316,29861,5,0,0:0:0:0:
382,301,30030,2,0,P|403:241|392:175,1,112.500004291535,0|8,0:0|0:0,0:0:0:0:
369,116,30368,2,0,P|309:95|243:106,2,112.500004291535
445,158,30875,1,8,0:0:0:0:
445,158,31044,1,0,0:0:0:0:
391,229,31213,6,0,L|310:351,1,112.500004291535
235,298,31551,2,8,L|298:205,1,112.500004291535
207,178,31889,2,0,L|126:300,1,112.500004291535
51,247,32227,2,0,L|113:153,1,112.500004291535,8|0,0:0|0:0,0:0:0:0:
162,83,32565,5,0,0:0:0:0:
212,158,32734,1,0,0:0:0:0:
158,228,32903,2,0,P|148:332|160:353,1,112.500004291535,8|0,0:0|0:0,0:0:0:0:
234,345,33241,2,0,P|252:292|242:237,1,112.500004291535
166,229,33580,2,0,P|156:333|168:354,1,112.500004291535,8|0,0:0|0:0,0:0:0:0:
242,346,33918,6,0,P|260:293|250:238,1,112.500004291535
173,231,34256,2,8,P|163:335|175:356,1,112.500004291535
249,348,34594,2,8,P|267:295|257:240,2,112.500004291535
181,291,35101,1,8,0:0:0:0:
92,312,35270,6,0,L|101:185,1,112.500004291535
182,204,35608,2,0,L|191:77,1,112.500004291535,8|0,0:0|0:0,0:0:0:0:
275,95,35946,2,0,L|402:104,1,112.500004291535
383,185,36284,2,0,L|510:194,1,112.500004291535,8|0,0:0|0:0,0:0:0:0:
357,263,36622,6,0,P|319:131|417:110,1,225.000008583069,0|8,0:0|0:0,0:0:0:0:
155,121,37299,2,0,P|193:253|95:274,1,225.000008583069,0|8,0:0|0:0,0:0:0:0:
127,200,37806,1,0,0:0:0:0:
215,216,37975,6,0,L|336:231,1,112.500004291535
317,321,38313,2,0,L|438:336,1,112.500004291535,8|0,0:0|0:0,0:0:0:0:
428,334,38651,2,0,P|446:195|413:166,1,112.500004291535
463,233,38989,2,0,P|324:215|295:248,1,112.500004291535,8|0,0:0|0:0,0:0:0:0:
362,197,39327,6,0,P|344:336|377:365,1,112.500004291535
326,297,39665,2,8,P|465:315|494:282,1,112.500004291535
400,250,40003,1,0,0:0:0:0:
444,174,40172,1,0,0:0:0:0:
444,89,40341,2,0,P|371:93|329:122,1,112.500004291535,8|0,0:0|0:0,0:0:0:0:
273,167,40679,6,0,P|223:192|167:190,1,112.500004291535
201,115,41018,2,0,P|108:138|126:260,2,225.000008583069,8|0|8,0:0|0:0|0:0,0:0:0:0:
170,190,41863,1,0,0:0:0:0:
212,261,42032,6,0,B|220:279|220:279|319:277,1,112.500004291535
363,215,42370,2,8,B|355:197|355:197|256:199,1,112.500004291535
170,190,42708,2,0,P|147:122|190:67,1,112.500004291535
25,86,43046,2,0,P|37:139|14:190,1,112.500004291535
256,192,43384,12,0,44736,0:0:0:0:
282,65,45244,6,0,L|240:153,1,56.2500021457673
341,139,45582,6,0,L|299:227,1,56.2500021457673
273,260,45920,5,0,0:0:0:0:
212,205,46089,6,0,P|204:122|227:116,1,112.500004291535
300,179,46765,2,0,P|308:262|285:268,1,112.500004291535
183,204,47441,6,0,P|175:121|198:115,1,112.500004291535
329,180,48117,2,0,P|337:263|314:269,1,112.500004291535
148,204,48794,6,0,P|140:121|163:115,1,112.500004291535
364,180,49470,2,0,P|372:263|349:269,1,112.500004291535
219,269,50146,6,0,B|183:282|183:282|153:258|153:258|118:275|118:275|56:256|56:256|103:211|113:174|76:103|76:103|140:138|179:134|199:89,1,450.000017166138
249,78,51836,5,0,0:0:0:0:
321,131,52174,1,0,0:0:0:0:
235,159,52512,1,0,0:0:0:0:
304,216,52851,1,0,0:0:0:0:
217,241,53189,1,0,0:0:0:0:
283,301,53527,1,0,0:0:0:0:
195,323,53865,1,0,0:0:0:0:
143,251,54203,6,0,L|132:216,3,28.1250010728836
214,167,54541,2,0,L|222:193,3,28.1250010728836
317,222,54879,2,0,L|306:187,3,28.1250010728836
388,138,55217,2,0,L|396:164,4,28.1250010728836,0|0|0|0|8,0:0|0:0|0:0|0:0|0:0,0:0:0:0:
458,282,56907,6,0,P|326:253|225:296,1,225.000008583069,0|8,0:0|0:0,0:0:0:0:
167,338,57414,1,0,0:0:0:0:
109,266,57583,2,0,P|95:222|103:144,1,112.500004291535
179,203,57921,2,0,P|184:157|225:89,1,112.500004291535,8|0,0:0|0:0,0:0:0:0:
273,184,58259,6,0,P|297:144|362:100,1,112.500004291535
376,195,58597,2,8,P|414:170|492:157,1,112.500004291535
453,245,58935,1,0,0:0:0:0:
393,88,59104,1,0,0:0:0:0:
316,126,59273,2,0,L|199:134,1,112.500004291535,8|0,0:0|0:0,0:0:0:0:
202,218,59611,6,0,L|90:204,1,112.500004291535
4,194,59949,1,8,0:0:0:0:
15,282,60118,2,0,P|81:162|8:106,1,225.000008583069
69,38,60626,2,0,L|176:104,1,112.500004291535,8|0,0:0|0:0,0:0:0:0:
114,167,60964,6,0,L|221:233,1,112.500004291535
302,226,61302,2,8,L|398:167,1,112.500004291535
347,97,61640,2,0,L|443:38,1,112.500004291535
443,38,61978,1,8,0:0:0:0:
482,117,62147,1,0,0:0:0:0:
415,180,62316,6,0,P|405:231|424:344,1,112.500004291535
309,300,62654,2,0,P|312:243|301:188,1,112.500004291535,8|0,0:0|0:0,0:0:0:0:
210,188,62992,2,0,P|199:243|203:300,1,112.500004291535
104,291,63330,2,0,P|107:235|96:180,1,112.500004291535,8|0,0:0|0:0,0:0:0:0:
74,92,63668,5,0,0:0:0:0:
157,121,63837,1,0,0:0:0:0:
242,93,64006,1,8,0:0:0:0:
326,125,64176,1,8,0:0:0:0:
409,91,64345,2,0,P|365:197|253:177,1,225.000008583069,0|8,0:0|0:0,0:0:0:0:
326,125,65021,6,0,P|432:169|412:281,1,225.000008583069,0|8,0:0|0:0,0:0:0:0:
364,326,65528,1,0,0:0:0:0:
295,268,65697,2,0,P|266:255|174:254,1,112.500004291535
77,233,66035,2,0,P|132:231|185:250,2,112.500004291535,8|0|0,0:0|0:0|0:0,0:0:0:0:
77,233,66880,5,0,0:0:0:0:
74,143,67049,6,0,L|73:28,2,112.500004291535
77,233,67556,5,0,0:0:0:0:
150,296,67725,6,0,P|266:291|309:256,1,112.500004291535
322,230,68064,2,0,P|438:225|481:190,1,112.500004291535,8|0,0:0|0:0,0:0:0:0:
426,137,68402,2,0,P|310:132|267:97,1,112.500004291535
254,71,68741,2,0,P|138:66|95:31,2,112.500004291535,8|0|0,0:0|0:0|0:0,0:0:0:0:
337,37,69248,5,0,0:0:0:0:
325,121,69417,2,8,L|304:258,1,112.500004291535
220,218,69755,2,0,L|202:329,1,112.500004291535
119,314,70093,1,8,0:0:0:0:
285,339,70262,1,0,0:0:0:0:
362,282,70431,6,0,P|360:178|316:153,1,112.500004291535
412,115,70769,2,0,P|360:95|308:113,1,112.500004291535,8|0,0:0|0:0,0:0:0:0:
242,174,71107,1,0,0:0:0:0:
169,240,71276,1,0,0:0:0:0:
111,154,71445,1,8,0:0:0:0:
185,96,71614,1,0,0:0:0:0:
242,174,71783,6,0,L|373:199,1,112.500004291535
326,280,72122,2,8,L|195:255,1,112.500004291535
180,332,72460,2,0,P|150:211|240:176,1,225.000008583069,0|8,0:0|0:0,0:0:0:0:
215,258,73136,6,0,P|94:288|59:198,1,225.000008583069,0|8,0:0|0:0,0:0:0:0:
140,222,73812,2,0,P|261:192|296:282,1,225.000008583069,0|8,0:0|0:0,0:0:0:0:
298,349,74319,1,0,0:0:0:0:
219,302,74488,6,0,L|215:149,1,112.500004291535
304,184,74826,2,8,L|300:31,1,112.500004291535
398,75,75164,2,0,L|395:187,1,112.500004291535
483,193,75502,2,0,L|480:305,1,112.500004291535
256,192,75841,12,0,78545,0:0:0:0:
319,97,90716,6,0,P|255:81|183:140,1,150
278,207,91393,1,0,0:0:0:0:
368,291,91731,2,0,P|310:334|239:320,2,150
426,186,92745,1,0,0:0:0:0:
426,186,92914,1,0,0:0:0:0:
426,186,93083,6,0,L|329:194,1,75
268,159,93421,2,0,L|193:152,1,75
103,142,93759,1,0,0:0:0:0:
141,227,93928,1,0,0:0:0:0:
87,294,94097,2,0,P|174:310|219:208,1,150
272,96,94773,6,0,B|272:144|272:144|304:192|304:192|304:240,1,150
301,325,95281,1,0,0:0:0:0:
397,326,95450,2,0,L|397:234,1,75
470,200,95788,2,0,L|470:108,1,75
383,125,96126,6,0,P|251:156|226:64,2,225
305,91,97478,2,0,B|268:270|268:270|309:231,2,225
256,192,98831,12,0,101197,0:0:0:0:
106,307,101535,6,0,L|30:302,1,56.2500021457673
0,225,101873,2,0,L|76:220,1,56.2500021457673
130,146,102211,2,0,L|54:141,1,56.2500021457673
24,64,102549,2,0,L|100:59,1,56.2500021457673
167,56,102888,5,0,0:0:0:0:
167,56,103057,1,0,0:0:0:0:
233,108,103226,2,0,P|248:164|233:206,1,56.2500021457673
161,168,103564,2,0,P|150:225|119:256,1,56.2500021457673
70,196,103902,2,0,P|36:243|-5:258,2,56.2500021457673
120,297,104578,5,0,0:0:0:0:
120,297,104747,2,0,P|216:300|269:285,1,112.500004291535
315,276,105254,1,0,0:0:0:0:
388,334,105423,2,0,P|442:286|337:136,1,281.250010728836
206,196,106607,1,0,0:0:0:0:
140,62,106945,6,0,L|46:68,1,56.2500021457673
139,149,107283,2,0,L|233:155,1,56.2500021457673
138,240,107621,2,0,L|44:246,1,56.2500021457673
137,327,107959,2,0,L|231:333,1,56.2500021457673
286,331,108297,6,0,P|362:320|409:339,1,112.500004291535
487,345,108804,2,0,P|529:268|466:180,1,168.750006437302
256,192,109649,12,0,112016,0:0:0:0:
359,235,112354,6,0,P|365:290|355:345,1,112.500004291535
156,345,113030,2,0,P|146:290|153:235,1,112.500004291535
362,124,113706,2,0,P|368:179|358:234,1,112.500004291535
159,234,114382,2,0,P|149:178|155:123,1,112.500004291535
256,48,115059,5,0,0:0:0:0:
256,192,115397,1,0,0:0:0:0:
256,336,115735,1,0,0:0:0:0:
432,192,116073,1,0,0:0:0:0:
256,192,116411,5,0,0:0:0:0:
80,192,116749,1,0,0:0:0:0:
115,286,117087,2,0,P|165:219|86:87,1,225.000008583069
230,94,118102,5,0,0:0:0:0:
74,201,118440,1,0,0:0:0:0:
230,288,118778,2,0,P|306:301|327:295,1,56.2500021457673
428,286,119116,2,0,P|402:296|375:301,1,56.2500021457673
227,267,119454,6,0,P|303:280|324:274,1,56.2500021457673
425,265,119792,2,0,P|399:275|371:279,1,56.2500021457673
325,210,120130,2,0,L|324:139,1,56.2500021457673
322,64,120468,1,0,0:0:0:0:
327,67,120637,5,0,0:0:0:0:
227,99,120806,1,0,0:0:0:0:
133,59,120975,1,0,0:0:0:0:
144,156,121144,1,0,0:0:0:0:
144,156,121313,5,0,0:0:0:0:
46,179,121482,1,0,0:0:0:0:
122,249,121651,1,0,0:0:0:0:
84,331,121820,2,0,P|157:324|170:175,1,225.000008583069
54,102,123173,6,0,P|186:131|287:88,1,225.000008583069,0|8,0:0|0:0,0:0:0:0:
345,46,123680,1,0,0:0:0:0:
403,118,123849,2,0,P|417:162|409:240,1,112.500004291535
333,181,124187,2,0,P|328:227|287:295,1,112.500004291535,8|0,0:0|0:0,0:0:0:0:
239,200,124525,6,0,P|215:240|150:284,1,112.500004291535
136,189,124863,2,8,P|98:214|20:227,1,112.500004291535
59,139,125201,1,0,0:0:0:0:
119,296,125370,1,0,0:0:0:0:
196,258,125539,2,0,L|313:250,1,112.500004291535,8|0,0:0|0:0,0:0:0:0:
310,166,125877,6,0,L|422:180,1,112.500004291535
508,190,126215,1,8,0:0:0:0:
497,102,126384,2,0,P|431:222|504:278,1,225.000008583069
443,346,126892,2,0,L|336:280,1,112.500004291535,8|0,0:0|0:0,0:0:0:0:
398,217,127230,6,0,L|291:151,1,112.500004291535
210,158,127568,2,8,L|114:217,1,112.500004291535
165,287,127906,2,0,L|69:346,1,112.500004291535
69,346,128244,1,8,0:0:0:0:
30,267,128413,1,0,0:0:0:0:
97,204,128582,6,0,P|107:153|88:40,1,112.500004291535
203,84,128920,2,0,P|200:141|211:196,1,112.500004291535,8|0,0:0|0:0,0:0:0:0:
302,196,129258,2,0,P|313:141|309:84,1,112.500004291535
408,93,129596,2,0,P|405:149|416:204,1,112.500004291535,8|0,0:0|0:0,0:0:0:0:
438,292,129934,5,0,0:0:0:0:
355,263,130103,1,0,0:0:0:0:
270,291,130272,1,8,0:0:0:0:
186,259,130442,1,8,0:0:0:0:
103,293,130611,2,0,P|147:187|259:207,1,225.000008583069,0|8,0:0|0:0,0:0:0:0:
186,259,131287,6,0,P|80:215|100:103,1,225.000008583069,0|8,0:0|0:0,0:0:0:0:
148,58,131794,1,0,0:0:0:0:
217,116,131963,2,0,P|246:129|338:130,1,112.500004291535
435,151,132301,2,0,P|380:153|327:134,2,112.500004291535,8|0|0,0:0|0:0|0:0,0:0:0:0:
435,151,133146,5,0,0:0:0:0:
438,241,133315,6,0,L|439:356,2,112.500004291535
431,146,133822,5,0,0:0:0:0:
362,88,133991,6,0,P|246:93|203:128,1,112.500004291535
190,154,134330,2,0,P|74:159|31:194,1,112.500004291535,8|0,0:0|0:0,0:0:0:0:
86,247,134668,2,0,P|202:252|245:287,1,112.500004291535
258,313,135007,2,0,P|374:318|417:353,2,112.500004291535,8|0|0,0:0|0:0|0:0,0:0:0:0:
175,347,135514,5,0,0:0:0:0:
187,263,135683,2,8,L|208:126,1,112.500004291535
292,166,136021,2,0,L|310:55,1,112.500004291535
393,70,136359,1,8,0:0:0:0:
150,102,136697,6,0,P|152:206|196:231,1,112.500004291535
100,269,137035,2,0,P|152:289|204:271,1,112.500004291535,8|0,0:0|0:0,0:0:0:0:
270,210,137373,1,0,0:0:0:0:
343,144,137542,1,0,0:0:0:0:
401,230,137711,1,8,0:0:0:0:
327,288,137880,1,0,0:0:0:0:
270,210,138049,6,0,L|139:185,1,112.500004291535
186,104,138388,2,8,L|317:129,1,112.500004291535
332,52,138726,2,0,P|362:173|272:208,1,225.000008583069,0|8,0:0|0:0,0:0:0:0:
297,126,139402,6,0,P|418:96|453:186,1,225.000008583069,0|8,0:0|0:0,0:0:0:0:
372,162,140078,2,0,P|251:192|216:102,1,225.000008583069,0|8,0:0|0:0,0:0:0:0:
214,35,140585,1,0,0:0:0:0:
293,82,140754,6,0,L|297:235,1,112.500004291535
222,232,141092,2,0,P|341:263|366:152,2,225.000008583069,8|0|8,0:0|0:0|0:0,0:0:0:0:
177,313,141937,1,0,0:0:0:0:
106,257,142106,2,0,P|12:232|-26:242,1,112.500004291535
37,285,142444,6,0,P|59:234|59:178,1,112.500004291535,8|0,0:0|0:0,0:0:0:0:
34,95,142782,1,0,0:0:0:0:
34,95,142951,1,0,0:0:0:0:
122,110,143120,2,0,L|245:127,1,112.500004291535,8|0,0:0|0:0,0:0:0:0:
232,212,143458,2,0,B|271:230|271:230|306:217|306:217|349:242|349:242|395:214|395:214|378:166|378:167|378:168|417:144|422:108|411:49|411:49|485:128|485:128|464:167|486:228|486:228|454:270|454:270|468:331,1,675.000025749207
285,324,144810,6,0,B|280:264|280:264|305:200,1,112.500004291535
383,170,145149,2,0,B|388:230|388:230|363:294,1,112.500004291535,8|0,0:0|0:0,0:0:0:0:
197,291,145487,1,0,0:0:0:0:
126,115,145825,1,8,0:0:0:0:
43,147,145994,6,0,P|157:194|216:89,1,225.000008583069
215,130,146501,1,8,0:0:0:0:
294,175,146670,2,0,P|280:208|290:291,1,112.500004291535,8|0,0:0|0:0,0:0:0:0:
363,238,147008,2,0,P|396:252|479:242,1,112.500004291535,0|8,0:0|0:0,0:0:0:0:
423,166,147346,1,0,0:0:0:0:
496,111,147515,6,0,P|510:78|500:-5,2,112.500004291535,0|0|8,0:0|0:0|0:0,0:0:0:0:
426,49,148022,2,0,P|333:-6|213:82,1,225.000008583069
191,114,148529,1,8,0:0:0:0:
113,160,148698,2,2,P|223:199|271:77,2,225.000008583069
106,69,149544,5,2,0:0:0:0:
27,117,149713,1,2,0:0:0:0:
113,160,149882,2,2,L|99:284,1,112.500004291535
190,233,150220,5,0,0:0:0:0:
18,217,150389,1,0,0:0:0:0:
6,317,150558,2,0,P|108:250|86:172,1,112.500004291535,8|0,0:0|0:0,0:0:0:0:
180,313,150896,2,0,P|279:258|376:306,1,225.000008583069,0|8,0:0|0:0,0:0:0:0:
372,301,151403,1,0,0:0:0:0:
444,243,151572,6,0,L|435:109,1,112.500004291535
339,79,151910,2,8,L|347:192,1,112.500004291535
271,258,152248,1,0,0:0:0:0:
190,203,152417,2,0,P|102:187|48:202,2,112.500004291535,0|8|0,0:0|0:0|0:0,0:0:0:0:
256,192,152925,12,0,155629,0:0:0:0:
256,192,155629,5,0,0:0:0:0:
