osu file format v14

[General]
AudioFilename: audio.mp3
AudioLeadIn: 0
PreviewTime: -1
Countdown: 0
SampleSet: Soft
StackLeniency: 1
Mode: 0
LetterboxInBreaks: 0
WidescreenStoryboard: 1

[Editor]
Bookmarks: 2814,24451,48963,155629
DistanceSpacing: 0.8
BeatDivisor: 2
GridSize: 16
TimelineZoom: 1.3

[Metadata]
Title:Every Time We Touch
TitleUnicode:Every Time We Touch
Artist:Cascada
ArtistUnicode:Cascada
Creator:[Robert]
Version:val0108
Source:
Tags:
BeatmapID:1246794
BeatmapSetID:588593

[Difficulty]
HPDrainRate:6.7
CircleSize:3.8
OverallDifficulty:6.8
ApproachRate:9.2
SliderMultiplier:1.15
SliderTickRate:1

[Events]
//Background and Video events
0,0,"535515-1680x1050.jpg",0,0
//Break Periods
//Storyboard Layer 0 (Background)
//Storyboard Layer 1 (Fail)
//Storyboard Layer 2 (Pass)
//Storyboard Layer 3 (Foreground)
//Storyboard Sound Samples

[TimingPoints]
24451.7031312879,338.087817772778,4,2,2,100,1,0
24472,-50,4,2,2,100,0,0
32481,-66.6666666666667,4,2,2,100,0,0
45075,-133.333333333333,4,2,2,100,0,0
56739,-50,4,2,2,100,0,0
90547,-100,4,2,2,100,0,0
101366,-133.333333333333,4,2,2,100,0,0
122835,-66.6666666666667,4,2,2,100,0,0
123153,-66.6666666666667,4,2,2,100,0,1

[Colours]
Combo1 : 113,0,113
Combo2 : 255,128,255
Combo3 : 255,207,159

[HitObjects]
113,80,2814,6,0,P|191:88|209:104,1,57.5
247,111,3152,2,0,P|274:116|303:113,1,57.5
385,79,3490,1,0,0:0:0:0:
415,265,3659,1,0,0:0:0:0:
308,199,3828,2,0,P|222:205|209:209,1,57.5
383,223,4166,2,0,P|361:139|246:151,2,172.5
153,318,5518,2,0,B|145:266|145:266|98:211|98:211|85:138,2,172.5
319,251,6871,2,0,P|373:290|311:226,1,402.5
387,216,8223,2,0,P|284:248|222:212,2,172.5
168,170,9406,1,0,0:0:0:0:
46,314,9575,2,0,P|109:274|135:216,1,115
189,305,10082,2,0,P|243:285|302:360,1,115
316,227,10590,2,0,L|303:49,1,172.5
390,180,11266,2,0,P|347:120|241:214,1,230
236,187,13294,1,0,0:0:0:0:
149,275,13632,2,0,P|107:191|110:175,1,115
73,108,14140,2,0,P|131:98|173:178,1,115
213,332,14647,2,0,L|217:248,1,57.5
303,88,14985,2,0,P|310:161|280:198,1,115
236,131,15492,2,0,P|163:138|126:108,1,115
191,64,15999,1,0,0:0:0:0:
146,251,16168,1,0,0:0:0:0:
304,177,16337,2,0,P|388:163|440:206,1,115
303,309,16844,2,0,B|223:321|223:321|174:308,1,115
190,312,17351,1,0,0:0:0:0:
170,141,17520,1,0,0:0:0:0:
87,133,17689,2,0,P|128:74|252:166,1,230
403,84,18704,2,0,P|332:95|314:104,1,57.5
169,139,19042,2,0,P|84:146|27:133,1,115
254,127,19549,2,0,P|271:265|262:303,1,172.5
128,296,20225,1,0,0:0:0:0:
177,108,20394,2,0,P|223:57|331:101,2,172.5
256,192,21408,12,0,24113,0:0:0:0:
358,59,24451,5,0,0:0:0:0:
285,306,24620,1,0,0:0:0:0:
77,135,24789,2,0,P|160:55|242:136,1,230
285,315,25296,1,0,0:0:0:0:
149,238,25465,2,0,P|89:218|35:237,1,115
353,139,25804,2,0,P|413:119|467:138,1,115
403,332,26142,1,0,0:0:0:0:
147,91,26311,1,0,0:0:0:0:
73,223,26480,2,0,B|57:306|57:306|81:358,1,115
213,267,26818,2,0,B|201:240|201:240|217:157,1,115
395,64,27156,2,0,P|448:160|363:266,1,230
160,206,27663,1,0,0:0:0:0:
311,326,27832,1,0,0:0:0:0:
367,45,28001,1,0,0:0:0:0:
466,262,28170,1,0,0:0:0:0:
194,149,28339,2,0,P|102:135|59:160,1,115
310,235,28677,2,0,P|402:249|445:224,1,115
299,130,29015,2,0,P|313:38|288:-5,1,115
213,246,29353,2,0,P|199:338|224:381,2,115
121,75,29861,2,0,P|180:63|231:158,1,172.5
230,230,30199,2,0,P|305:284|393:221,1,172.5
214,148,30537,2,0,P|113:144|25:175,1,172.5
298,236,30875,2,0,P|399:240|487:209,1,172.5
358,155,31213,2,0,P|392:256|339:342,1,172.5
154,229,31551,2,0,P|120:128|173:42,1,172.5
104,287,31889,2,0,P|192:295|226:217,1,172.5
408,97,32227,2,0,P|320:89|286:167,1,172.5
455,301,32565,1,0,0:0:0:0:
411,302,32650,1,0,0:0:0:0:
368,303,32734,1,0,0:0:0:0:
325,305,32818,1,0,0:0:0:0:
282,283,32903,1,0,0:0:0:0:
238,281,32987,1,0,0:0:0:0:
195,280,33072,1,0,0:0:0:0:
152,278,33156,1,0,0:0:0:0:
101,278,33241,1,0,0:0:0:0:
54,170,33326,2,0,L|45:100,1,43.1250016450882
136,95,33495,2,0,L|130:137,1,43.1250016450882
220,181,33664,2,0,L|211:111,1,43.1250016450882
302,106,33833,2,0,L|296:148,1,43.1250016450882
380,203,34002,2,0,L|371:133,1,43.1250016450882
462,128,34171,2,0,L|456:170,1,43.1250016450882
351,337,34425,1,0,0:0:0:0:
209,60,34594,1,0,0:0:0:0:
115,313,34763,1,0,0:0:0:0:
448,138,34932,1,0,0:0:0:0:
54,152,35101,1,0,0:0:0:0:
322,85,35270,2,0,P|345:192|298:251,1,172.500006580353
134,330,35777,1,0,0:0:0:0:
119,137,35946,1,0,0:0:0:0:
413,200,36115,1,0,0:0:0:0:
72,248,36284,1,0,0:0:0:0:
179,72,36453,2,0,L|272:78,1,86.2500032901765
437,323,36791,2,0,L|350:317,1,86.2500032901765
240,190,37129,2,0,P|244:102|252:91,1,86.2500032901765
444,46,37468,2,0,P|440:134|432:145,1,86.2500032901765
112,327,37806,2,0,L|117:240,1,86.2500032901765
363,69,38144,2,0,L|357:155,1,86.2500032901765
173,321,38482,2,0,P|71:309|60:204,1,172.500006580353
340,71,38989,1,0,0:0:0:0:
173,321,39158,2,0,B|162:248|162:248|139:218|139:218|124:146,2,172.500006580353
23,228,40003,1,0,0:0:0:0:
285,106,40172,1,0,0:0:0:0:
289,335,40341,1,0,0:0:0:0:
117,61,40510,1,0,0:0:0:0:
408,137,40679,2,0,P|305:182|285:169,1,129.375004935265
49,218,41018,2,0,P|152:263|172:250,1,129.375004935265
325,316,41356,2,0,L|305:170,1,129.375004935265
199,70,41694,2,0,P|137:61|94:115,1,129.375004935265
313,314,42032,2,0,P|375:323|418:269,1,129.375004935265
134,249,42370,2,0,P|125:311|179:354,1,129.375004935265
378,135,42708,2,0,P|387:73|333:30,1,129.375004935265
306,99,43046,2,0,P|249:96|160:118,1,129.375004935265
256,192,43384,12,0,44736,0:0:0:0:
119,82,45244,5,0,0:0:0:0:
428,231,45413,1,0,0:0:0:0:
127,325,45582,1,0,0:0:0:0:
313,45,45751,1,0,0:0:0:0:
321,270,45920,1,0,0:0:0:0:
111,129,46089,2,0,P|173:114|187:118,1,43.1250016450883
201,237,46427,2,0,P|139:252|125:248,1,43.1250016450883
122,122,46765,2,0,P|185:117|198:124,1,43.1250016450883
191,243,47103,2,0,P|127:247|114:240,1,43.1250016450883
132,117,47441,2,0,P|195:124|207:132,1,43.1250016450883
179,249,47779,2,0,P|115:241|103:233,1,43.1250016450883
49,226,48117,1,0,0:0:0:0:
256,246,48286,1,0,0:0:0:0:
156,61,48455,1,0,0:0:0:0:
143,336,48624,1,0,0:0:0:0:
302,180,48794,2,0,P|212:176|183:193,1,86.2500032901765
379,222,49470,2,0,P|469:226|498:209,1,86.2500032901765
145,142,50146,2,0,P|135:187|176:247,1,86.2500032901765
509,344,50822,2,0,P|519:299|478:239,1,86.2500032901765
212,53,51498,2,0,L|152:59,1,43.1250016450883
295,99,51836,2,0,L|355:105,1,43.1250016450883
206,151,52174,2,0,L|146:157,1,43.1250016450883
289,197,52512,2,0,L|349:203,1,43.1250016450883
404,275,52851,2,0,P|401:296|390:314,1,43.1250016450883
424,196,53189,2,0,P|426:174|437:156,1,43.1250016450883
176,231,53527,2,0,P|173:252|162:270,1,43.1250016450883
196,152,53865,2,0,P|198:130|209:112,1,43.1250016450883
256,192,54203,12,0,55555,0:0:0:0:
