osu file format v14

[General]
AudioFilename: audio.mp3
AudioLeadIn: 0
PreviewTime: 115000
Countdown: 0
SampleSet: Soft
StackLeniency: 0.4
Mode: 0
LetterboxInBreaks: 0
SkinPreference:Default
WidescreenStoryboard: 0

[Editor]
Bookmarks: 7000,17972,31686,42657,55000,65972,71457,76943,85172,96143,104372,109857,126315,138657,144143,149629
DistanceSpacing: 1.5
BeatDivisor: 4
GridSize: 4
TimelineZoom: 1.600006

[Metadata]
Title:Because The Night (Nightcore Mix)
TitleUnicode:Because The Night (Nightcore Mix)
Artist:Cascada
ArtistUnicode:Cascada
Creator:StripedGoose
Version:The Night Belongs to Us
Source:
Tags:kpobyiiika english edm electronic dance music pop back on the dancefloor perfect day techno remix eurodance speed sped up trance house
BeatmapID:3743375
BeatmapSetID:1824313

[Difficulty]
HPDrainRate:6
CircleSize:4
OverallDifficulty:8
ApproachRate:9
SliderMultiplier:1.8
SliderTickRate:2

[Events]
//Background and Video events
0,0,"BG.jpg",0,0
//Break Periods
2,55200,59736
2,79886,84422
//Storyboard Layer 0 (Background)
//Storyboard Layer 1 (Fail)
//Storyboard Layer 2 (Pass)
//Storyboard Layer 3 (Foreground)
//Storyboard Layer 4 (Overlay)
//Storyboard Sound Samples

[TimingPoints]
1515,342.857142857143,4,2,1,50,1,0
1515,-200,4,2,1,50,0,0
7000,-142.857142857143,4,2,1,60,0,0
17972,-125,4,2,1,60,0,0
29629,-125,4,2,1,50,0,0
30315,-125,4,2,1,55,0,0
31000,-125,4,2,1,60,0,0
31686,-100,4,2,1,70,0,0
42657,-100,4,2,1,70,0,1
52257,-125,4,2,1,70,0,0
52600,-125,4,2,1,50,0,0
53629,-200,4,2,1,50,0,0
55000,-166.666666666667,4,2,1,60,0,0
63915,-166.666666666667,4,2,1,30,0,0
64600,-166.666666666667,4,2,1,50,0,0
65972,-125,4,2,1,60,0,0
71457,-100,4,2,1,70,0,1
74200,-125,4,2,1,50,0,0
76943,-200,4,2,1,60,0,0
79686,-200,4,2,1,40,0,0
85172,-142.857142857143,4,2,1,60,0,0
96143,-125,4,2,1,60,0,0
101457,-125,4,2,1,50,0,0
104372,-200,4,2,1,50,0,0
109857,-166.666666666667,4,2,1,60,0,0
113972,-125,4,2,1,60,0,0
115343,-100,4,2,1,70,0,0
126315,-100,4,2,1,70,0,1
135915,-125,4,2,1,70,0,0
136257,-125,4,2,1,50,0,0
137286,-200,4,2,1,50,0,0
138657,-125,4,2,1,70,0,0
144143,-99.9999999999999,4,2,1,70,0,1
146886,-125,4,2,1,60,0,0
148257,-125,4,2,1,50,0,0
149629,-125,4,2,1,55,0,0
156486,-125,4,2,1,40,0,0
159229,-125,4,2,1,60,0,0

[Colours]
Combo1 : 83,253,236
Combo2 : 123,204,253
Combo3 : 224,73,213
Combo4 : 156,89,217
SliderBorder : 255,255,255

[HitObjects]
256,192,1515,6,0,L|256:147,2,45,2|0|0,0:0|0:0|0:0,0:0:0:0:
168,192,2029,5,0,0:0:0:0:
168,192,2200,2,0,L|123:192,3,45,2|0|0|0,0:0|0:0|0:0|0:0,0:0:0:0:
256,192,2886,6,0,L|256:256,2,45,2|0|0,0:0|0:0|0:0,0:0:0:0:
256,68,3400,5,0,0:0:0:0:
256,68,3572,2,0,L|287:36,1,45,2|0,0:0|0:0,0:0:0:0:
380,32,3915,1,0,0:0:0:0:
336,108,4086,1,0,0:0:0:0:
256,192,4257,6,0,L|256:240,2,45,2|0|0,0:0|0:0|0:0,0:0:0:0:
352,192,4772,5,0,0:0:0:0:
352,192,4943,2,0,L|416:192,3,45,2|0|0|0,0:0|0:0|0:0|0:0,0:0:0:0:
256,192,5629,6,0,L|256:144,2,45,2|0|0,0:0|0:0|0:0,0:0:0:0:
256,316,6143,5,0,0:0:0:0:
256,316,6315,2,0,L|224:347,1,45,2|0,0:0|0:0,0:0:0:0:
132,352,6658,1,0,0:0:0:0:
176,276,6829,1,0,0:0:0:0:
20,200,7000,5,2,0:0:0:0:
20,200,7172,2,0,P|76:175|132:200,1,125.999996154785,2|2,0:0|0:0,0:0:0:0:
360,56,8029,1,2,0:0:0:0:
360,56,8200,1,2,0:0:0:0:
360,56,8372,2,0,P|329:63|298:57,1,62.9999980773926,2|0,0:0|0:0,0:0:0:0:
152,56,8715,2,0,P|182:48|213:54,1,62.9999980773926,2|0,0:0|0:0,0:0:0:0:
255,135,9057,2,0,P|304:176|364:191,1,125.999996154785,2|0,0:0|0:0,0:0:0:0:
212,330,9743,6,0,P|182:336|152:328,1,62.9999980773926,2|2,0:0|0:0,0:0:0:0:
255,135,10257,2,0,P|315:150|364:191,1,125.999996154785,2|0,0:0|0:0,0:0:0:0:
176,192,10772,2,0,L|112:192,1,62.9999980773926,2|0,0:0|0:0,0:0:0:0:
52,128,11115,1,2,0:0:0:0:
52,128,11286,1,2,0:0:0:0:
113,64,11457,1,2,0:0:0:0:
113,64,11629,2,0,B|144:44|216:60|188:72|260:88|296:63,1,188.999994232178,2|0,0:0|0:0,0:0:0:0:
256,192,12315,5,2,0:0:0:0:
256,192,12486,2,0,P|265:254|257:316,1,125.999996154785,10|8,0:0|0:0,0:0:0:0:
164,224,13000,2,0,P|155:193|161:163,1,62.9999980773926,2|8,0:0|0:0,0:0:0:0:
216,92,13343,1,2,0:0:0:0:
335,92,13515,5,10,0:0:0:0:
335,92,13686,1,2,0:0:0:0:
335,92,13857,2,0,L|335:160,1,62.9999980773926,10|0,0:0|0:0,0:0:0:0:
427,180,14200,2,0,L|379:228,1,62.9999980773926,10|0,0:0|0:0,0:0:0:0:
431,308,14543,2,0,L|305:308,1,125.999996154785,10|8,0:0|0:0,0:0:0:0:
212,160,15229,5,10,0:0:0:0:
212,160,15400,1,2,0:0:0:0:
265,235,15573,1,10,0:0:0:0:
176,292,15743,2,0,L|176:224,1,62.9999980773926,2|8,0:0|0:0,0:0:0:0:
84,204,16086,2,0,L|132:155,1,62.9999980773926,2|8,0:0|0:0,0:0:0:0:
207,76,16429,5,2,0:0:0:0:
154,1,16600,1,10,0:0:0:0:
154,1,16772,1,2,0:0:0:0:
81,76,16943,2,0,L|207:76,1,125.999996154785,10|8,0:0|0:0,0:0:0:0:
256,156,17457,5,8,3:1:0:0:
304,76,17629,1,8,3:1:0:0:
256,324,17972,5,4,3:0:0:0:
256,324,18143,2,0,B|288:324|288:324|296:328|296:328|328:328,1,72,2|8,0:0|0:0,0:0:0:0:
416,264,18486,2,0,B|404:192|404:192|416:120,1,144,4|2,3:0|3:0,0:0:0:0:
328,56,19000,2,0,P|292:48|257:55,1,72,10|0,0:0|0:0,0:0:0:0:
116,146,19343,6,0,L|188:146,1,72,4|0,3:0|0:0,0:0:0:0:
327,235,19686,2,0,L|255:235,1,72,10|4,0:0|3:0,0:0:0:0:
116,323,20029,2,0,B|173:323|173:323|201:315|201:315|258:315,1,144,2|8,0:0|0:0,0:0:0:0:
327,235,20543,5,2,0:0:0:0:
327,235,20715,2,0,P|390:206|454:234,1,144,4|8,3:0|0:0,0:0:0:0:
455,344,21229,2,0,P|391:372|327:344,1,144,4|2,3:0|3:0,0:0:0:0:
224,348,21743,1,10,0:0:0:0:
224,348,21915,1,2,0:0:0:0:
183,235,22086,6,0,L|255:235,1,72,4|0,3:0|0:0,0:0:0:0:
394,324,22429,2,0,L|322:324,1,72,10|4,0:0|3:0,0:0:0:0:
251,155,22772,2,0,B|309:155|309:155|337:147|337:147|394:147,1,144,2|8,0:0|0:0,0:0:0:0:
200,12,23457,5,4,3:0:0:0:
200,12,23629,2,0,P|192:48|199:82,1,72,2|8,0:0|0:0,0:0:0:0:
308,79,23972,1,4,3:0:0:0:
308,79,24143,2,0,P|314:44|307:10,2,72,2|2|8,0:0|3:0|0:0,0:0:0:0:
168,192,24657,5,2,0:0:0:0:
168,192,24829,2,0,L|117:141,1,72,4|0,3:0|0:0,0:0:0:0:
168,304,25172,2,0,L|117:354,1,72,10|4,0:0|3:0,0:0:0:0:
96,248,25515,1,2,0:0:0:0:
96,248,25686,2,0,L|168:248,1,72,4|8,3:0|0:0,0:0:0:0:
304,296,26029,5,2,0:0:0:0:
304,188,26200,1,4,3:0:0:0:
304,188,26372,2,0,P|334:170|339:136,1,72,2|8,0:0|0:0,0:0:0:0:
443,41,26715,1,4,3:0:0:0:
443,41,26886,2,0,B|416:56|360:48|392:32|336:24|304:40,1,144,2|8,0:0|0:0,0:0:0:0:
208,196,27572,5,4,3:0:0:0:
208,196,27744,2,0,P|177:213|172:247,1,72,2|8,0:0|0:0,0:0:0:0:
68,342,28087,1,4,3:0:0:0:
68,342,28258,2,0,B|95:327|151:335|119:351|175:359|207:343,1,144,2|8,0:0|0:0,0:0:0:0:
256,132,28943,5,4,3:0:0:0:
256,132,29115,2,0,L|256:60,1,72,2|8,0:0|0:0,0:0:0:0:
256,212,29457,1,4,3:0:0:0:
356,100,29629,1,2,3:0:0:0:
356,100,29800,1,2,3:0:0:0:
412,192,29972,1,8,0:0:0:0:
412,192,30143,1,2,3:0:0:0:
356,284,30315,6,0,P|351:301|355:318,3,36,2|2|2|2,3:0|3:0|3:0|3:0,0:0:0:0:
304,336,30657,2,0,P|309:352|321:366,3,36,2|2|2|2,3:0|3:0|3:0|3:0,0:0:0:0:
436,304,31000,1,2,3:0:0:0:
436,284,31086,1,2,3:0:0:0:
436,264,31172,1,2,3:0:0:0:
436,244,31257,1,2,3:0:0:0:
436,224,31343,1,10,3:0:0:0:
436,204,31429,1,10,3:0:0:0:
436,184,31515,1,10,3:0:0:0:
436,164,31600,1,10,3:0:0:0:
436,144,31686,5,4,1:0:0:0:
324,44,31857,1,2,0:0:0:0:
324,44,32029,2,0,B|324:80|336:88|336:88|324:96|324:127,1,90,8|2,1:0|0:0,0:0:0:0:
188,127,32372,2,0,B|188:96|176:88|176:88|188:80|188:44,1,90,2|0,1:2|0:0,0:0:0:0:
255,191,32715,1,8,1:0:0:0:
388,240,32886,5,2,0:0:0:0:
388,240,33057,2,0,L|324:303,1,90,2|0,1:2|0:0,0:0:0:0:
124,240,33400,2,0,L|188:304,1,90,8|0,1:0|0:0,0:0:0:0:
124,104,33743,5,2,1:2:0:0:
20,192,33915,1,2,0:0:0:0:
124,103,34086,2,0,P|168:95|212:102,1,90,8|0,1:0|0:0,0:0:0:0:
124,240,34429,5,2,1:2:0:0:
212,344,34600,2,0,B|256:356|256:356|298:344,1,90,2|8,0:0|1:0,0:0:0:0:
124,240,34943,1,2,0:0:0:0:
298,344,35115,2,0,B|255:332|255:332|211:344,1,90,2|0,1:2|0:0,0:0:0:0:
388,240,35457,1,8,1:0:0:0:
256,212,35629,5,2,0:0:0:0:
328,96,35800,2,0,P|336:51|328:7,1,90,2|0,1:2|0:0,0:0:0:0:
184,8,36143,2,0,P|176:52|184:96,1,90,8|0,1:0|0:0,0:0:0:0:
48,191,36486,2,0,P|80:110|48:28,1,180,0|8,1:2|1:0,0:0:0:0:
124,344,37172,5,2,1:2:0:0:
300,280,37343,1,2,0:0:0:0:
300,280,37515,2,0,B|255:270|255:270|212:280,1,90,8|2,1:0|0:0,0:0:0:0:
212,104,37857,2,0,B|257:114|257:114|300:104,1,90,2|2,1:2|0:0,0:0:0:0:
256,192,38201,1,8,1:0:0:0:
392,32,38372,5,2,0:0:0:0:
392,32,38543,2,0,B|364:40|336:36|352:28|320:24|302:32,1,90,2|0,1:2|0:0,0:0:0:0:
119,31,38886,2,0,B|147:39|175:35|159:27|191:23|207:31,1,90,8|0,1:0|0:0,0:0:0:0:
388,280,39229,5,2,1:2:0:0:
492,192,39401,1,2,0:0:0:0:
388,281,39572,2,0,P|344:289|300:282,1,90,8|0,1:0|0:0,0:0:0:0:
256,156,39915,5,2,1:2:0:0:
384,200,40086,2,0,P|392:155|384:111,1,90,2|8,0:0|1:0,0:0:0:0:
256,156,40429,1,2,0:0:0:0:
126,112,40600,2,0,P|119:156|128:200,1,90,2|0,1:2|0:0,0:0:0:0:
256,72,40943,1,8,1:0:0:0:
128,200,41115,5,2,0:0:0:0:
172,328,41286,2,0,L|262:328,1,90,0|0,1:2|0:0,0:0:0:0:
473,362,41629,2,0,L|383:362,1,90,8|0,1:0|0:0,0:0:0:0:
255,246,41972,2,0,P|319:187|406:191,1,180,2|8,1:2|1:0,0:0:0:0:
300,24,42572,5,0,1:0:0:0:
300,24,42657,2,0,B|272:24|256:16|256:16|240:24|212:23,1,90,4|2,1:0|1:2,0:0:0:0:
212,160,43000,2,0,B|240:160|256:168|256:168|272:160|299:160,1,90,8|2,1:0|1:2,0:0:0:0:
344,180,43257,1,0,1:0:0:0:
344,180,43343,2,0,B|368:192|368:192|432:192,1,90,2|2,1:2|1:2,0:0:0:0:
256,92,43686,1,8,1:0:0:0:
144,192,43857,5,2,1:2:0:0:
100,320,44029,2,0,P|144:325|189:320,1,90,2|2,1:2|1:2,0:0:0:0:
300,244,44372,1,8,1:0:0:0:
278,240,44457,1,0,1:0:0:0:
256,239,44543,1,2,1:2:0:0:
233,240,44629,1,0,1:0:0:0:
211,244,44714,1,2,1:2:0:0:
256,92,44886,1,2,1:2:0:0:
144,192,45057,2,0,L|80:128,1,90,8|2,1:0|1:2,0:0:0:0:
189,320,45400,5,2,1:2:0:0:
324,320,45572,2,0,B|388:320|388:320|400:292,1,90,2|8,1:2|1:0,0:0:0:0:
400,160,45915,1,2,1:2:0:0:
400,160,46000,1,0,1:0:0:0:
400,160,46086,2,0,B|389:136|389:136|325:136,1,90,2|2,1:2|1:2,0:0:0:0:
192,136,46429,1,8,1:0:0:0:
256,16,46600,5,2,1:2:0:0:
320,182,46772,2,0,P|353:154|351:111,1,90,2|2,1:2|1:2,0:0:0:0:
184,184,47115,1,8,1:0:0:0:
164,174,47200,1,0,1:0:0:0:
151,156,47286,1,2,1:2:0:0:
147,134,47372,1,0,1:0:0:0:
153,113,47457,2,0,B|152:72|188:36|188:36|140:56|92:36,1,180,2|8,1:2|1:0,0:0:0:0:
32,300,48143,5,2,1:2:0:0:
144,376,48315,1,2,1:2:0:0:
256,300,48486,1,8,1:0:0:0:
278,300,48572,1,0,1:0:0:0:
301,300,48657,1,2,1:2:0:0:
323,300,48744,1,0,1:0:0:0:
346,300,48829,2,0,B|410:300|410:300|410:228|482:228,1,180,2|8,1:2|1:0,0:0:0:0:
352,192,49343,5,2,1:2:0:0:
256,300,49515,2,0,L|166:300,1,90,2|2,1:2|1:2,0:0:0:0:
70,192,49857,1,8,1:0:0:0:
93,192,49943,1,0,1:0:0:0:
115,192,50029,1,2,1:2:0:0:
138,192,50115,1,0,1:0:0:0:
160,192,50200,1,2,1:2:0:0:
256,96,50372,1,2,1:2:0:0:
352,192,50543,2,0,L|416:128,1,90,8|2,1:0|1:2,0:0:0:0:
256,332,50886,5,2,1:2:0:0:
120,332,51057,2,0,P|88:332|48:292,1,90,2|8,1:2|1:0,0:0:0:0:
64,164,51400,1,2,1:2:0:0:
64,164,51486,1,0,1:0:0:0:
64,164,51572,2,0,P|96:164|136:204,1,90,2|2,1:2|1:2,0:0:0:0:
272,208,51915,1,8,1:0:0:0:
364,92,52086,5,2,1:2:0:0:
364,92,52257,2,0,L|364:20,1,72,2|2,1:2|1:2,0:0:0:0:
256,20,52600,5,2,3:0:0:0:
256,48,52685,1,2,3:0:0:0:
256,77,52771,1,2,1:2:0:0:
256,106,52857,1,2,3:0:0:0:
256,135,52942,1,2,3:0:0:0:
256,164,53028,1,2,3:0:0:0:
256,192,53114,1,2,1:2:0:0:
256,221,53199,1,2,3:0:0:0:
256,250,53285,1,2,3:0:0:0:
256,279,53371,1,2,3:0:0:0:
256,308,53457,1,2,1:2:0:0:
256,336,53542,1,2,3:0:0:0:
256,364,53629,5,6,3:0:0:0:
256,192,53715,12,6,55000,3:0:0:0:
256,192,60486,12,10,63915,3:0:0:0:
336,20,64600,5,8,1:0:0:0:
336,20,64772,1,8,1:0:0:0:
256,20,64943,1,8,1:0:0:0:
256,20,65115,1,8,1:0:0:0:
176,20,65286,1,8,1:0:0:0:
28,80,65629,1,8,1:0:0:0:
28,160,65800,1,8,1:0:0:0:
28,292,65972,5,4,1:0:0:0:
28,292,66315,1,4,3:0:0:0:
104,188,66486,1,2,3:0:0:0:
180,292,66657,2,0,B|252:292|252:292|300:292|300:240,1,144,4|4,3:0|3:0,0:0:0:0:
256,116,67172,5,2,3:0:0:0:
356,36,67343,1,6,3:0:0:0:
484,292,67686,1,4,3:0:0:0:
356,36,68029,1,6,3:0:0:0:
484,80,68200,1,2,3:0:0:0:
484,80,68286,1,2,3:0:0:0:
484,80,68372,2,0,L|484:152,1,72,4|0,3:0|0:0,0:0:0:0:
484,292,68715,5,6,3:0:0:0:
484,292,69058,1,4,3:0:0:0:
408,188,69229,1,2,3:0:0:0:
332,292,69400,2,0,B|260:292|260:292|212:292|212:240,1,144,4|4,3:0|3:0,0:0:0:0:
104,188,69915,5,2,3:0:0:0:
108,320,70086,1,6,3:0:0:0:
108,320,70257,1,2,3:0:0:0:
212,318,70429,2,0,B|221:283|221:283|212:247,1,72,4|0,3:0|0:0,0:0:0:0:
300,66,70772,2,0,B|291:101|291:101|300:137,1,72,4|0,3:0|0:0,0:0:0:0:
303,246,71115,5,6,3:0:0:0:
300,376,71286,1,2,3:0:0:0:
364,183,71457,2,0,B|342:205|327:209|327:209|325:222|303:245,1,90,4|2,1:0|3:0,0:0:0:0:
148,183,71800,2,0,B|170:205|185:209|185:209|187:222|209:245,1,90,8|2,1:0|3:0,0:0:0:0:
212,288,72057,1,2,3:0:0:0:
212,288,72143,2,0,B|189:310|186:324|186:324|172:327|150:349,2,90,6|2|8,3:0|3:0|1:0,0:0:0:0:
256,160,72657,5,2,3:0:0:0:
188,44,72829,2,0,P|143:52|92:44,1,90,6|2,3:0|3:0,0:0:0:0:
324,44,73172,1,8,1:0:0:0:
324,44,73257,1,2,3:0:0:0:
324,44,73343,1,2,3:0:0:0:
324,44,73429,1,2,3:0:0:0:
324,44,73515,2,0,P|369:52|413:47,1,90,6|2,3:0|3:0,0:0:0:0:
412,192,73857,1,8,1:0:0:0:
412,192,74029,1,2,3:0:0:0:
256,192,74200,5,12,3:0:0:0:
256,192,74286,12,2,75229,0:0:0:0:
336,364,75571,5,2,3:0:0:0:
336,364,75743,1,2,3:0:0:0:
256,364,75914,1,2,3:0:0:0:
256,364,76086,1,2,3:0:0:0:
176,364,76257,2,0,L|104:364,1,72,2|2,3:0|3:0,0:0:0:0:
140,260,76600,1,2,3:0:0:0:
196,192,76772,1,2,3:0:0:0:
140,124,76943,5,4,1:0:0:0:
256,192,77029,12,2,79686,3:0:0:0:
296,192,85172,5,10,0:0:0:0:
296,192,85343,2,0,L|376:192,1,62.9999980773926,2|8,0:0|0:0,0:0:0:0:
432,252,85686,2,0,P|447:191|431:131,1,125.999996154785,2|0,0:0|0:0,0:0:0:0:
364,72,86200,1,10,0:0:0:0:
364,72,86372,1,2,0:0:0:0:
256,103,86543,2,0,L|256:40,1,62.9999980773926,10|2,0:0|0:0,0:0:0:0:
148,72,86886,1,10,0:0:0:0:
148,72,87057,1,2,0:0:0:0:
80,131,87229,2,0,P|64:191|80:252,1,125.999996154785,10|8,0:0|0:0,0:0:0:0:
256,320,87915,5,10,0:0:0:0:
328,256,88086,1,2,0:0:0:0:
184,256,88257,1,10,0:0:0:0:
256,192,88429,2,0,L|256:129,2,62.9999980773926,2|8|0,0:0|0:0|0:0,0:0:0:0:
256,192,89115,5,2,0:0:0:0:
168,164,89286,2,0,L|123:119,1,62.9999980773926,10|0,0:0|0:0,0:0:0:0:
200,60,89629,2,0,P|256:35|312:60,2,125.999996154785,10|8|8,0:0|0:0|0:0,0:0:0:0:
64,192,90657,5,10,0:0:0:0:
64,288,90829,1,2,0:0:0:0:
144,340,91000,1,10,0:0:0:0:
224,292,91172,2,0,B|256:296|256:296|287:292,1,62.9999980773926,2|8,0:0|0:0,0:0:0:0:
415,360,91515,2,0,B|383:356|383:356|352:360,1,62.9999980773926,2|8,0:0|0:0,0:0:0:0:
352,224,91857,5,2,0:0:0:0:
352,224,92029,2,0,B|392:208|424:220|404:224|436:236|476:224,1,125.999996154785,8|8,0:0|0:0,0:0:0:0:
476,128,92543,1,2,0:0:0:0:
476,128,92715,2,0,P|464:68|408:56,1,125.999996154785,8|8,0:0|0:0,0:0:0:0:
208,56,93400,5,10,0:0:0:0:
304,152,93572,1,2,0:0:0:0:
208,152,93743,1,10,0:0:0:0:
304,56,93915,1,2,0:0:0:0:
208,56,94086,2,0,B|176:64|176:64|145:57,1,62.9999980773926,10|0,0:0|0:0,0:0:0:0:
17,124,94429,2,0,B|49:116|49:116|78:122,1,62.9999980773926,10|0,0:0|0:0,0:0:0:0:
208,192,94772,5,8,0:0:0:0:
208,192,94943,1,2,0:0:0:0:
83,287,95115,2,0,P|145:280|208:288,1,125.999996154785,10|8,0:0|0:0,0:0:0:0:
304,288,95629,5,8,3:1:0:0:
255,372,95800,1,8,3:1:0:0:
476,156,96143,5,10,0:0:0:0:
476,156,96315,2,0,P|483:190|476:225,1,72,2|8,0:0|0:0,0:0:0:0:
371,255,96657,2,0,P|343:192|371:128,1,144,2|0,0:0|0:0,0:0:0:0:
256,256,97172,2,0,P|259:291|256:327,1,72,10|0,0:0|0:0,0:0:0:0:
144,264,97515,6,0,B|145:241|137:229|137:229|145:221|145:193,1,72,10|0,0:0|0:0,0:0:0:0:
235,66,97858,2,0,B|235:93|243:101|243:101|235:113|236:136,1,72,10|0,0:0|0:0,0:0:0:0:
51,205,98200,2,0,B|52:172|36:136|36:136|52:100|52:66,1,144,10|8,0:0|0:0,0:0:0:0:
235,66,98714,5,2,0:0:0:0:
235,66,98886,2,0,B|274:48|318:60|302:68|342:80|375:66,1,144,8|8,0:0|0:0,0:0:0:0:
448,152,99400,2,0,B|415:138|375:150|391:158|347:170|308:152,1,144,2|0,0:0|0:0,0:0:0:0:
208,192,99915,1,10,0:0:0:0:
208,192,100086,1,2,0:0:0:0:
284,317,100257,6,0,B|284:290|276:282|276:282|284:270|283:247,1,72,10|0,0:0|0:0,0:0:0:0:
375,119,100600,2,0,B|374:142|382:154|382:154|374:162|374:188,1,72,10|0,0:0|0:0,0:0:0:0:
459,317,100943,2,0,P|493:255|487:185,1,144,10|8,0:0|0:0,0:0:0:0:
360,324,101457,6,0,L|342:324,4,18,0|0|0|0|0,3:0|3:0|3:0|3:0|3:0,3:0:0:0:
252,340,101800,2,0,L|236:331,4,18,0|0|0|0|0,3:0|3:0|3:0|3:0|3:0,3:0:0:0:
150,299,102143,2,0,L|141:283,4,18,0|0|0|0|0,3:0|3:0|3:0|3:0|3:0,3:0:0:0:
82,212,102486,2,0,L|82:194,4,18,0|0|0|0|0,3:0|3:0|3:0|3:0|3:0,3:0:0:0:
66,102,102829,2,0,L|75:86,4,18,0|0|0|0|0,3:0|3:0|3:0|3:0|3:0,3:0:0:0:
256,0,103343,1,4,3:0:0:0:
256,0,103686,1,4,3:0:0:0:
288,192,104029,2,0,L|316:192,6,18,0|0|0|0|0|0|0,3:0|3:0|3:0|3:0|3:0|3:0|3:0,3:0:0:0:
256,192,104372,5,4,1:0:0:0:
256,192,105743,1,2,0:0:0:0:
256,192,107115,12,2,109515,0:0:0:0:
256,68,109857,5,2,3:0:0:0:
256,192,110115,1,2,3:0:0:0:
256,192,110200,1,8,0:0:0:0:
236,268,110372,1,2,3:0:0:0:
156,268,110543,1,8,0:0:0:0:
132,192,110715,1,2,3:0:0:0:
192,140,110886,1,2,3:0:0:0:
192,140,110972,1,2,3:0:0:0:
256,316,111229,5,2,3:0:0:0:
256,192,111487,1,2,3:0:0:0:
256,192,111572,1,8,0:0:0:0:
276,116,111744,1,2,3:0:0:0:
355,116,111915,1,8,0:0:0:0:
380,192,112087,1,2,3:0:0:0:
320,244,112258,1,2,3:0:0:0:
320,244,112344,1,2,3:0:0:0:
180,192,112515,5,2,3:0:0:0:
180,192,112600,2,0,L|153:145,1,53.9999983520508,8|2,0:0|3:0,0:0:0:0:
156,124,112857,1,2,3:0:0:0:
167,106,112943,1,8,0:0:0:0:
177,89,113029,1,2,3:0:0:0:
187,72,113115,1,2,3:0:0:0:
256,28,113286,1,8,0:0:0:0:
256,28,113372,1,2,3:0:0:0:
256,28,113457,1,2,3:0:0:0:
325,72,113629,5,2,3:0:0:0:
325,72,113715,2,0,L|352:118,1,53.9999983520508,2|2,3:0|3:0,0:0:0:0:
352,144,113972,1,2,3:0:0:0:
340,164,114057,1,2,3:0:0:0:
328,184,114143,1,2,3:0:0:0:
316,204,114229,1,2,3:0:0:0:
300,224,114315,2,0,L|336:224,3,36,2|2|2|2,3:0|3:0|3:0|3:0,0:0:0:0:
256,304,114657,2,0,L|220:304,3,36,2|2|2|2,3:0|3:0|3:0|3:0,0:0:0:0:
180,224,115000,1,10,3:0:0:0:
146,224,115085,1,10,3:0:0:0:
110,224,115171,1,10,3:0:0:0:
74,224,115257,1,10,3:0:0:0:
38,224,115343,5,4,1:0:0:0:
169,119,115515,1,2,0:0:0:0:
169,119,115686,2,0,B|177:75|177:75|169:29,1,90,8|2,1:0|0:0,0:0:0:0:
343,31,116029,2,0,B|336:76|336:76|344:120,1,90,2|0,1:2|0:0,0:0:0:0:
256,220,116372,1,8,1:0:0:0:
328,336,116543,5,2,0:0:0:0:
328,336,116714,2,0,P|372:338|403:369,1,90,2|0,1:2|0:0,0:0:0:0:
184,336,117057,2,0,P|140:338|109:369,1,90,8|0,1:0|0:0,0:0:0:0:
188,192,117400,5,2,1:2:0:0:
98,93,117571,1,2,0:0:0:0:
256,24,117743,2,0,B|256:64|256:64|212:89,1,90,8|0,1:0|0:0,0:0:0:0:
324,192,118086,5,2,1:2:0:0:
408,296,118257,2,0,B|397:315|397:338|397:338|377:349|365:370,1,90,2|8,0:0|1:0,0:0:0:0:
324,192,118600,1,2,0:0:0:0:
408,88,118772,2,0,B|397:68|397:45|397:45|377:34|365:13,1,90,2|0,1:2|0:0,0:0:0:0:
492,192,119114,1,8,1:0:0:0:
324,192,119286,5,2,0:0:0:0:
208,123,119457,2,0,B|216:103|241:89|230:100|259:82|270:60,1,90,2|0,1:2|0:0,0:0:0:0:
208,260,119800,2,0,B|216:279|241:293|230:282|258:299|270:322,1,90,8|0,1:0|0:0,0:0:0:0:
92,192,120143,2,0,P|40:192|40:84,1,180,2|8,1:2|1:0,0:0:0:0:
296,148,120829,5,2,1:2:0:0:
366,355,121000,1,2,0:0:0:0:
366,355,121172,2,0,P|372:310|366:266,1,90,8|2,1:0|0:0,0:0:0:0:
496,132,121515,2,0,P|489:176|495:220,1,90,2|0,1:2|0:0,0:0:0:0:
296,148,121857,1,8,1:0:0:0:
168,192,122029,5,2,0:0:0:0:
44,72,122200,2,0,B|89:102|89:102|89:138,1,90,2|0,1:2|0:0,0:0:0:0:
88,312,122543,2,0,B|44:283|44:283|44:245,1,90,8|0,1:0|0:0,0:0:0:0:
324,192,122886,5,2,1:2:0:0:
414,291,123057,1,2,0:0:0:0:
256,360,123229,2,0,B|256:320|256:320|299:294,1,90,8|0,1:0|0:0,0:0:0:0:
156,336,123572,5,2,1:2:0:0:
32,284,123743,2,0,B|32:246|32:246|36:230|36:230|36:194,1,90,2|8,0:0|1:0,0:0:0:0:
156,336,124086,1,2,0:0:0:0:
160,104,124257,2,0,B|160:140|160:140|156:156|156:156|156:193,1,90,2|0,1:2|0:0,0:0:0:0:
256,244,124600,1,8,1:0:0:0:
256,108,124772,5,2,0:0:0:0:
480,192,124943,2,0,P|492:234|480:277,1,90,2|0,1:2|0:0,0:0:0:0:
416,108,125286,2,0,P|403:65|415:22,1,90,8|0,1:0|0:0,0:0:0:0:
416,236,125629,2,0,B|368:256|328:244|328:224|272:212|236:236,1,180,2|8,1:2|1:0,0:0:0:0:
52,192,126229,5,0,1:0:0:0:
52,192,126314,2,0,B|52:160|52:160|56:140|56:140|56:96,1,90,2|2,1:2|1:2,0:0:0:0:
208,12,126657,2,0,B|208:44|208:44|204:68|204:68|204:104,1,90,8|2,1:0|1:2,0:0:0:0:
244,107,126914,1,0,1:0:0:0:
244,107,127000,2,0,B|252:151|252:151|244:195,1,90,2|2,1:2|1:2,0:0:0:0:
148,292,127343,1,8,1:0:0:0:
332,304,127514,5,2,1:2:0:0:
192,360,127686,2,0,P|149:373|107:358,1,90,2|2,1:2|1:2,0:0:0:0:
77,232,128029,1,8,1:0:0:0:
112,220,128114,1,0,1:0:0:0:
148,216,128200,1,2,1:2:0:0:
184,220,128286,1,0,1:0:0:0:
216,232,128372,1,2,1:2:0:0:
332,304,128543,1,2,1:2:0:0:
490,176,128715,2,0,P|448:192|404:192,1,90,8|2,1:0|1:2,0:0:0:0:
332,80,129057,5,2,1:2:0:0:
200,44,129229,2,0,B|179:85|179:85|199:125,1,90,2|8,1:2|1:0,0:0:0:0:
63,233,129572,1,2,1:2:0:0:
63,233,129657,1,0,1:0:0:0:
63,233,129743,2,0,B|84:192|84:192|64:152,1,90,2|2,1:2|1:2,0:0:0:0:
200,44,130086,1,8,1:0:0:0:
256,192,130257,5,2,1:2:0:0:
96,308,130429,2,0,L|186:308,1,90,2|2,1:2|1:2,0:0:0:0:
326,308,130773,1,8,1:0:0:0:
356,308,130858,1,0,1:0:0:0:
388,308,130944,1,2,1:2:0:0:
420,308,131030,1,0,1:0:0:0:
452,308,131115,2,0,B|488:308|488:308|400:192,1,180,2|8,1:2|1:0,0:0:0:0:
132,192,131800,5,2,1:2:0:0:
332,80,131972,1,2,1:2:0:0:
180,80,132144,1,8,1:0:0:0:
148,80,132229,1,0,1:0:0:0:
116,80,132315,1,2,1:2:0:0:
84,80,132401,1,0,1:0:0:0:
52,80,132487,2,0,B|15:124|28:168|28:168|-7:205|7:246,1,180,2|8,1:2|1:0,0:0:0:0:
186,308,133000,5,2,1:2:0:0:
316,352,133172,2,0,B|316:320|328:308|328:308|316:296|316:267,1,90,2|2,1:2|1:2,0:0:0:0:
452,128,133515,1,8,1:0:0:0:
460,160,133600,1,0,1:0:0:0:
464,192,133686,1,2,1:2:0:0:
460,224,133772,1,0,1:0:0:0:
452,252,133857,1,2,1:2:0:0:
316,352,134029,1,2,1:2:0:0:
186,308,134200,2,0,B|186:276|174:264|174:264|186:252|186:223,1,90,8|2,1:0|1:2,0:0:0:0:
256,108,134543,5,2,1:2:0:0:
447,4,134715,2,0,P|418:39|384:68,1,90,2|8,1:2|1:0,0:0:0:0:
447,211,135058,1,2,1:2:0:0:
447,211,135143,1,0,1:0:0:0:
447,211,135229,2,0,P|418:176|383:147,1,90,2|2,1:2|1:2,0:0:0:0:
256,108,135572,1,8,1:0:0:0:
152,192,135743,5,2,1:2:0:0:
152,192,135915,2,0,B|160:216|152:228|152:228|144:240|152:264,1,72,2|2,1:2|1:2,0:0:0:0:
256,356,136257,5,2,3:0:0:0:
256,356,136343,1,2,3:0:0:0:
256,356,136429,1,6,3:0:0:0:
256,356,136514,1,2,3:0:0:0:
256,356,136600,1,2,3:0:0:0:
328,276,136772,1,6,3:0:0:0:
328,276,136943,1,6,3:0:0:0:
256,196,137115,1,6,3:0:0:0:
256,172,137201,1,6,3:0:0:0:
256,148,137286,5,10,3:0:0:0:
484,116,138657,5,4,1:0:0:0:
484,116,139000,1,4,3:0:0:0:
356,116,139172,1,2,3:0:0:0:
420,228,139343,2,0,P|416:296|340:316,1,144,4|4,3:0|3:0,0:0:0:0:
256,236,139857,5,2,3:0:0:0:
160,320,140029,1,4,3:0:0:0:
28,116,140372,1,4,3:0:0:0:
256,236,140715,1,4,3:0:0:0:
256,116,140885,1,2,3:0:0:0:
256,116,140972,1,2,3:0:0:0:
256,116,141057,2,0,B|256:40,1,72,4|0,3:0|0:0,0:0:0:0:
28,116,141400,5,4,3:0:0:0:
28,116,141743,1,4,3:0:0:0:
156,116,141914,1,2,3:0:0:0:
92,228,142086,2,0,P|96:296|172:316,1,144,4|4,3:0|3:0,0:0:0:0:
256,236,142600,5,2,3:0:0:0:
353,319,142772,1,4,3:0:0:0:
353,319,142943,1,2,3:0:0:0:
443,156,143115,2,0,P|448:192|444:228,1,72,4|0,3:0|0:0,0:0:0:0:
348,88,143457,2,0,P|344:52|349:16,1,72,4|0,3:0|0:0,0:0:0:0:
256,92,143800,1,4,3:0:0:0:
172,192,143971,1,2,3:0:0:0:
101,45,144143,6,0,B|125:45|125:45|172:92,1,90,4|2,1:0|3:0,0:0:0:0:
101,238,144486,2,0,B|125:238|125:238|171:191,1,90,8|2,1:0|3:0,0:0:0:0:
216,188,144743,1,2,3:0:0:0:
216,188,144829,2,0,B|240:188|240:188|286:234,2,90,6|2|8,3:0|3:0|1:0,0:0:0:0:
60,140,145342,5,2,3:0:0:0:
104,320,145515,2,0,B|137:320|137:320|161:324|161:324|193:324,1,90,6|2,3:0|3:0,0:0:0:0:
408,320,145857,1,8,1:0:0:0:
408,320,145943,1,2,3:0:0:0:
408,320,146028,1,2,3:0:0:0:
408,320,146114,1,2,3:0:0:0:
408,320,146200,2,0,B|376:320|376:320|352:324|352:324|316:324,1,90,6|2,3:0|3:0,0:0:0:0:
124,224,146542,1,8,1:0:0:0:
124,224,146714,1,2,3:0:0:0:
256,192,146886,5,12,3:0:0:0:
256,192,146971,12,4,147914,3:0:0:0:
496,196,148257,5,8,1:0:0:0:
496,196,148429,1,8,1:0:0:0:
436,116,148600,1,8,1:0:0:0:
436,116,148772,1,8,1:0:0:0:
496,36,148944,1,8,1:0:0:0:
328,36,149115,5,2,3:0:0:0:
316,36,149200,1,2,3:0:0:0:
304,36,149286,1,10,3:0:0:0:
292,36,149372,1,2,3:0:0:0:
280,36,149457,1,2,3:0:0:0:
268,36,149543,1,2,3:0:0:0:
256,36,149629,5,4,1:0:0:0:
200,244,149972,1,4,3:0:0:0:
108,192,150143,1,2,3:0:0:0:
108,300,150315,2,0,P|128:344|220:352,1,144,4|4,3:0|3:0,0:0:0:0:
200,244,150829,1,2,3:0:0:0:
200,64,151000,2,0,L|200:136,1,72,4|0,3:0|0:0,0:0:0:0:
308,136,151343,2,0,L|308:64,1,72,4|0,3:0|0:0,0:0:0:0:
256,192,151686,1,4,3:0:0:0:
128,136,151856,1,2,3:0:0:0:
128,136,151943,1,2,3:0:0:0:
128,136,152028,2,0,B|128:60,1,72,4|0,3:0|0:0,0:0:0:0:
256,36,152372,5,4,3:0:0:0:
312,244,152715,1,4,3:0:0:0:
404,192,152886,1,2,3:0:0:0:
404,300,153058,2,0,P|384:344|292:352,1,144,4|4,3:0|3:0,0:0:0:0:
312,244,153572,1,2,3:0:0:0:
216,291,153743,2,0,P|181:300|147:290,1,72,4|0,3:0|0:0,0:0:0:0:
35,190,154086,2,0,P|69:181|104:192,1,72,4|0,3:0|0:0,0:0:0:0:
216,291,154429,1,4,3:0:0:0:
216,76,154772,5,4,3:0:0:0:
216,76,154943,1,2,3:0:0:0:
108,76,155115,1,4,3:0:0:0:
108,76,155457,2,0,L|57:25,1,72,4|0,3:0|0:0,0:0:0:0:
108,160,155800,2,0,L|57:210,2,72,4|2|4,3:0|3:0|3:0,0:0:0:0:
256,160,156315,1,2,3:0:0:0:
332,236,156486,5,12,3:0:0:0:
256,192,156572,12,2,158886,0:0:0:0:
260,368,159229,5,8,3:0:0:0:
260,368,159400,1,8,3:0:0:0:
348,368,159572,1,8,3:0:0:0:
348,368,159743,1,8,3:0:0:0:
436,364,159915,1,8,3:0:0:0:
504,312,160086,5,2,3:0:0:0:
504,304,160172,1,2,3:0:0:0:
504,296,160257,1,10,3:0:0:0:
504,288,160343,1,2,3:0:0:0:
504,280,160429,1,2,3:0:0:0:
504,272,160515,1,2,3:0:0:0:
504,264,160600,5,4,1:0:0:0:
