osu file format v14

[General]
AudioFilename: audio.mp3
AudioLeadIn: 0
PreviewTime: 115000
Countdown: 0
SampleSet: Soft
StackLeniency: 0.4
Mode: 0
LetterboxInBreaks: 0
SkinPreference:Default
WidescreenStoryboard: 0

[Editor]
Bookmarks: 7000,12486,17972,31686,85172,96143,104372,109857
DistanceSpacing: 0.6
BeatDivisor: 4
GridSize: 4
TimelineZoom: 1.900006

[Metadata]
Title:Because The Night (Nightcore Mix)
TitleUnicode:Because The Night (Nightcore Mix)
Artist:Cascada
ArtistUnicode:Cascada
Creator:StripedGoose
Version:KPOBYIIIKA's Insane
Source:
Tags:kpobyiiika english edm electronic dance music pop back on the dancefloor perfect day techno remix eurodance speed sped up trance house
BeatmapID:3743373
BeatmapSetID:1824313

[Difficulty]
HPDrainRate:5.5
CircleSize:3.5
OverallDifficulty:8.5
ApproachRate:8.5
SliderMultiplier:1.6
SliderTickRate:2

[Events]
//Background and Video events
0,0,"BG.jpg",0,0
//Break Periods
2,55200,59811
2,79886,84497
//Storyboard Layer 0 (Background)
//Storyboard Layer 1 (Fail)
//Storyboard Layer 2 (Pass)
//Storyboard Layer 3 (Foreground)
//Storyboard Layer 4 (Overlay)
//Storyboard Sound Samples

[TimingPoints]
1515,342.857142857143,4,2,1,50,1,0
1515,-200,4,2,1,50,0,0
7000,-142.857142857143,4,2,1,60,0,0
13257,-142.857142857143,4,2,1,5,0,0
13343,-142.857142857143,4,2,1,60,0,0
17972,-125,4,2,1,60,0,0
31686,-100,4,2,1,70,0,0
33315,-100,4,2,1,5,0,0
33400,-100,4,2,1,70,0,0
36057,-100,4,2,1,5,0,0
36143,-100,4,2,1,70,0,0
38800,-100,4,2,1,5,0,0
38886,-100,4,2,1,70,0,0
41543,-100,4,2,1,5,0,0
41629,-100,4,2,1,70,0,0
42657,-100,4,2,1,70,0,1
44286,-100,4,2,1,5,0,1
44372,-100,4,2,1,70,0,1
47029,-100,4,2,1,5,0,1
47115,-100,4,2,1,70,0,1
49772,-100,4,2,1,5,0,1
49857,-100,4,2,1,70,0,1
52257,-125,4,2,1,70,0,0
52515,-125,4,2,1,5,0,0
52600,-125,4,2,1,50,0,0
53629,-200,4,2,1,50,0,0
55000,-166.666666666667,4,2,1,60,0,0
65972,-100,4,2,1,60,0,0
71457,-100,4,2,1,70,0,1
74200,-125,4,2,1,50,0,0
76943,-200,4,2,1,60,0,0
79686,-200,4,2,1,40,0,0
85172,-142.857142857143,4,2,1,60,0,0
96143,-125,4,2,1,60,0,0
103600,-125,4,2,1,5,0,0
103686,-125,4,2,1,60,0,0
104372,-200,4,2,1,50,0,0
107800,-200,4,2,1,45,0,0
108143,-200,4,2,1,40,0,0
108486,-200,4,2,1,35,0,0
108829,-200,4,2,1,30,0,0
109172,-200,4,2,1,25,0,0
109515,-200,4,2,1,20,0,0
109857,-166.666666666667,4,2,1,60,0,0
114143,-125,4,2,1,60,0,0
115343,-100,4,2,1,70,0,0
116972,-100,4,2,1,5,0,0
117057,-100,4,2,1,70,0,0
119715,-100,4,2,1,5,0,0
119800,-100,4,2,1,70,0,0
122457,-100,4,2,1,5,0,0
122543,-100,4,2,1,70,0,0
125200,-100,4,2,1,5,0,0
125286,-100,4,2,1,70,0,0
126315,-100,4,2,1,70,0,1
127943,-100,4,2,1,5,0,1
128029,-100,4,2,1,70,0,1
130686,-100,4,2,1,5,0,1
130772,-100,4,2,1,70,0,1
133429,-100,4,2,1,5,0,1
133515,-100,4,2,1,70,0,1
135915,-125,4,2,1,70,0,0
136172,-125,4,2,1,5,0,0
136257,-125,4,2,1,50,0,0
137286,-200,4,2,1,50,0,0
138572,-200,4,2,1,5,0,0
138657,-100,4,2,1,70,0,0
144143,-99.9999999999999,4,2,1,70,0,1
146886,-125,4,2,1,60,0,0
148257,-125,4,2,1,50,0,0
149629,-125,4,2,1,60,0,0
156486,-166.666666666667,4,2,1,50,0,0
157172,-166.666666666667,4,2,1,45,0,0
157857,-250,4,2,1,40,0,0
158543,-250,4,2,1,35,0,0
159229,-125,4,2,1,60,0,0
160686,-125,4,2,1,5,0,0

[Colours]
Combo1 : 83,253,236
Combo2 : 123,204,253
Combo3 : 224,73,213
Combo4 : 156,89,217
SliderBorder : 255,255,255

[HitObjects]
127,87,7000,5,2,0:0:0:0:
127,87,7172,2,0,P|155:82|201:86,1,55.9999982910157,2|0,0:0|0:0,0:0:0:0:
252,147,7515,2,0,P|268:83|256:17,1,111.999996582031,2|0,0:0|0:0,0:0:0:0:
160,187,8029,5,2,0:0:0:0:
230,250,8200,1,2,0:0:0:0:
143,291,8372,2,0,B|109:301|109:301|65:300,1,55.9999982910157,2|0,0:0|0:0,0:0:0:0:
12,230,8715,2,0,B|0:194|0:194|1:149,1,55.9999982910157,2|0,0:0|0:0,0:0:0:0:
46,88,9057,2,0,B|100:72|100:72|164:77,1,111.999996582031,2|0,0:0|0:0,0:0:0:0:
367,94,9743,5,2,0:0:0:0:
367,94,9915,2,0,P|365:66|358:39,1,55.9999982910157,2|0,0:0|0:0,0:0:0:0:
467,62,10257,2,0,P|466:117|448:170,1,111.999996582031,2|0,0:0|0:0,0:0:0:0:
358,216,10772,5,2,0:0:0:0:
437,268,10943,1,0,0:0:0:0:
353,314,11115,2,0,B|330:338|330:338|306:354,1,55.9999982910157,2|2,0:0|0:0,0:0:0:0:
358,216,11457,1,2,0:0:0:0:
358,216,11629,2,0,B|300:228|300:228|264:206|264:206|190:219,1,167.999994873047,2|0,0:0|0:0,0:0:0:0:
109,243,12315,5,2,0:0:0:0:
109,243,12486,2,0,P|108:213|116:181,1,55.9999982910157,10|0,0:0|0:0,0:0:0:0:
192,81,12829,1,8,0:0:0:0:
192,81,13000,2,0,P|200:120|201:164,1,83.9999974365235,2|0,0:0|0:0,0:0:0:0:
198,217,13343,2,0,L|248:260,1,55.9999982910157,2|10,0:0|0:0,0:0:0:0:
309,312,13686,5,2,0:0:0:0:
309,312,13857,1,10,0:0:0:0:
402,290,14029,1,0,0:0:0:0:
373,380,14200,1,10,0:0:0:0:
465,355,14372,1,0,0:0:0:0:
494,265,14543,2,0,B|507:210|507:210|453:151,1,111.999996582031,10|8,0:0|0:0,0:0:0:0:
326,28,15229,5,10,0:0:0:0:
233,5,15400,1,2,0:0:0:0:
150,52,15572,1,10,0:0:0:0:
115,140,15743,2,0,L|65:189,1,55.9999982910157,2|8,0:0|0:0,0:0:0:0:
112,266,16086,2,0,L|151:226,1,55.9999982910157,2|8,0:0|0:0,0:0:0:0:
244,267,16429,5,2,0:0:0:0:
329,224,16600,1,10,0:0:0:0:
340,129,16772,1,2,0:0:0:0:
275,64,16943,2,0,B|220:38|220:38|152:32,1,111.999996582031,10|8,0:0|0:0,0:0:0:0:
101,124,17457,5,8,3:1:0:0:
48,24,17629,1,8,3:1:0:0:
256,200,17972,5,4,3:0:0:0:
256,200,18144,2,0,P|230:182|204:146,1,64,2|8,0:0|0:0,0:0:0:0:
194,42,18487,2,0,P|138:74|99:131,1,128,4|2,3:0|3:0,0:0:0:0:
297,98,19000,5,10,0:0:0:0:
328,0,19172,1,0,0:0:0:0:
403,67,19343,2,0,B|437:80|437:80|479:117,1,64,4|0,3:0|0:0,0:0:0:0:
482,211,19686,2,0,B|459:247|459:247|424:275,1,64,10|4,0:0|3:0,0:0:0:0:
339,301,20029,2,0,B|281:271|281:271|237:219,1,128,2|8,0:0|0:0,0:0:0:0:
170,131,20543,5,2,0:0:0:0:
245,43,20715,1,4,3:0:0:0:
294,146,20886,2,0,L|331:68,1,64,0|8,0:0|0:0,0:0:0:0:
432,56,21229,2,0,L|374:181,1,128,4|2,3:0|3:0,0:0:0:0:
323,274,21743,5,10,0:0:0:0:
431,313,21915,1,2,0:0:0:0:
317,370,22086,2,0,B|284:383|284:383|230:385,1,64,4|0,3:0|0:0,0:0:0:0:
187,303,22429,2,0,B|173:263|173:263|172:213,1,64,10|4,0:0|3:0,0:0:0:0:
172,148,22772,2,0,B|108:147|108:147|38:169,1,128,2|8,0:0|0:0,0:0:0:0:
273,221,23457,5,4,3:0:0:0:
273,221,23629,2,0,P|303:204|332:165,1,64,2|8,0:0|0:0,0:0:0:0:
277,78,23972,2,0,P|229:99|162:163,1,128,4|2,3:0|3:0,0:0:0:0:
317,292,24657,5,2,0:0:0:0:
317,292,24829,2,0,B|356:301|356:301|404:288,1,64,4|0,3:0|0:0,0:0:0:0:
484,255,25172,2,0,B|493:199|493:199|478:151,1,96,10|0,0:0|0:0,0:0:0:0:
436,95,25515,1,2,0:0:0:0:
436,95,25686,1,4,3:0:0:0:
256,192,26029,5,2,0:0:0:0:
174,123,26200,1,4,3:0:0:0:
174,123,26372,2,0,P|142:133|110:132,1,64,2|8,0:0|0:0,0:0:0:0:
40,46,26715,1,4,3:0:0:0:
151,0,26886,2,0,P|174:61|168:148,1,128,2|8,0:0|0:0,0:0:0:0:
338,123,27572,5,4,3:0:0:0:
338,123,27744,2,0,P|370:133|402:132,1,64,2|8,0:0|0:0,0:0:0:0:
472,46,28087,1,4,3:0:0:0:
361,0,28258,2,0,P|338:61|344:148,1,128,2|8,0:0|0:0,0:0:0:0:
184,192,28943,5,4,3:0:0:0:
184,192,29115,2,0,L|120:192,1,64,2|8,0:0|0:0,0:0:0:0:
38,192,29457,1,4,3:0:0:0:
84,284,29629,5,2,3:0:0:0:
184,364,29800,1,2,3:0:0:0:
284,284,29972,5,8,0:0:0:0:
184,364,30143,1,2,3:0:0:0:
184,224,30315,6,0,L|184:193,3,32,2|2|2|2,3:0|3:0|3:0|3:0,0:0:0:0:
120,116,30657,2,0,L|88:116,3,32,2|2|2|2,3:0|3:0|3:0|3:0,0:0:0:0:
233,95,31000,5,2,3:0:0:0:
239,113,31086,1,2,3:0:0:0:
246,132,31172,1,2,3:0:0:0:
253,151,31258,1,2,3:0:0:0:
260,170,31343,1,10,3:0:0:0:
267,188,31429,1,10,3:0:0:0:
274,207,31515,1,10,3:0:0:0:
280,226,31601,1,10,3:0:0:0:
287,245,31686,5,4,1:0:0:0:
370,381,31857,2,0,L|433:311,1,80,2|8,0:0|1:0,0:0:0:0:
287,245,32200,1,2,0:0:0:0:
366,108,32371,2,0,L|425:161,2,80,2|0|8,1:2|0:0|1:0,0:0:0:0:
450,245,32886,5,2,0:0:0:0:
287,245,33057,2,0,B|243:287|243:287|174:286,1,120,2|0,1:2|0:0,0:0:0:0:
106,266,33400,2,0,B|70:237|70:237|76:175,1,80,8|0,1:0|0:0,0:0:0:0:
87,86,33743,1,2,1:2:0:0:
200,199,33915,1,2,0:0:0:0:
198,43,34086,2,0,P|241:32|295:30,1,80,8|0,1:0|0:0,0:0:0:0:
335,180,34429,5,2,1:2:0:0:
385,28,34600,2,0,L|449:98,1,80,2|8,0:0|1:0,0:0:0:0:
335,180,34943,1,2,0:0:0:0:
487,230,35115,2,0,L|417:294,2,80,2|0|8,1:2|0:0|1:0,0:0:0:0:
335,180,35629,5,2,0:0:0:0:
253,316,35800,2,0,B|197:286|197:286|159:210,1,120,2|0,1:2|0:0,0:0:0:0:
121,172,36143,2,0,B|79:151|79:151|28:167,1,80,8|0,1:0|0:0,0:0:0:0:
1,314,36486,2,0,L|51:248,1,80,0|0,1:2|0:0,0:0:0:0:
149,375,36829,2,0,L|100:311,1,80,8|0,1:0|0:0,0:0:0:0:
253,316,37172,5,2,1:2:0:0:
196,165,37343,2,0,L|180:81,1,80,2|8,0:0|1:0,0:0:0:0:
253,316,37686,1,2,0:0:0:0:
311,167,37857,2,0,L|327:83,2,80,2|0|8,1:2|0:0|1:0,0:0:0:0:
253,316,38372,5,2,0:0:0:0:
399,251,38543,2,0,B|460:242|460:242|486:186,1,120,2|0,1:2|0:0,0:0:0:0:
504,111,38886,2,0,B|505:61|505:61|451:39,1,80,8|0,1:0|0:0,0:0:0:0:
361,21,39229,1,2,1:2:0:0:
403,174,39400,1,2,0:0:0:0:
286,64,39572,2,0,P|245:65|206:74,1,80,8|0,1:0|0:0,0:0:0:0:
273,216,39915,5,2,1:2:0:0:
133,137,40086,2,0,L|79:229,1,80,2|8,0:0|1:0,0:0:0:0:
273,216,40429,1,2,0:0:0:0:
177,343,40600,2,0,L|269:397,2,80,2|2|8,1:2|0:0|1:0,0:0:0:0:
273,216,41115,5,2,0:0:0:0:
398,314,41286,2,0,B|440:266|440:266|446:201,1,120,2|0,1:2|0:0,0:0:0:0:
365,202,41629,2,2,B|331:169|331:169|318:104,1,80,8|0,1:0|0:0,0:0:0:0:
322,15,41972,2,0,L|246:52,1,80,2|0,1:2|0:0,0:0:0:0:
416,92,42315,2,0,L|482:145,1,80,8|0,1:0|0:0,0:0:0:0:
324,137,42657,5,4,1:0:0:0:
175,78,42829,2,0,P|176:116|189:156,1,80,2|8,1:2|1:0,0:0:0:0:
276,259,43171,1,2,1:2:0:0:
276,259,43257,1,0,1:0:0:0:
276,259,43342,2,0,L|292:343,2,80,2|2|8,1:2|1:2|1:0,0:0:0:0:
188,155,43857,5,2,1:2:0:0:
116,261,44029,2,0,L|74:148,1,120,2|0,1:2|0:0,0:0:0:0:
0,208,44372,2,0,L|28:285,1,80,8|2,1:0|1:2,0:0:0:0:
129,347,44714,6,0,L|178:358,1,40,2|0,1:2|0:0,0:0:0:0:
191,277,44886,2,0,L|230:268,1,40,2|0,1:2|0:0,0:0:0:0:
247,346,45057,2,0,L|344:333,1,80,8|2,1:0|1:2,0:0:0:0:
297,177,45400,5,2,1:2:0:0:
409,289,45571,2,0,L|389:202,1,80,2|8,1:2|1:0,0:0:0:0:
411,58,45914,1,2,1:2:0:0:
411,58,46000,1,0,1:0:0:0:
411,58,46086,2,0,L|393:136,2,80,2|2|8,1:2|1:2|1:0,0:0:0:0:
297,177,46600,5,2,1:2:0:0:
241,326,46771,2,0,L|217:206,1,120,2|0,1:2|0:0,0:0:0:0:
135,251,47115,2,0,L|151:334,1,80,8|2,1:0|1:2,0:0:0:0:
67,177,47457,2,0,P|32:203|-1:219,1,80,2|2,1:2|1:2,0:0:0:0:
80,69,47800,2,0,P|115:43|148:27,1,80,8|2,1:0|1:2,0:0:0:0:
225,167,48143,5,2,1:2:0:0:
319,38,48314,2,0,L|335:122,1,80,2|8,1:2|1:0,0:0:0:0:
315,282,48657,1,2,1:2:0:0:
315,282,48743,1,0,1:0:0:0:
315,282,48829,2,0,L|329:203,2,80,2|2|8,1:2|1:2|1:0,0:0:0:0:
225,167,49343,5,2,1:2:0:0:
83,241,49514,2,0,L|124:353,1,120,2|0,1:2|0:0,0:0:0:0:
215,366,49857,2,0,L|186:287,1,80,8|2,1:0|1:2,0:0:0:0:
225,168,50200,6,0,L|274:179,1,40,2|0,1:2|0:0,0:0:0:0:
262,257,50372,2,0,L|311:246,1,40,2|0,1:2|0:0,0:0:0:0:
353,187,50543,2,0,L|450:174,1,80,8|2,1:0|1:2,0:0:0:0:
307,74,50886,5,2,1:2:0:0:
162,7,51057,2,0,P|122:11|83:24,1,80,2|8,1:2|1:0,0:0:0:0:
154,178,51400,1,2,1:2:0:0:
154,178,51486,1,0,1:0:0:0:
154,178,51572,2,0,L|99:248,2,80,2|2|8,1:2|1:2|1:0,0:0:0:0:
84,23,52086,5,2,1:2:0:0:
212,88,52257,2,0,L|326:71,1,96,2|0,1:2|0:0,0:0:0:0:
384,83,52600,6,0,P|379:102|371:122,1,32,2|2,3:0|3:0,0:0:0:0:
305,191,52772,5,2,1:2:0:0:
305,191,52857,1,2,3:0:0:0:
305,191,52943,2,0,L|349:231,1,32,2|2,3:0|3:0,0:0:0:0:
429,248,53115,5,2,1:2:0:0:
429,248,53200,1,2,3:0:0:0:
429,248,53286,2,0,L|407:271,1,32,2|2,3:0|3:0,0:0:0:0:
318,307,53457,5,2,1:2:0:0:
424,378,53629,1,6,3:0:0:0:
256,192,53715,12,6,55000,3:0:0:0:
256,192,60486,12,4,64257,3:0:0:0:
62,228,64429,5,2,3:0:0:0:
72,212,64515,1,2,3:0:0:0:
83,196,64601,1,8,1:0:0:0:
142,112,64772,1,8,1:0:0:0:
186,227,64943,1,8,1:0:0:0:
255,132,65115,1,8,1:0:0:0:
310,241,65286,1,8,1:0:0:0:
310,241,65629,5,8,1:0:0:0:
186,361,65800,1,8,1:0:0:0:
186,361,65972,1,4,1:0:0:0:
310,241,66315,5,4,3:0:0:0:
439,355,66486,1,2,3:0:0:0:
439,355,66657,2,0,B|424:262|501:303|490:209,1,160,4|4,3:0|3:0,0:0:0:0:
378,103,67172,5,2,3:0:0:0:
378,103,67343,2,0,P|330:88|273:100,1,80,6|0,3:0|0:0,0:0:0:0:
156,188,67686,2,0,P|204:203|261:191,1,80,4|0,3:0|0:0,0:0:0:0:
298,341,68029,1,6,3:0:0:0:
147,317,68200,1,2,3:0:0:0:
128,324,68286,1,2,3:0:0:0:
111,335,68372,2,0,B|68:346|68:346|-2:349,1,80,6|0,3:0|0:0,0:0:0:0:
234,201,68715,5,6,3:0:0:0:
116,13,69057,1,4,3:0:0:0:
78,173,69229,1,2,3:0:0:0:
78,173,69400,2,0,B|50:188|50:188|46:205|46:205|-4:235,2,80,4|2|4,3:0|3:0|3:0,0:0:0:0:
197,64,69915,1,2,3:0:0:0:
197,64,70086,1,6,3:0:0:0:
244,220,70258,5,2,3:0:0:0:
94,253,70429,1,4,3:0:0:0:
47,97,70600,1,2,3:0:0:0:
197,64,70772,2,0,B|242:65|242:65|278:46,1,80,4|0,3:0|0:0,0:0:0:0:
244,220,71115,5,6,3:0:0:0:
410,227,71286,1,2,3:0:0:0:
410,227,71457,2,0,B|457:211|457:211|506:219,1,80,4|2,1:0|3:0,0:0:0:0:
293,313,71800,5,8,1:0:0:0:
366,151,71972,1,2,3:0:0:0:
443,309,72143,2,0,B|467:339|467:339|493:346|493:346|520:376,2,80,6|2|8,3:0|3:0|1:0,0:0:0:0:
312,224,72657,5,2,3:0:0:0:
312,224,72829,2,0,P|269:204|234:153,1,80,6|2,3:0|3:0,0:0:0:0:
152,23,73172,2,0,P|199:45|226:91,1,80,8|2,1:0|3:0,0:0:0:0:
169,218,73515,5,6,3:0:0:0:
7,148,73686,1,2,3:0:0:0:
183,141,73857,5,8,1:0:0:0:
47,256,74029,1,2,3:0:0:0:
47,256,74200,6,0,P|103:290|181:313,1,128,12|4,3:0|3:0,0:0:0:0:
248,243,74715,1,2,3:0:0:0:
347,200,74886,2,0,P|337:136|314:77,1,128,2|0,3:0|3:0,0:0:0:0:
268,1,75400,1,2,0:0:0:0:
222,74,75572,5,2,3:0:0:0:
173,0,75743,1,2,3:0:0:0:
127,73,75915,1,2,3:0:0:0:
174,148,76086,1,2,3:0:0:0:
222,74,76257,1,2,3:0:0:0:
267,149,76429,1,2,3:0:0:0:
222,74,76600,1,2,3:0:0:0:
268,1,76772,1,2,3:0:0:0:
314,77,76943,5,4,1:0:0:0:
256,192,77029,12,2,79686,3:0:0:0:
366,243,85172,5,10,0:0:0:0:
366,243,85343,2,0,L|302:251,1,55.9999982910157,2|8,0:0|0:0,0:0:0:0:
297,344,85686,2,0,P|354:343|417:320,1,111.999996582031,2|0,0:0|0:0,0:0:0:0:
457,245,86200,1,10,0:0:0:0:
422,155,86372,1,2,0:0:0:0:
366,243,86543,5,10,0:0:0:0:
295,178,86715,1,2,0:0:0:0:
200,176,86886,1,10,0:0:0:0:
126,235,87057,2,0,P|55:195|40:113,1,167.999994873047,2|8,0:0|0:0,0:0:0:0:
200,176,87915,5,10,0:0:0:0:
200,176,88086,1,2,0:0:0:0:
261,96,88257,1,10,0:0:0:0:
261,96,88429,2,0,P|302:78|382:87,1,111.999996582031,2|0,0:0|0:0,0:0:0:0:
416,282,89115,5,2,0:0:0:0:
323,304,89286,1,10,0:0:0:0:
236,265,89457,1,0,0:0:0:0:
200,176,89629,2,0,P|152:118|57:112,1,167.999994873047,10|0,0:0|0:0,0:0:0:0:
151,346,90657,5,10,0:0:0:0:
151,346,90829,1,2,0:0:0:0:
198,265,91000,1,10,0:0:0:0:
198,265,91172,2,0,P|226:256|270:249,1,55.9999982910157,2|8,0:0|0:0,0:0:0:0:
306,329,91515,2,0,P|278:338|234:345,1,55.9999982910157,2|8,0:0|0:0,0:0:0:0:
346,242,91857,5,2,0:0:0:0:
395,160,92029,2,0,P|404:137|434:104,1,55.9999982910157,8|0,0:0|0:0,0:0:0:0:
476,27,92372,1,8,0:0:0:0:
374,41,92543,2,0,P|306:35|192:57,1,167.999994873047,2|8,0:0|0:0,0:0:0:0:
49,101,93400,5,10,0:0:0:0:
49,101,93572,1,2,0:0:0:0:
126,164,93743,1,10,0:0:0:0:
126,164,93915,2,0,P|136:202|128:287,1,111.999996582031,2|0,0:0|0:0,0:0:0:0:
212,324,94429,5,10,0:0:0:0:
305,340,94600,1,2,0:0:0:0:
392,301,94772,1,8,0:0:0:0:
441,219,94943,1,2,0:0:0:0:
435,123,95115,2,0,L|302:123,1,111.999996582031,10|8,0:0|0:0,0:0:0:0:
227,120,95629,5,8,3:1:0:0:
310,30,95800,1,8,3:1:0:0:
190,225,96143,5,10,0:0:0:0:
190,225,96315,2,0,P|164:207|138:171,1,64,2|8,0:0|0:0,0:0:0:0:
141,66,96658,2,0,P|85:98|46:155,1,128,2|0,0:0|0:0,0:0:0:0:
235,128,97172,5,10,0:0:0:0:
233,13,97343,1,2,0:0:0:0:
328,76,97514,2,0,B|368:86|368:86|405:118,1,64,10|0,0:0|0:0,0:0:0:0:
446,212,97857,2,0,B|433:248|433:248|398:283,1,64,10|0,0:0|0:0,0:0:0:0:
312,321,98200,2,0,B|256:286|256:286|217:230,1,128,10|8,0:0|0:0,0:0:0:0:
188,142,98714,5,2,0:0:0:0:
248,43,98886,1,8,0:0:0:0:
133,47,99057,2,0,L|105:104,1,64,2|8,0:0|0:0,0:0:0:0:
0,131,99400,2,0,L|53:14,1,128,2|0,0:0|0:0,0:0:0:0:
105,204,99914,5,10,0:0:0:0:
0,243,100086,1,2,0:0:0:0:
107,310,100257,2,0,B|144:322|144:322|190:325,1,64,10|0,0:0|0:0,0:0:0:0:
262,245,100600,2,0,B|275:207|275:207|277:162,1,64,10|0,0:0|0:0,0:0:0:0:
276,67,100943,2,0,B|342:69|342:69|410:97,1,128,10|8,0:0|0:0,0:0:0:0:
501,206,101629,5,8,0:0:0:0:
501,206,101800,2,0,P|489:240|456:274,1,64,2|8,3:0|0:0,0:0:0:0:
393,346,102143,2,0,L|291:268,1,128,2|0,3:0|0:0,0:0:0:0:
223,174,102657,5,8,0:0:0:0:
190,284,102829,1,2,3:0:0:0:
116,195,103000,2,0,L|83:278,1,64,8|2,0:0|3:0,0:0:0:0:
130,351,103343,2,0,L|228:387,1,96,4|0,3:0|0:0,0:0:0:0:
280,332,103686,2,0,L|323:207,1,128,4|8,3:0|0:0,0:0:0:0:
300,95,104372,5,4,1:0:0:0:
300,95,104543,2,0,L|356:87,1,40,2|0,0:0|0:0,0:0:0:0:
293,9,104886,1,2,0:0:0:0:
293,9,105057,2,0,L|163:29,1,120,2|0,0:0|0:0,0:0:0:0:
215,129,105743,5,2,3:0:0:0:
215,129,105915,2,0,L|220:168,1,40,2|0,0:0|0:0,0:0:0:0:
132,211,106257,1,2,0:0:0:0:
132,211,106429,2,0,L|112:81,1,120,2|0,0:0|0:0,0:0:0:0:
41,162,107115,5,2,3:0:0:0:
41,162,107286,2,0,L|1:167,1,40,2|0,0:0|0:0,0:0:0:0:
45,257,107629,1,2,0:0:0:0:
132,211,107800,5,2,0:0:0:0:
188,293,107972,1,2,0:0:0:0:
244,211,108143,5,2,0:0:0:0:
188,293,108314,1,2,0:0:0:0:
288,293,108486,6,0,L|336:293,1,40,2|0,2:0|0:0,0:0:0:0:
390,215,108829,5,2,0:0:0:0:
390,215,109000,1,2,0:0:0:0:
454,297,109172,5,2,0:0:0:0:
454,297,109343,1,2,0:0:0:0:
510,215,109515,5,2,0:0:0:0:
510,215,109686,1,2,0:0:0:0:
256,192,109857,12,0,113115,0:0:0:0:
180,106,113286,5,8,0:0:0:0:
180,106,113457,1,2,3:0:0:0:
112,208,113629,6,0,L|143:208,3,23.9999992675781,2|2|0|2,3:0|3:0|0:0|3:0,0:0:0:0:
193,293,113972,6,0,L|193:262,3,23.9999992675781,2|2|2|2,3:0|3:0|3:0|3:0,0:0:0:0:
253,202,114315,5,2,3:0:0:0:
253,202,114401,1,2,3:0:0:0:
253,202,114486,2,0,L|285:202,1,32,2|2,3:0|3:0,0:0:0:0:
342,305,114657,5,2,3:0:0:0:
342,305,114743,1,2,3:0:0:0:
342,305,114828,2,0,L|342:347,1,32,2|2,3:0|3:0,0:0:0:0:
396,212,115000,5,10,3:0:0:0:
396,212,115086,1,10,3:0:0:0:
396,212,115172,2,0,L|396:164,1,32,10|10,3:0|3:0,0:0:0:0:
285,202,115343,5,4,1:0:0:0:
173,317,115515,2,0,L|116:260,1,80,2|8,0:0|1:0,0:0:0:0:
285,202,115857,1,2,0:0:0:0:
187,52,116029,2,0,L|131:109,2,80,2|0|8,1:2|0:0|1:0,0:0:0:0:
102,185,116543,5,2,0:0:0:0:
285,202,116714,2,0,B|329:244|329:244|388:243,1,120,2|0,1:2|0:0,0:0:0:0:
462,213,117057,2,0,B|496:185|496:185|502:115,1,80,8|0,1:0|0:0,0:0:0:0:
446,299,117400,1,2,1:2:0:0:
396,163,117572,1,2,0:0:0:0:
446,299,117743,2,0,P|409:315|377:338,1,80,8|0,1:0|0:0,0:0:0:0:
285,202,118086,5,2,1:2:0:0:
159,109,118257,2,0,L|219:56,1,80,2|8,0:0|1:0,0:0:0:0:
285,202,118600,1,2,0:0:0:0:
403,93,118772,2,0,L|339:23,2,80,2|0|8,1:2|0:0|1:0,0:0:0:0:
285,202,119286,5,2,0:0:0:0:
443,220,119457,2,0,B|412:277|412:277|340:308,1,120,2|0,1:2|0:0,0:0:0:0:
280,305,119800,2,0,B|244:292|244:292|207:240,1,80,8|0,1:0|0:0,0:0:0:0:
189,150,120143,2,0,B|176:114|176:114|142:89,1,80,2|0,1:2|0:0,0:0:0:0:
121,228,120486,2,0,B|94:241|94:241|71:285,1,80,8|0,1:0|0:0,0:0:0:0:
220,259,120829,5,2,1:2:0:0:
337,150,121000,2,0,L|416:119,1,80,2|8,0:0|1:0,0:0:0:0:
220,259,121343,1,2,0:0:0:0:
369,315,121514,2,0,L|454:316,2,80,2|0|8,1:2|0:0|1:0,0:0:0:0:
220,259,122029,5,2,0:0:0:0:
355,232,122200,2,0,B|416:233|416:233|456:189,1,120,2|0,1:2|0:0,0:0:0:0:
512,122,122543,2,0,B|507:81|507:81|447:35,1,80,8|0,1:0|0:0,0:0:0:0:
377,146,122886,1,2,1:2:0:0:
494,281,123057,1,2,0:0:0:0:
377,146,123229,2,0,P|337:134|302:115,1,80,8|0,1:0|0:0,0:0:0:0:
291,245,123572,5,2,1:2:0:0:
165,344,123743,2,0,L|257:398,1,80,2|8,0:0|1:0,0:0:0:0:
291,245,124086,1,2,0:0:0:0:
157,157,124257,2,0,L|103:249,2,80,2|2|8,1:2|0:0|1:0,0:0:0:0:
291,245,124772,5,2,0:0:0:0:
348,94,124943,2,0,B|308:45|308:45|242:26,1,120,2|2,1:2|0:0,0:0:0:0:
171,0,125286,2,2,B|70:46,1,80,8|0,1:0|0:0,0:0:0:0:
1,126,125629,2,0,B|31:151|31:151|75:144,1,80,2|2,1:2|0:0,0:0:0:0:
187,216,125972,2,2,B|157:241|157:241|116:234,1,80,8|0,1:0|0:0,0:0:0:0:
97,360,126314,5,2,1:2:0:0:
187,216,126485,2,0,P|191:255|208:291,1,80,2|8,1:2|1:0,0:0:0:0:
306,384,126828,1,2,1:2:0:0:
306,384,126914,1,0,1:0:0:0:
306,384,126999,2,0,L|390:368,2,80,2|2|8,1:2|1:2|1:0,0:0:0:0:
270,234,127515,5,2,1:2:0:0:
404,275,127685,2,0,L|362:162,1,120,2|0,1:2|0:0,0:0:0:0:
439,136,128029,2,0,L|471:42,1,80,8|2,1:0|1:2,0:0:0:0:
325,60,128371,6,0,L|285:51,1,40,2|0,1:2|0:0,0:0:0:0:
252,125,128543,2,0,L|213:134,1,40,2|0,1:2|0:0,0:0:0:0:
204,54,128714,2,0,L|124:64,1,80,8|2,1:0|1:2,0:0:0:0:
252,125,129057,5,2,1:2:0:0:
329,264,129228,2,0,L|309:177,1,80,2|8,1:2|1:0,0:0:0:0:
415,65,129571,1,2,1:2:0:0:
415,65,129657,1,0,1:0:0:0:
415,65,129743,2,0,L|397:143,2,80,2|2|8,1:2|1:2|1:0,0:0:0:0:
311,186,130257,5,2,1:2:0:0:
243,330,130428,2,0,B|205:280|205:280|262:228,1,120,2|0,1:2|0:0,0:0:0:0:
329,264,130772,2,0,L|428:241,1,80,8|2,1:0|1:2,0:0:0:0:
397,142,131115,2,0,L|474:123,1,80,2|2,1:2|1:2,0:0:0:0:
289,105,131457,2,0,P|249:110|211:123,1,80,8|2,1:0|1:2,0:0:0:0:
324,270,131800,5,2,1:2:0:0:
171,222,131971,2,0,L|255:206,1,80,2|8,1:2|1:0,0:0:0:0:
152,335,132314,1,2,1:2:0:0:
152,335,132400,1,0,1:0:0:0:
152,335,132486,2,0,L|231:349,2,80,2|2|8,1:2|1:2|1:0,0:0:0:0:
53,255,133000,5,2,1:2:0:0:
100,102,133171,2,0,L|141:214,1,120,2|0,1:2|0:0,0:0:0:0:
227,194,133514,2,0,L|194:293,1,80,8|2,1:0|1:2,0:0:0:0:
305,222,133857,6,0,L|354:233,1,40,2|0,1:2|0:0,0:0:0:0:
333,150,134029,2,0,L|382:139,1,40,2|0,1:2|0:0,0:0:0:0:
420,205,134200,2,0,L|517:192,1,80,8|2,1:0|1:2,0:0:0:0:
333,150,134543,5,2,1:2:0:0:
237,22,134714,2,0,P|197:26|158:39,1,80,2|8,1:2|1:0,0:0:0:0:
191,204,135057,1,2,1:2:0:0:
191,204,135143,1,0,1:0:0:0:
191,204,135229,2,0,L|246:134,2,80,2|2|8,1:2|1:2|1:0,0:0:0:0:
66,268,135743,5,2,1:2:0:0:
175,348,135915,2,0,L|264:308,1,96,2|0,1:2|0:0,0:0:0:0:
362,298,136257,6,0,L|372:267,1,32,2|2,3:0|3:0,0:0:0:0:
419,192,136429,5,6,3:0:0:0:
419,192,136514,1,2,3:0:0:0:
419,192,136600,1,2,3:0:0:0:
323,119,136772,5,6,3:0:0:0:
285,229,136943,1,6,3:0:0:0:
208,121,137115,5,6,3:0:0:0:
208,121,137200,1,6,3:0:0:0:
208,121,137286,2,0,P|98:125|141:269,1,300,10|0,3:0|0:0,0:0:0:0:
135,267,138657,5,4,1:0:0:0:
208,121,139000,5,4,3:0:0:0:
89,21,139171,1,2,3:0:0:0:
89,21,139343,2,0,P|48:82|71:194,1,160,4|4,3:0|3:0,0:0:0:0:
208,121,139858,5,2,3:0:0:0:
208,121,140029,2,0,P|160:106|103:118,1,80,4|0,3:0|0:0,0:0:0:0:
172,263,140372,2,0,P|220:278|277:266,1,80,4|0,3:0|0:0,0:0:0:0:
338,142,140715,1,4,3:0:0:0:
389,294,140886,1,2,3:0:0:0:
407,287,140972,1,2,3:0:0:0:
425,280,141058,2,0,B|468:269|468:269|538:266,1,80,4|0,3:0|0:0,0:0:0:0:
338,142,141400,5,4,3:0:0:0:
241,349,141743,1,4,3:0:0:0:
154,221,141915,1,2,3:0:0:0:
154,221,142086,2,0,B|139:193|139:193|122:189|122:189|106:162,2,80,4|0|4,3:0|0:0|3:0,0:0:0:0:
233,263,142601,1,2,3:0:0:0:
233,263,142772,1,4,3:0:0:0:
72,311,142944,5,2,3:0:0:0:
24,161,143115,1,4,3:0:0:0:
180,114,143286,1,2,3:0:0:0:
233,263,143458,2,0,B|267:255|267:255|310:267,1,80,4|0,3:0|0:0,0:0:0:0:
180,114,143801,5,4,3:0:0:0:
343,115,143972,1,2,3:0:0:0:
343,115,144143,2,0,B|390:99|390:99|439:107,1,80,4|2,1:0|3:0,0:0:0:0:
240,189,144486,5,8,1:0:0:0:
313,27,144658,1,2,3:0:0:0:
390,185,144829,2,0,B|414:215|414:215|440:222|440:222|467:252,2,80,6|2|8,3:0|3:0|1:0,0:0:0:0:
304,232,145343,5,2,3:0:0:0:
304,232,145515,2,0,P|261:212|226:161,1,80,6|2,3:0|3:0,0:0:0:0:
144,31,145858,2,0,P|191:53|218:99,1,80,8|0,1:0|0:0,0:0:0:0:
318,43,146201,5,6,3:0:0:0:
480,113,146372,1,2,3:0:0:0:
304,120,146543,5,8,1:0:0:0:
440,5,146715,1,2,3:0:0:0:
304,120,146886,6,0,P|360:154|438:177,1,128,12|4,3:0|3:0,0:0:0:0:
415,262,147401,1,2,3:0:0:0:
336,242,147572,2,0,P|326:178|303:119,1,128,2|4,3:0|3:0,0:0:0:0:
216,40,148086,1,2,0:0:0:0:
150,149,148257,5,8,1:0:0:0:
245,235,148429,1,8,1:0:0:0:
161,331,148600,1,8,1:0:0:0:
66,245,148772,1,8,1:0:0:0:
150,149,148943,5,8,1:0:0:0:
91,49,149115,1,2,3:0:0:0:
83,37,149200,1,2,3:0:0:0:
74,23,149286,1,10,3:0:0:0:
198,49,149457,1,2,3:0:0:0:
206,37,149542,1,2,3:0:0:0:
215,23,149629,1,4,1:0:0:0:
150,149,149972,5,4,3:0:0:0:
224,274,150143,1,2,3:0:0:0:
224,274,150315,2,0,P|284:237|335:188,1,128,4|4,3:0|3:0,0:0:0:0:
403,79,150829,5,2,3:0:0:0:
281,7,151000,2,0,P|316:-2|371:6,1,64,4|0,3:0|0:0,0:0:0:0:
282,125,151343,2,0,P|247:134|192:126,1,64,4|0,3:0|0:0,0:0:0:0:
403,79,151686,1,4,3:0:0:0:
192,57,151858,1,2,3:0:0:0:
176,54,151943,1,2,3:0:0:0:
160,50,152029,2,0,L|97:34,1,64,4|0,3:0|0:0,0:0:0:0:
282,125,152372,5,4,3:0:0:0:
363,270,152714,1,4,3:0:0:0:
222,299,152886,1,2,3:0:0:0:
222,299,153057,2,0,B|200:321|200:321|187:322|187:322|166:341,2,64,4|2|4,3:0|3:0|3:0,0:0:0:0:
322,198,153572,1,2,3:0:0:0:
322,198,153743,1,4,3:0:0:0:
389,350,153915,5,0,0:0:0:0:
234,384,154086,1,4,3:0:0:0:
167,232,154257,1,2,3:0:0:0:
322,198,154429,2,0,B|357:184|357:184|408:183,1,64,4|0,3:0|0:0,0:0:0:0:
296,287,154772,5,4,3:0:0:0:
449,241,154943,1,2,3:0:0:0:
449,241,155115,2,0,L|384:267,1,64,4|0,3:0|0:0,0:0:0:0:
296,287,155457,5,4,3:0:0:0:
143,241,155628,1,2,3:0:0:0:
143,241,155800,2,0,L|208:267,2,64,4|2|4,3:0|3:0|3:0,0:0:0:0:
296,287,156314,5,2,3:0:0:0:
343,194,156486,2,0,P|373:188|406:179,1,47.9999985351563,12|0,3:0|0:0,0:0:0:0:
309,98,156829,2,0,P|279:104|246:113,1,47.9999985351563,2|0,3:0|0:0,0:0:0:0:
245,215,157172,5,2,3:0:0:0:
245,215,157343,1,2,3:0:0:0:
183,141,157515,5,2,3:0:0:0:
183,141,157686,1,2,3:0:0:0:
154,223,157857,6,0,P|174:256|202:281,1,64,4|2,3:0|3:0,0:0:0:0:
105,308,158372,1,2,0:0:0:0:
18,273,158543,2,0,P|40:250|56:223,1,64,2|2,0:0|0:0,0:0:0:0:
105,308,159058,1,0,0:0:0:0:
100,153,159229,5,8,3:0:0:0:
28,45,159400,1,8,3:0:0:0:
151,13,159572,1,8,3:0:0:0:
223,120,159743,1,8,3:0:0:0:
100,153,159915,5,8,3:0:0:0:
18,273,160086,1,2,3:0:0:0:
8,279,160172,1,2,3:0:0:0:
0,286,160257,1,10,3:0:0:0:
149,280,160429,1,2,3:0:0:0:
156,290,160515,1,2,3:0:0:0:
163,299,160600,1,4,1:0:0:0:
256,192,160686,12,0,162486,0:0:0:0:
