osu file format v14

[General]
AudioFilename: audio.mp3
AudioLeadIn: 0
PreviewTime: 115000
Countdown: 0
SampleSet: Soft
StackLeniency: 0.4
Mode: 0
LetterboxInBreaks: 0
SkinPreference:Default
WidescreenStoryboard: 1

[Editor]
Bookmarks: 7000,17972,31686,42657,55000,65972,71457,76943,85172,96143,104372,109857,126315,138657,144143,149629
DistanceSpacing: 1.4
BeatDivisor: 4
GridSize: 4
TimelineZoom: 2.500005

[Metadata]
Title:Because The Night (Nightcore Mix)
TitleUnicode:Because The Night (Nightcore Mix)
Artist:Cascada
ArtistUnicode:Cascada
Creator:StripedGoose
Version:Hard
Source:
Tags:kpobyiiika english edm electronic dance music pop back on the dancefloor perfect day techno remix eurodance speed sped up trance house
BeatmapID:3743372
BeatmapSetID:1824313

[Difficulty]
HPDrainRate:4
CircleSize:4
OverallDifficulty:6
ApproachRate:8
SliderMultiplier:1.4
SliderTickRate:2

[Events]
//Background and Video events
0,0,"BG.jpg",0,0
//Break Periods
2,55200,59586
2,79886,84272
//Storyboard Layer 0 (Background)
//Storyboard Layer 1 (Fail)
//Storyboard Layer 2 (Pass)
//Storyboard Layer 3 (Foreground)
//Storyboard Layer 4 (Overlay)
//Storyboard Sound Samples

[TimingPoints]
1515,342.857142857143,4,2,1,50,1,0
7000,-125,4,2,1,60,0,0
17972,-111.111111111111,4,2,1,60,0,0
29629,-111.111111111111,4,2,1,50,0,0
30315,-111.111111111111,4,2,1,55,0,0
31000,-111.111111111111,4,2,1,60,0,0
31686,-100,4,2,1,70,0,0
42657,-100,4,2,1,70,0,1
52257,-125,4,2,1,70,0,0
52600,-125,4,2,1,50,0,0
53629,-200,4,2,1,50,0,0
55000,-166.666666666667,4,2,1,60,0,0
63915,-166.666666666667,4,2,1,30,0,0
64600,-125,4,2,1,50,0,0
65972,-111.111111111111,4,2,1,60,0,0
71457,-100,4,2,1,70,0,1
74200,-125,4,2,1,50,0,0
76943,-200,4,2,1,60,0,0
79686,-200,4,2,1,40,0,0
85172,-125,4,2,1,60,0,0
96143,-111.111111111111,4,2,1,60,0,0
101457,-111.111111111111,4,2,1,50,0,0
104372,-200,4,2,1,50,0,0
109857,-125,4,2,1,60,0,0
113972,-111.111111111111,4,2,1,60,0,0
115343,-99.9999999999999,4,2,1,70,0,0
126315,-100,4,2,1,70,0,1
135915,-125,4,2,1,70,0,0
136257,-125,4,2,1,50,0,0
137286,-200,4,2,1,50,0,0
138657,-111.111111111111,4,2,1,70,0,0
144143,-99.9999999999999,4,2,1,70,0,1
146886,-125,4,2,1,60,0,0
148257,-125,4,2,1,50,0,0
149629,-125,4,2,1,55,0,0
156486,-125,4,2,1,40,0,0
159229,-125,4,2,1,60,0,0

[Colours]
Combo1 : 83,253,236
Combo2 : 123,204,253
Combo3 : 224,73,213
Combo4 : 156,89,217
SliderBorder : 255,255,255

[HitObjects]
44,220,7000,6,0,L|44:160,1,56,2|2,0:0|0:0,0:0:0:0:
204,112,7515,2,0,P|227:191|204:271,1,168,2|2,0:0|0:0,0:0:0:0:
204,356,8200,1,2,0:0:0:0:
204,356,8372,2,0,L|148:356,1,56,2|0,0:0|0:0,0:0:0:0:
308,356,8715,2,0,L|364:356,1,56,2|0,0:0|0:0,0:0:0:0:
307,271,9057,2,0,P|318:217|305:163,1,112,2|0,0:0|0:0,0:0:0:0:
468,164,9743,6,0,L|468:220,1,56,2|2,0:0|0:0,0:0:0:0:
307,271,10257,2,0,P|284:192|307:112,1,168,2|2,0:0|0:0,0:0:0:0:
164,24,11115,2,0,L|108:24,1,56,2|2,0:0|0:0,0:0:0:0:
60,92,11457,1,2,0:0:0:0:
60,92,11629,2,0,B|72:128|56:176|52:160|36:212|58:256,1,168,2|0,0:0|0:0,0:0:0:0:
208,336,12486,6,0,P|200:280|206:225,1,112,10|8,0:0|0:0,0:0:0:0:
304,224,13000,2,0,P|310:279|302:334,1,112,2|2,0:0|0:0,0:0:0:0:
388,332,13515,1,10,0:0:0:0:
388,332,13686,1,2,0:0:0:0:
440,268,13857,2,0,P|444:240|440:212,1,56,10|0,0:0|0:0,0:0:0:0:
367,171,14200,2,0,P|364:144|367:116,1,56,10|0,0:0|0:0,0:0:0:0:
440,75,14543,2,0,P|420:48|344:40,1,112,10|8,0:0|0:0,0:0:0:0:
166,38,15229,5,10,0:0:0:0:
166,38,15400,1,2,0:0:0:0:
228,104,15572,1,10,0:0:0:0:
228,104,15743,2,0,L|188:143,1,56,2|8,0:0|0:0,0:0:0:0:
103,144,16086,2,0,L|16:56,1,112,2|2,0:0|0:0,0:0:0:0:
24,192,16600,1,10,0:0:0:0:
24,192,16772,1,2,0:0:0:0:
24,192,16943,2,0,L|111:279,1,112,10|8,0:0|0:0,0:0:0:0:
100,356,17457,5,8,3:1:0:0:
184,356,17629,1,8,3:1:0:0:
256,188,17972,6,0,L|256:125,2,62.9999980773926,4|2|8,3:0|0:0|0:0,0:0:0:0:
256,276,18486,2,0,B|356:276|356:276|340:304,1,125.999996154785,4|2,3:0|3:0,0:0:0:0:
256,360,19000,2,0,B|224:368|224:368|196:360,1,62.9999980773926,10|0,0:0|0:0,0:0:0:0:
120,312,19343,2,0,B|140:252|140:252|121:192,1,125.999996154785,4|10,3:0|0:0,0:0:0:0:
80,112,19857,1,4,3:0:0:0:
80,24,20029,2,0,B|139:5|139:5|199:25,1,125.999996154785,2|8,0:0|0:0,0:0:0:0:
376,23,20715,6,0,P|437:11|498:23,1,125.999996154785,4|8,3:0|0:0,0:0:0:0:
500,112,21229,2,0,P|438:124|377:112,1,125.999996154785,4|2,3:0|3:0,0:0:0:0:
288,112,21743,2,0,B|232:68,1,62.9999980773926,10|2,0:0|0:0,0:0:0:0:
120,72,22086,2,0,B|140:132|140:132|121:191,1,125.999996154785,4|10,3:0|0:0,0:0:0:0:
80,272,22600,1,4,3:0:0:0:
80,360,22772,2,0,B|139:378|139:378|199:358,1,125.999996154785,2|8,0:0|0:0,0:0:0:0:
303,216,23457,6,0,P|335:212|366:215,2,62.9999980773926,4|2|8,3:0|0:0|0:0,0:0:0:0:
312,300,23972,2,0,B|348:312|376:304|376:292|408:284|434:297,1,125.999996154785,4|2,3:0|3:0,0:0:0:0:
436,108,24657,1,2,0:0:0:0:
436,108,24829,1,4,3:0:0:0:
256,56,25172,2,0,B|246:87|246:87|256:116,1,62.9999980773926,10|4,0:0|3:0,0:0:0:0:
284,208,25515,2,0,B|255:218|255:218|224:208,2,62.9999980773926,2|4|8,0:0|3:0|0:0,0:0:0:0:
504,316,26200,5,4,3:0:0:0:
504,316,26372,2,0,P|447:340|391:316,1,125.999996154785,2|4,0:0|3:0,0:0:0:0:
312,276,26886,2,0,P|255:251|199:276,1,125.999996154785,2|8,0:0|0:0,0:0:0:0:
8,316,27572,1,4,3:0:0:0:
8,316,27744,2,0,P|64:340|120:316,1,125.999996154785,2|4,0:0|3:0,0:0:0:0:
200,276,28258,2,0,P|256:251|312:276,1,125.999996154785,2|8,0:0|0:0,0:0:0:0:
472,196,28943,5,4,3:0:0:0:
472,196,29115,2,0,B|472:148|472:148|480:128|480:128|480:71,1,125.999996154785,2|4,0:0|3:0,0:0:0:0:
404,28,29629,1,2,3:0:0:0:
404,28,29800,1,2,3:0:0:0:
316,28,29972,1,8,0:0:0:0:
316,28,30143,1,2,3:0:0:0:
240,71,30315,6,0,L|240:102,3,31.4999990386963,2|2|2|2,3:0|3:0|3:0|3:0,0:0:0:0:
200,120,30657,2,0,L|215:147,3,31.4999990386963,2|2|2|2,3:0|3:0|3:0|3:0,0:0:0:0:
190,183,31000,2,0,L|217:198,3,31.4999990386963,2|2|2|2,3:0|3:0|3:0|3:0,0:0:0:0:
221,238,31343,2,0,L|252:233,3,31.4999990386963,10|10|10|10,3:0|3:0|3:0|3:0,0:0:0:0:
270,272,31686,6,0,B|288:284|288:284|336:284,2,70,4|2|8,1:0|0:0|1:0,0:0:0:0:
336,192,32200,1,2,0:0:0:0:
427,191,32372,2,0,B|447:215|447:215|447:291|447:291|471:315,1,140,2|8,1:2|1:0,0:0:0:0:
488,132,33057,6,0,P|500:99|487:67,1,70,2|0,1:2|0:0,0:0:0:0:
424,4,33400,2,0,P|391:-8|359:4,1,70,8|0,1:0|0:0,0:0:0:0:
300,72,33743,1,2,1:2:0:0:
300,72,33915,1,2,0:0:0:0:
360,140,34086,2,0,L|309:190,1,70,8|0,1:0|0:0,0:0:0:0:
242,272,34429,6,0,B|224:284|224:284|176:284,2,70,2|2|8,1:2|0:0|1:0,0:0:0:0:
176,192,34943,1,2,0:0:0:0:
85,191,35115,2,0,B|65:215|65:215|65:291|65:291|41:315,1,140,2|8,1:2|1:0,0:0:0:0:
220,348,35800,6,0,B|256:356|256:356|289:348,1,70,2|0,1:2|0:0,0:0:0:0:
292,256,36143,2,0,B|256:248|256:248|223:256,1,70,8|0,1:0|0:0,0:0:0:0:
144,296,36486,2,0,B|128:264|136:228|148:228|156:188|145:159,1,140,0|8,1:2|1:0,0:0:0:0:
20,32,37172,5,2,1:2:0:0:
20,32,37343,2,0,B|56:32|56:32|87:44,1,70,2|8,0:0|1:0,0:0:0:0:
172,76,37686,1,2,0:0:0:0:
256,43,37857,2,0,P|323:49|363:104,1,140,2|8,1:2|1:0,0:0:0:0:
268,260,38543,6,0,P|255:292|268:324,1,70,2|0,1:2|0:0,0:0:0:0:
360,324,38886,2,0,P|372:291|359:259,1,70,8|0,1:0|0:0,0:0:0:0:
316,184,39229,1,2,1:2:0:0:
316,184,39400,1,2,0:0:0:0:
408,184,39572,2,0,B|427:164|427:164|439:158|439:158|459:137,1,70,8|0,1:0|0:0,0:0:0:0:
492,32,39915,5,2,1:2:0:0:
492,32,40086,2,0,B|456:32|456:32|424:44,1,70,2|8,0:0|1:0,0:0:0:0:
340,76,40429,1,2,0:0:0:0:
255,43,40600,2,0,P|188:49|148:104,1,140,2|8,1:2|1:0,0:0:0:0:
40,240,41286,6,0,L|99:276,1,70,0|0,1:2|0:0,0:0:0:0:
196,276,41629,2,0,L|255:239,1,70,8|0,1:0|0:0,0:0:0:0:
348,240,41972,2,0,B|412:236|436:192|436:192|471:192,1,140,2|8,1:2|1:0,0:0:0:0:
344,76,42657,6,0,B|331:53|331:53|319:41|319:41|305:17,1,70,4|2,1:0|1:2,0:0:0:0:
204,20,43000,2,0,B|191:42|191:42|179:54|179:54|165:78,1,70,8|2,1:0|1:2,0:0:0:0:
164,128,43257,1,0,1:0:0:0:
164,128,43343,2,0,P|193:190|254:223,1,140,2|8,1:2|1:0,0:0:0:0:
436,148,44029,6,0,B|426:148|406:132|406:132|386:148|374:148,1,70,2|2,1:2|1:2,0:0:0:0:
268,148,44372,2,0,L|240:120,3,35,8|0|2|0,1:0|1:0|1:2|1:0,0:0:0:0:
204,88,44715,2,0,B|184:88|184:88|156:80|156:80|135:80,1,70,2|2,1:2|1:2,0:0:0:0:
88,172,45057,2,0,B|88:192|88:192|80:220|80:220|80:240,1,70,8|2,1:0|1:2,0:0:0:0:
168,308,45400,6,0,B|181:331|181:331|193:343|193:343|207:367,1,70,2|2,1:2|1:2,0:0:0:0:
308,364,45743,2,0,B|321:342|321:342|333:330|333:330|347:306,1,70,8|2,1:0|1:2,0:0:0:0:
348,256,46000,1,0,1:0:0:0:
348,256,46086,2,0,P|319:194|258:161,1,140,2|8,1:2|1:0,0:0:0:0:
140,20,46772,6,0,P|174:24|209:20,1,70,2|2,1:2|1:2,0:0:0:0:
304,20,47115,2,0,L|339:20,3,35,8|0|2|0,1:0|1:0|1:2|1:0,0:0:0:0:
384,24,47457,2,0,B|406:46|446:52|446:52|451:91|475:115,1,140,2|8,1:2|1:0,0:0:0:0:
472,296,48143,5,2,1:2:0:0:
400,236,48315,1,2,1:2:0:0:
328,296,48486,1,8,1:0:0:0:
328,296,48572,1,0,1:0:0:0:
328,296,48657,1,2,1:2:0:0:
256,360,48829,2,0,B|220:376|188:368|188:356|156:348|120:360,1,140,2|8,1:2|1:0,0:0:0:0:
3,219,49515,6,0,P|36:232|69:222,1,70,2|2,1:2|1:2,0:0:0:0:
136,160,49857,2,0,L|172:160,3,35,8|0|2|0,1:0|1:0|1:2|1:0,0:0:0:0:
216,160,50200,1,2,1:2:0:0:
216,160,50372,1,2,1:2:0:0:
312,116,50543,2,0,B|344:100|344:100|350:66,1,70,8|2,1:0|1:2,0:0:0:0:
256,32,50886,5,2,1:2:0:0:
256,32,51057,2,0,B|220:24|220:24|187:31,1,70,2|8,1:2|1:0,0:0:0:0:
96,32,51400,1,2,1:2:0:0:
96,32,51486,1,0,1:0:0:0:
96,32,51572,2,0,L|96:104,1,70,2|2,1:2|1:2,0:0:0:0:
96,192,51915,1,8,1:0:0:0:
206,311,52257,5,2,1:2:0:0:
206,311,52429,2,0,L|231:297,3,28,2|0|2|0,1:2|0:0|3:0|0:0,0:0:0:0:
279,297,52772,2,0,L|310:315,3,28,2|2|0|0,1:2|3:0|0:0|0:0,0:0:0:0:
347,305,53115,2,0,L|378:323,3,28,2|0|0|0,1:2|0:0|0:0|0:0,0:0:0:0:
415,313,53457,1,2,1:2:0:0:
415,313,53629,5,6,3:0:0:0:
256,192,53715,12,6,55000,3:0:0:0:
256,192,60486,12,10,63915,3:0:0:0:
428,364,64600,6,0,L|372:364,1,56,8|8,1:0|1:0,0:0:0:0:
288,364,64943,1,8,1:0:0:0:
288,364,65115,1,8,1:0:0:0:
288,364,65286,2,0,B|288:328|256:296|256:296|256:256,1,112,8|8,1:0|1:0,0:0:0:0:
256,80,65972,5,4,1:0:0:0:
76,84,66315,1,4,3:0:0:0:
76,84,66486,1,2,3:0:0:0:
76,84,66657,2,0,L|139:193,1,125.999996154785,4|4,3:0|3:0,0:0:0:0:
256,304,67343,1,6,3:0:0:0:
373,193,67686,1,4,3:0:0:0:
139,193,68029,1,6,3:0:0:0:
139,193,68200,2,0,L|113:218,2,31.4999990386963,2|2|4,3:0|3:0|3:0,0:0:0:0:
256,80,68715,5,6,3:0:0:0:
436,84,69058,1,4,3:0:0:0:
436,84,69229,1,2,3:0:0:0:
436,84,69400,2,0,L|372:193,1,125.999996154785,4|4,3:0|3:0,0:0:0:0:
256,328,70086,1,6,3:0:0:0:
256,328,70257,1,2,3:0:0:0:
160,324,70429,1,4,3:0:0:0:
160,324,70600,1,0,0:0:0:0:
80,272,70772,2,0,B|44:272|44:272|87:193,1,125.999996154785,4|6,3:0|3:0,0:0:0:0:
296,192,71457,6,0,L|372:192,1,70,4|2,1:0|3:0,0:0:0:0:
464,192,71800,1,8,1:0:0:0:
464,192,71972,1,2,3:0:0:0:
412,276,72143,2,0,B|392:276|352:312|352:312|312:276|294:276,1,140,6|8,3:0|1:0,0:0:0:0:
96,275,72829,2,0,P|61:279|26:276,1,70,6|2,3:0|3:0,0:0:0:0:
24,180,73172,2,0,P|20:145|23:110,1,70,8|2,1:0|3:0,0:0:0:0:
112,60,73515,1,6,3:0:0:0:
112,60,73686,1,2,3:0:0:0:
200,108,73857,2,0,L|270:108,1,70,8|2,1:0|3:0,0:0:0:0:
356,108,74200,6,0,B|464:108|464:108|404:136|388:192,1,224,12|2,3:0|3:0,0:0:0:0:
388,360,75229,1,2,0:0:0:0:
256,264,75572,5,2,3:0:0:0:
256,264,75743,1,2,3:0:0:0:
256,180,75915,1,2,3:0:0:0:
256,180,76086,1,2,3:0:0:0:
216,108,76257,2,0,L|160:108,1,56,2|2,3:0|3:0,0:0:0:0:
296,108,76600,2,0,L|352:108,1,56,2|2,3:0|3:0,0:0:0:0:
256,40,76943,5,4,1:0:0:0:
256,192,77029,12,2,79686,3:0:0:0:
468,164,85172,6,0,L|468:224,1,56,10|2,0:0|0:0,0:0:0:0:
363,352,85686,2,0,P|284:343|254:268,1,168,2|10,0:0|0:0,0:0:0:0:
172,268,86372,1,2,0:0:0:0:
172,268,86544,2,0,P|144:271|116:268,1,56,10|2,0:0|0:0,0:0:0:0:
172,184,86886,2,0,P|199:180|227:183,1,56,10|2,0:0|0:0,0:0:0:0:
312,184,87229,2,0,B|364:184|364:184|368:188|368:188|428:188,1,112,10|8,0:0|0:0,0:0:0:0:
464,24,87915,5,10,0:0:0:0:
464,24,88086,2,0,L|400:24,1,56,2|10,0:0|0:0,0:0:0:0:
324,28,88429,2,0,B|296:72|256:28|256:28|216:72|188:28,1,168,2|8,0:0|0:0,0:0:0:0:
20,28,89287,2,0,P|12:55|20:84,1,56,10|0,0:0|0:0,0:0:0:0:
72,144,89629,2,0,P|95:192|71:240,2,112,10|8|8,0:0|0:0|0:0,0:0:0:0:
228,80,90657,6,0,L|284:80,2,56,10|2|10,0:0|0:0|0:0,0:0:0:0:
228,164,91172,2,0,L|200:212,1,56,2|8,0:0|0:0,0:0:0:0:
200,296,91515,2,0,L|228:344,1,56,2|8,0:0|0:0,0:0:0:0:
396,347,92029,2,0,P|434:307|451:255,1,112,8|8,0:0|0:0,0:0:0:0:
384,212,92543,1,2,0:0:0:0:
384,212,92715,2,0,P|345:252|328:304,1,112,8|8,0:0|0:0,0:0:0:0:
160,304,93401,5,10,0:0:0:0:
160,304,93572,1,2,0:0:0:0:
76,304,93744,1,10,0:0:0:0:
76,304,93915,2,0,P|48:288|36:265,1,56,2|10,0:0|0:0,0:0:0:0:
36,100,94429,2,0,P|50:76|75:63,1,56,10|0,0:0|0:0,0:0:0:0:
148,120,94772,1,8,0:0:0:0:
148,120,94944,1,2,0:0:0:0:
148,120,95115,2,0,P|202:130|256:118,1,112,10|8,0:0|0:0,0:0:0:0:
340,120,95629,5,8,3:1:0:0:
300,44,95800,1,8,3:1:0:0:
472,164,96144,6,0,B|484:192|484:192|474:223,2,62.9999980773926,10|2|8,0:0|0:0|0:0,0:0:0:0:
388,192,96658,2,0,B|368:204|368:204|288:184|288:184|264:192,1,125.999996154785,2|0,0:0|0:0,0:0:0:0:
180,192,97172,2,0,B|180:255,1,62.9999980773926,10|0,0:0|0:0,0:0:0:0:
180,344,97515,2,0,B|260:344|260:344|304:316,1,125.999996154785,10|10,0:0|0:0,0:0:0:0:
368,268,98029,1,0,0:0:0:0:
456,268,98200,2,0,B|456:224|456:224|412:192|412:148,1,125.999996154785,10|8,0:0|0:0,0:0:0:0:
304,20,98886,6,0,B|272:36|240:19|240:19|240:79,1,125.999996154785,8|8,0:0|0:0,0:0:0:0:
240,168,99400,2,0,B|240:227|240:227|272:211|304:227,1,125.999996154785,2|0,0:0|0:0,0:0:0:0:
392,228,99915,2,0,B|416:240|416:240|416:276,1,62.9999980773926,10|2,0:0|0:0,0:0:0:0:
332,344,100257,2,0,B|252:344|252:344|208:316,1,125.999996154785,10|10,0:0|0:0,0:0:0:0:
144,268,100771,1,0,0:0:0:0:
56,268,100943,2,0,B|56:224|56:224|100:192|100:148,1,125.999996154785,10|8,0:0|0:0,0:0:0:0:
188,4,101629,6,0,B|204:8|204:8|236:0|236:0|256:4,2,62.9999980773926,8|2|8,0:0|3:0|0:0,0:0:0:0:
188,92,102143,1,2,3:0:0:0:
188,92,102315,2,0,B|204:96|204:96|236:88|236:88|256:92,1,62.9999980773926,8|2,0:0|3:0,0:0:0:0:
336,92,102657,2,0,L|394:126,1,62.9999980773926,8|2,0:0|3:0,0:0:0:0:
388,212,103000,2,0,B|312:212|312:212|288:212|288:256,2,125.999996154785,8|4|4,0:0|3:0|3:0,0:0:0:0:
496,352,104029,1,8,0:0:0:0:
397,351,104372,5,4,1:0:0:0:
397,351,105743,1,2,0:0:0:0:
256,192,107115,12,2,109515,0:0:0:0:
96,104,109857,6,0,L|96:192,1,84,2|2,3:0|3:0,0:0:0:0:
100,232,110200,2,0,L|128:280,1,56,8|2,0:0|3:0,0:0:0:0:
184,344,110543,2,0,L|240:344,1,56,8|2,0:0|3:0,0:0:0:0:
324,344,110886,1,2,3:0:0:0:
324,344,110972,1,2,3:0:0:0:
416,280,111229,6,0,L|416:192,1,84,2|2,3:0|3:0,0:0:0:0:
412,152,111572,2,0,L|384:104,1,56,8|2,0:0|3:0,0:0:0:0:
328,40,111915,2,0,L|272:40,1,56,8|2,0:0|3:0,0:0:0:0:
188,40,112258,1,2,3:0:0:0:
188,40,112344,1,2,3:0:0:0:
188,164,112600,6,0,L|124:164,1,56,8|2,0:0|3:0,0:0:0:0:
92,168,112857,1,2,3:0:0:0:
92,168,112943,2,0,L|92:128,2,28,8|2|2,0:0|3:0|3:0,0:0:0:0:
92,252,113286,1,8,0:0:0:0:
92,252,113372,1,2,3:0:0:0:
92,252,113457,2,0,L|92:316,1,56,2|2,3:0|3:0,0:0:0:0:
92,352,113715,1,2,3:0:0:0:
255,360,113972,6,0,P|271:356|286:359,3,31.4999990386963,2|2|2|2,3:0|3:0|3:0|3:0,0:0:0:0:
300,316,114315,2,0,P|315:320|326:330,3,31.4999990386963,2|2|2|2,3:0|3:0|3:0|3:0,0:0:0:0:
360,299,114657,2,0,P|371:310|375:325,3,31.4999990386963,2|2|2|2,3:0|3:0|3:0|3:0,0:0:0:0:
420,312,115000,1,10,3:0:0:0:
432,312,115086,1,10,3:0:0:0:
444,312,115172,1,10,3:0:0:0:
456,312,115257,1,10,3:0:0:0:
468,312,115343,6,0,B|504:374,2,70,4|2|8,1:0|0:0|1:0,0:0:0:0:
468,220,115857,1,2,0:0:0:0:
380,192,116029,2,0,B|351:163|348:132|348:132|317:129|286:98,1,140,2|8,1:2|1:0,0:0:0:0:
104,96,116714,2,0,P|116:128|137:156,1,70,2|0,1:2|0:0,0:0:0:0:
226,167,117057,2,0,P|247:194|261:226,1,70,8|0,1:0|0:0,0:0:0:0:
260,316,117400,1,2,1:2:0:0:
260,316,117572,1,2,0:0:0:0:
188,372,117743,2,0,L|118:372,1,70,8|0,1:0|0:0,0:0:0:0:
44,312,118086,6,0,B|8:374,2,70,2|2|8,1:2|0:0|1:0,0:0:0:0:
44,220,118600,1,2,0:0:0:0:
132,192,118772,2,0,B|160:163|163:132|163:132|194:129|225:98,1,140,2|8,1:2|1:0,0:0:0:0:
360,16,119457,6,0,B|360:40|352:52|352:52|360:68|359:83,1,70,2|0,1:2|0:0,0:0:0:0:
451,84,119800,2,0,B|450:68|458:52|458:52|450:40|450:16,1,70,8|0,1:0|0:0,0:0:0:0:
403,147,120143,2,0,P|406:215|352:255,1,140,2|8,1:2|1:0,0:0:0:0:
184,192,120829,5,2,1:2:0:0:
184,192,121000,2,0,P|187:152|184:108,1,70,2|8,0:0|1:0,0:0:0:0:
164,32,121343,1,2,0:0:0:0:
72,32,121514,2,0,B|60:68|68:104|80:92|88:136|71:168,1,140,2|8,1:2|1:0,0:0:0:0:
116,344,122200,6,0,B|140:304|140:304|164:304,1,70,2|0,1:2|0:0,0:0:0:0:
256,304,122543,2,0,B|280:304|280:304|304:344,1,70,8|0,1:0|0:0,0:0:0:0:
400,348,122886,1,2,1:2:0:0:
400,348,123057,1,2,0:0:0:0:
456,276,123229,2,0,B|420:213,1,70,8|0,1:0|0:0,0:0:0:0:
328,192,123572,5,2,1:2:0:0:
328,192,123743,2,0,P|325:152|328:108,1,70,2|8,0:0|1:0,0:0:0:0:
348,32,124086,1,2,0:0:0:0:
440,32,124257,2,0,B|452:68|444:104|432:92|424:136|440:168,1,140,2|8,1:2|1:0,0:0:0:0:
324,312,124943,6,0,B|304:304|288:308|288:312|276:316|256:312,1,70,2|0,1:2|0:0,0:0:0:0:
180,260,125286,2,0,B|160:252|144:256|144:260|132:264|112:260,1,70,8|0,1:0|0:0,0:0:0:0:
20,260,125629,2,0,B|44:204|16:148|16:148|40:148,1,140,2|8,1:2|1:0,0:0:0:0:
188,32,126314,6,0,B|200:32|220:20|220:20|240:32|253:31,1,70,2|2,1:2|1:2,0:0:0:0:
252,124,126657,2,0,B|240:124|218:135|218:135|198:123|186:123,1,70,8|2,1:0|1:2,0:0:0:0:
140,124,126914,1,0,1:0:0:0:
140,124,127000,2,0,B|112:172|140:212|140:212|192:212,1,140,2|8,1:2|1:0,0:0:0:0:
364,168,127686,2,0,B|383:136|383:136|412:119,1,70,2|2,1:2|1:2,0:0:0:0:
504,120,128029,2,0,L|504:155,3,35,8|0|2|0,1:0|1:0|1:2|1:0,0:0:0:0:
504,200,128372,2,0,B|504:236|504:236|500:240|500:240|500:272,1,70,2|2,1:2|1:2,0:0:0:0:
500,360,128715,2,0,B|464:360|464:360|460:356|460:356|428:356,1,70,8|2,1:0|1:2,0:0:0:0:
324,352,129057,6,0,B|312:352|292:364|292:364|272:352|258:352,1,70,2|2,1:2|1:2,0:0:0:0:
260,260,129400,2,0,B|272:260|293:248|293:248|313:260|325:260,1,70,8|2,1:0|1:2,0:0:0:0:
372,260,129657,1,0,1:0:0:0:
372,260,129743,2,0,B|400:212|372:172|372:172|320:172,1,140,2|8,1:2|1:0,0:0:0:0:
144,172,130429,6,0,P|115:152|110:118,1,70,2|2,1:2|1:2,0:0:0:0:
112,28,130772,2,0,L|147:28,3,35,8|0|2|0,1:0|1:0|1:2|1:0,0:0:0:0:
192,28,131114,2,0,B|240:44|292:28|292:28|292:66,1,140,2|8,1:2|1:0,0:0:0:0:
160,192,131800,5,2,1:2:0:0:
108,268,131972,1,2,1:2:0:0:
160,344,132143,1,8,1:0:0:0:
160,344,132229,1,0,1:0:0:0:
160,344,132315,1,2,1:2:0:0:
256,344,132486,2,0,B|293:355|325:347|325:335|357:327|393:343,1,140,2|8,1:2|1:0,0:0:0:0:
507,192,133172,6,0,B|472:196|472:196|437:192,1,70,2|2,1:2|1:2,0:0:0:0:
368,140,133514,2,0,L|348:105,3,35,8|0|2|0,1:0|1:0|1:2|1:0,0:0:0:0:
328,72,133857,1,2,1:2:0:0:
328,72,134029,1,2,1:2:0:0:
240,72,134200,2,0,B|170:72,1,70,8|2,1:0|1:2,0:0:0:0:
108,140,134543,5,2,1:2:0:0:
108,140,134715,2,0,P|112:174|108:209,1,70,2|8,1:2|1:0,0:0:0:0:
16,208,135057,1,2,1:2:0:0:
16,208,135143,1,0,1:0:0:0:
16,208,135229,2,0,L|15:138,1,70,2|2,1:2|1:2,0:0:0:0:
64,60,135572,1,8,1:0:0:0:
228,60,135915,6,0,L|295:60,1,56,2|2,1:2|1:2,0:0:0:0:
368,60,136257,1,2,3:0:0:0:
368,60,136429,2,0,L|396:60,2,28,6|2|2,3:0|3:0|3:0,0:0:0:0:
324,132,136772,1,6,3:0:0:0:
324,132,136943,1,6,3:0:0:0:
380,192,137115,1,6,3:0:0:0:
436,132,137286,5,10,3:0:0:0:
256,364,138657,5,4,1:0:0:0:
92,360,139000,1,4,3:0:0:0:
92,360,139171,1,2,3:0:0:0:
92,360,139342,2,0,B|76:296|76:296|90:237,1,125.999996154785,4|4,3:0|3:0,0:0:0:0:
44,68,140028,1,4,3:0:0:0:
213,23,140372,1,4,3:0:0:0:
256,192,140715,1,4,3:0:0:0:
256,192,140886,2,0,L|256:160,2,31.4999990386963,2|2|4,3:0|3:0|3:0,0:0:0:0:
256,364,141400,5,4,3:0:0:0:
420,360,141743,1,4,3:0:0:0:
420,360,141914,1,2,3:0:0:0:
420,360,142085,2,0,B|436:296|436:296|421:237,1,125.999996154785,4|4,3:0|3:0,0:0:0:0:
256,192,142771,1,4,3:0:0:0:
256,192,142942,1,2,3:0:0:0:
216,120,143114,1,4,3:0:0:0:
216,120,143286,1,2,3:0:0:0:
256,48,143457,2,0,P|315:59|340:114,1,125.999996154785,4|4,3:0|3:0,0:0:0:0:
484,192,144143,6,0,B|496:160|496:160|484:124,1,70,4|2,1:0|3:0,0:0:0:0:
460,44,144485,1,8,1:0:0:0:
460,44,144657,1,2,3:0:0:0:
368,44,144828,2,0,B|344:32|344:32|256:52|256:52|234:44,1,140,6|8,3:0|1:0,0:0:0:0:
71,132,145515,2,0,P|106:128|141:131,1,70,6|2,3:0|3:0,0:0:0:0:
140,224,145857,2,0,P|105:227|70:224,1,70,8|2,1:0|3:0,0:0:0:0:
212,180,146200,1,6,3:0:0:0:
212,180,146371,1,2,3:0:0:0:
256,260,146542,2,0,B|240:292|240:292|255:322,1,70,8|2,1:0|3:0,0:0:0:0:
324,292,146886,6,0,B|392:264|464:292|464:292|496:256|466:219,1,224,12|2,3:0|3:0,0:0:0:0:
356,124,147914,1,4,3:0:0:0:
188,124,148257,5,8,1:0:0:0:
188,124,148429,1,8,1:0:0:0:
104,124,148600,1,8,1:0:0:0:
104,124,148772,1,8,1:0:0:0:
28,84,148943,2,0,L|67:44,1,56,8|2,1:0|3:0,0:0:0:0:
100,20,149200,1,2,3:0:0:0:
100,20,149286,2,0,L|164:20,1,56,10|2,3:0|3:0,0:0:0:0:
239,21,149628,5,4,1:0:0:0:
240,188,149972,2,0,P|266:195|293:189,1,56,4|2,3:0|3:0,0:0:0:0:
344,124,150315,2,0,P|392:99|440:124,1,112,4|4,3:0|3:0,0:0:0:0:
436,292,151000,2,0,L|339:348,1,112,4|4,3:0|3:0,0:0:0:0:
172,348,151686,1,4,3:0:0:0:
172,348,151857,2,0,L|172:380,2,28,2|2|4,3:0|3:0|3:0,0:0:0:0:
176,180,152372,5,4,3:0:0:0:
27,104,152715,2,0,L|27:159,1,56,4|2,3:0|3:0,0:0:0:0:
28,244,153057,2,0,L|28:356,1,112,4|4,3:0|3:0,0:0:0:0:
196,360,153743,2,0,L|235:320,1,56,4|0,3:0|0:0,0:0:0:0:
320,320,154086,2,0,L|359:359,1,56,4|0,3:0|0:0,0:0:0:0:
444,360,154429,2,0,B|444:308|444:308|448:300|448:300|448:248,1,112,4|4,3:0|3:0,0:0:0:0:
288,192,155115,5,4,3:0:0:0:
156,88,155457,2,0,B|124:76|100:84|100:92|76:100|46:88,2,112,4|4|4,3:0|3:0|3:0,0:0:0:0:
288,192,156486,5,12,3:0:0:0:
256,192,156572,12,2,158886,0:0:0:0:
260,364,159229,5,8,3:0:0:0:
260,364,159401,1,8,3:0:0:0:
192,324,159572,1,8,3:0:0:0:
192,324,159743,1,8,3:0:0:0:
124,364,159915,2,0,B|88:364|88:364|72:348,1,56,8|2,3:0|3:0,0:0:0:0:
44,320,160172,1,2,3:0:0:0:
44,320,160257,2,0,B|44:284|44:284|60:268,1,56,10|2,3:0|3:0,0:0:0:0:
112,204,160600,5,4,1:0:0:0:
