osu file format v14

[General]
AudioFilename: audio.mp3
AudioLeadIn: 0
PreviewTime: 10896
Countdown: 0
SampleSet: Normal
StackLeniency: 0.7
Mode: 3
LetterboxInBreaks: 0
SpecialStyle: 0
WidescreenStoryboard: 1

[Editor]
DistanceSpacing: 0.8
BeatDivisor: 4
GridSize: 32
TimelineZoom: 1.9

[Metadata]
Title:The Last Laugh (Original Nightcore Edit)
TitleUnicode:The Last Laugh (Original Nightcore Edit)
Artist:Casaris
ArtistUnicode:Casaris
Creator:X_Devil
Version:4k The First Laugh
Source:
Tags:4k 7k Ln Nightcore Illumnus
BeatmapID:2202325
BeatmapSetID:1048905

[Difficulty]
HPDrainRate:7
CircleSize:4
OverallDifficulty:7
ApproachRate:5
SliderMultiplier:1.4
SliderTickRate:1

[Events]
//Background and Video events
0,0,"1539808700_8835.jpg",0,0
//Break Periods
//Storyboard Layer 0 (Background)
//Storyboard Layer 1 (Fail)
//Storyboard Layer 2 (Pass)
//Storyboard Layer 3 (Foreground)
//Storyboard Layer 4 (Overlay)
//Storyboard Sound Samples

[TimingPoints]
230,333.333333333333,4,1,0,15,1,0

[HitObjects]
320,192,230,5,0,0:0:0:0:
192,192,230,1,0,0:0:0:0:
64,192,479,1,0,0:0:0:0:
320,192,563,1,0,0:0:0:0:
448,192,563,1,0,0:0:0:0:
64,192,729,1,0,0:0:0:0:
192,192,896,1,0,0:0:0:0:
320,192,896,1,0,0:0:0:0:
448,192,1146,1,0,0:0:0:0:
192,192,1229,1,0,0:0:0:0:
320,192,1229,1,0,0:0:0:0:
448,192,1396,1,0,0:0:0:0:
64,192,1563,1,0,0:0:0:0:
320,192,1646,1,0,0:0:0:0:
64,192,1729,1,0,0:0:0:0:
320,192,1813,1,0,0:0:0:0:
64,192,1896,1,0,0:0:0:0:
448,192,2063,1,0,0:0:0:0:
192,192,2229,1,0,0:0:0:0:
64,192,2229,1,0,0:0:0:0:
64,192,2479,1,0,0:0:0:0:
192,192,2479,1,0,0:0:0:0:
64,192,2729,1,0,0:0:0:0:
192,192,2729,1,0,0:0:0:0:
320,192,2896,1,0,0:0:0:0:
448,192,2896,1,0,0:0:0:0:
320,192,3146,1,0,0:0:0:0:
64,192,3229,1,0,0:0:0:0:
448,192,3229,1,0,0:0:0:0:
192,192,3396,1,0,0:0:0:0:
64,192,3563,1,0,0:0:0:0:
320,192,3563,1,0,0:0:0:0:
192,192,3813,1,0,0:0:0:0:
64,192,3896,1,0,0:0:0:0:
448,192,3896,1,0,0:0:0:0:
320,192,4063,1,0,0:0:0:0:
448,192,4229,1,0,0:0:0:0:
192,192,4313,1,0,0:0:0:0:
448,192,4396,1,0,0:0:0:0:
192,192,4479,1,0,0:0:0:0:
448,192,4563,1,0,0:0:0:0:
64,192,4729,1,0,0:0:0:0:
192,192,4896,1,0,0:0:0:0:
320,192,4896,1,0,0:0:0:0:
192,192,5146,1,0,0:0:0:0:
320,192,5146,1,0,0:0:0:0:
192,192,5396,1,0,0:0:0:0:
320,192,5396,1,0,0:0:0:0:
64,192,5563,1,0,0:0:0:0:
192,192,5563,1,0,0:0:0:0:
320,192,5813,1,0,0:0:0:0:
64,192,5896,1,0,0:0:0:0:
192,192,5896,1,0,0:0:0:0:
448,192,6063,1,0,0:0:0:0:
192,192,6229,1,0,0:0:0:0:
320,192,6229,1,0,0:0:0:0:
192,192,6479,1,0,0:0:0:0:
320,192,6563,1,0,0:0:0:0:
448,192,6563,1,0,0:0:0:0:
64,192,6729,1,0,0:0:0:0:
320,192,6896,1,0,0:0:0:0:
192,192,6979,1,0,0:0:0:0:
320,192,7063,1,0,0:0:0:0:
192,192,7146,1,0,0:0:0:0:
320,192,7229,1,0,0:0:0:0:
64,192,7396,1,0,0:0:0:0:
192,192,7563,1,0,0:0:0:0:
448,192,7563,1,0,0:0:0:0:
192,192,7813,1,0,0:0:0:0:
448,192,7813,1,0,0:0:0:0:
192,192,8063,1,0,0:0:0:0:
448,192,8063,1,0,0:0:0:0:
448,192,8229,1,0,0:0:0:0:
64,192,8229,1,0,0:0:0:0:
192,192,8479,1,0,0:0:0:0:
64,192,8563,1,0,0:0:0:0:
320,192,8563,1,0,0:0:0:0:
192,192,8729,1,0,0:0:0:0:
64,192,8896,1,0,0:0:0:0:
448,192,8896,1,0,0:0:0:0:
320,192,9146,1,0,0:0:0:0:
192,192,9229,1,0,0:0:0:0:
448,192,9229,1,0,0:0:0:0:
320,192,9396,1,0,0:0:0:0:
192,192,9563,1,0,0:0:0:0:
320,192,9646,1,0,0:0:0:0:
192,192,9729,1,0,0:0:0:0:
320,192,9813,1,0,0:0:0:0:
192,192,9896,1,0,0:0:0:0:
192,192,10063,1,0,0:0:0:0:
64,192,10063,1,0,0:0:0:0:
320,192,10229,1,0,0:0:0:0:
448,192,10229,1,0,0:0:0:0:
320,192,10479,1,0,0:0:0:0:
448,192,10479,1,0,0:0:0:0:
448,192,10729,1,0,0:0:0:0:
320,192,10729,1,0,0:0:0:0:
448,192,10896,128,0,12229:0:0:0:0:
64,192,11063,1,0,0:0:0:0:
320,192,11396,1,0,0:0:0:0:
192,192,11563,1,0,0:0:0:0:
64,192,11729,1,0,0:0:0:0:
320,192,11896,1,0,0:0:0:0:
64,192,12063,1,0,0:0:0:0:
192,192,12229,128,0,12896:0:0:0:0:
320,192,12396,1,0,0:0:0:0:
448,192,12563,1,0,0:0:0:0:
64,192,12729,1,0,0:0:0:0:
320,192,12896,128,0,13563:0:0:0:0:
448,192,12896,1,0,0:0:0:0:
64,192,13229,1,0,0:0:0:0:
448,192,13563,128,0,14896:0:0:0:0:
320,192,13729,1,0,0:0:0:0:
192,192,13896,1,0,0:0:0:0:
320,192,14063,1,0,0:0:0:0:
64,192,14229,1,0,0:0:0:0:
192,192,14396,1,0,0:0:0:0:
64,192,14563,1,0,0:0:0:0:
320,192,14729,1,0,0:0:0:0:
64,192,14896,128,0,15563:0:0:0:0:
192,192,14896,1,0,0:0:0:0:
448,192,15063,1,0,0:0:0:0:
192,192,15229,1,0,0:0:0:0:
320,192,15396,1,0,0:0:0:0:
192,192,15563,128,0,16229:0:0:0:0:
448,192,15563,1,0,0:0:0:0:
320,192,15729,1,0,0:0:0:0:
448,192,15896,1,0,0:0:0:0:
320,192,16063,1,0,0:0:0:0:
64,192,16229,128,0,17563:0:0:0:0:
448,192,16396,1,0,0:0:0:0:
192,192,16729,1,0,0:0:0:0:
320,192,16896,1,0,0:0:0:0:
448,192,17063,1,0,0:0:0:0:
192,192,17229,1,0,0:0:0:0:
448,192,17396,1,0,0:0:0:0:
320,192,17563,128,0,18229:0:0:0:0:
192,192,17729,1,0,0:0:0:0:
64,192,17896,1,0,0:0:0:0:
448,192,18063,1,0,0:0:0:0:
192,192,18229,128,0,18896:0:0:0:0:
64,192,18229,1,0,0:0:0:0:
448,192,18563,1,0,0:0:0:0:
64,192,18896,128,0,20229:0:0:0:0:
192,192,19063,1,0,0:0:0:0:
320,192,19229,1,0,0:0:0:0:
192,192,19396,1,0,0:0:0:0:
448,192,19563,1,0,0:0:0:0:
320,192,19729,1,0,0:0:0:0:
448,192,19896,1,0,0:0:0:0:
192,192,20063,1,0,0:0:0:0:
448,192,20229,128,0,20896:0:0:0:0:
320,192,20229,1,0,0:0:0:0:
64,192,20396,1,0,0:0:0:0:
320,192,20563,1,0,0:0:0:0:
192,192,20729,1,0,0:0:0:0:
320,192,20896,128,0,21563:0:0:0:0:
64,192,20896,1,0,0:0:0:0:
448,192,21063,1,0,0:0:0:0:
64,192,21229,1,0,0:0:0:0:
448,192,21396,1,0,0:0:0:0:
192,192,21563,1,0,0:0:0:0:
64,192,21563,1,0,0:0:0:0:
320,192,21729,1,0,0:0:0:0:
64,192,21896,1,0,0:0:0:0:
448,192,21896,1,0,0:0:0:0:
320,192,22063,1,0,0:0:0:0:
64,192,22229,1,0,0:0:0:0:
192,192,22229,1,0,0:0:0:0:
448,192,22479,1,0,0:0:0:0:
64,192,22563,1,0,0:0:0:0:
192,192,22563,1,0,0:0:0:0:
320,192,22729,1,0,0:0:0:0:
64,192,22896,1,0,0:0:0:0:
448,192,22896,1,0,0:0:0:0:
320,192,23063,1,0,0:0:0:0:
192,192,23229,1,0,0:0:0:0:
64,192,23229,1,0,0:0:0:0:
320,192,23396,1,0,0:0:0:0:
64,192,23563,1,0,0:0:0:0:
448,192,23563,1,0,0:0:0:0:
192,192,23563,1,0,0:0:0:0:
320,192,23896,1,0,0:0:0:0:
448,192,23896,1,0,0:0:0:0:
192,192,23896,1,0,0:0:0:0:
64,192,24229,1,0,0:0:0:0:
448,192,24229,1,0,0:0:0:0:
320,192,24396,1,0,0:0:0:0:
448,192,24563,1,0,0:0:0:0:
64,192,24563,1,0,0:0:0:0:
192,192,24729,1,0,0:0:0:0:
448,192,24896,1,0,0:0:0:0:
320,192,24896,1,0,0:0:0:0:
320,192,25146,1,0,0:0:0:0:
64,192,25229,1,0,0:0:0:0:
448,192,25229,1,0,0:0:0:0:
192,192,25396,1,0,0:0:0:0:
448,192,25563,1,0,0:0:0:0:
64,192,25563,1,0,0:0:0:0:
320,192,25729,1,0,0:0:0:0:
192,192,25896,1,0,0:0:0:0:
64,192,25896,1,0,0:0:0:0:
320,192,26063,1,0,0:0:0:0:
448,192,26229,1,0,0:0:0:0:
192,192,26229,1,0,0:0:0:0:
64,192,26396,1,0,0:0:0:0:
448,192,26563,1,0,0:0:0:0:
192,192,26563,1,0,0:0:0:0:
320,192,26729,1,0,0:0:0:0:
64,192,26896,1,0,0:0:0:0:
192,192,26896,1,0,0:0:0:0:
448,192,27063,1,0,0:0:0:0:
64,192,27229,1,0,0:0:0:0:
320,192,27229,1,0,0:0:0:0:
192,192,27396,1,0,0:0:0:0:
448,192,27563,1,0,0:0:0:0:
320,192,27563,1,0,0:0:0:0:
320,192,27813,1,0,0:0:0:0:
192,192,27896,1,0,0:0:0:0:
64,192,27896,1,0,0:0:0:0:
448,192,28063,1,0,0:0:0:0:
64,192,28229,1,0,0:0:0:0:
320,192,28229,1,0,0:0:0:0:
448,192,28396,1,0,0:0:0:0:
64,192,28563,1,0,0:0:0:0:
320,192,28563,1,0,0:0:0:0:
192,192,28729,1,0,0:0:0:0:
448,192,28896,1,0,0:0:0:0:
320,192,28896,1,0,0:0:0:0:
64,192,28896,1,0,0:0:0:0:
64,192,29229,1,0,0:0:0:0:
192,192,29229,1,0,0:0:0:0:
320,192,29229,1,0,0:0:0:0:
448,192,29563,1,0,0:0:0:0:
320,192,29563,1,0,0:0:0:0:
192,192,29729,1,0,0:0:0:0:
64,192,29896,1,0,0:0:0:0:
448,192,29896,1,0,0:0:0:0:
320,192,30063,1,0,0:0:0:0:
64,192,30229,1,0,0:0:0:0:
448,192,30229,1,0,0:0:0:0:
192,192,30479,1,0,0:0:0:0:
320,192,30563,1,0,0:0:0:0:
448,192,30563,1,0,0:0:0:0:
64,192,30729,1,0,0:0:0:0:
448,192,30896,1,0,0:0:0:0:
192,192,30896,1,0,0:0:0:0:
320,192,31063,1,0,0:0:0:0:
64,192,31229,1,0,0:0:0:0:
192,192,31229,1,0,0:0:0:0:
448,192,31396,1,0,0:0:0:0:
192,192,31563,1,0,0:0:0:0:
320,192,31563,1,0,0:0:0:0:
64,192,31729,1,0,0:0:0:0:
448,192,31896,1,0,0:0:0:0:
192,192,31896,1,0,0:0:0:0:
64,192,32063,1,0,0:0:0:0:
448,192,32229,1,0,0:0:0:0:
320,192,32229,1,0,0:0:0:0:
64,192,32396,1,0,0:0:0:0:
320,192,32563,1,0,0:0:0:0:
448,192,32563,1,0,0:0:0:0:
192,192,32729,1,0,0:0:0:0:
320,192,32896,1,0,0:0:0:0:
448,192,32896,1,0,0:0:0:0:
192,192,33146,1,0,0:0:0:0:
320,192,33229,1,0,0:0:0:0:
448,192,33229,1,0,0:0:0:0:
64,192,33396,1,0,0:0:0:0:
320,192,33563,1,0,0:0:0:0:
448,192,33563,1,0,0:0:0:0:
192,192,33729,1,0,0:0:0:0:
64,192,33729,1,0,0:0:0:0:
320,192,33896,1,0,0:0:0:0:
448,192,33896,1,0,0:0:0:0:
64,192,34063,1,0,0:0:0:0:
320,192,34229,1,0,0:0:0:0:
192,192,34229,1,0,0:0:0:0:
64,192,34479,1,0,0:0:0:0:
192,192,34479,1,0,0:0:0:0:
320,192,34563,1,0,0:0:0:0:
448,192,34563,1,0,0:0:0:0:
192,192,34729,1,0,0:0:0:0:
320,192,34729,1,0,0:0:0:0:
64,192,34896,1,0,0:0:0:0:
448,192,34896,1,0,0:0:0:0:
320,192,35063,1,0,0:0:0:0:
320,192,35229,1,0,0:0:0:0:
320,192,35396,1,0,0:0:0:0:
64,192,35563,1,0,0:0:0:0:
448,192,35563,1,0,0:0:0:0:
192,192,35729,1,0,0:0:0:0:
192,192,35896,1,0,0:0:0:0:
192,192,36063,1,0,0:0:0:0:
448,192,36229,1,0,0:0:0:0:
320,192,36313,1,0,0:0:0:0:
192,192,36396,1,0,0:0:0:0:
64,192,36479,1,0,0:0:0:0:
448,192,36563,1,0,0:0:0:0:
320,192,36646,1,0,0:0:0:0:
192,192,36729,1,0,0:0:0:0:
64,192,36813,1,0,0:0:0:0:
448,192,36896,1,0,0:0:0:0:
320,192,36979,1,0,0:0:0:0:
64,192,37063,1,0,0:0:0:0:
192,192,37063,1,0,0:0:0:0:
320,192,37146,1,0,0:0:0:0:
448,192,37229,1,0,0:0:0:0:
64,192,37313,1,0,0:0:0:0:
192,192,37313,1,0,0:0:0:0:
320,192,37396,1,0,0:0:0:0:
448,192,37479,1,0,0:0:0:0:
64,192,37563,1,0,0:0:0:0:
192,192,37563,1,0,0:0:0:0:
64,192,38396,1,0,0:0:0:0:
448,192,38396,1,0,0:0:0:0:
192,192,38563,1,0,0:0:0:0:
320,192,38563,1,0,0:0:0:0:
64,192,38896,1,0,0:0:0:0:
192,192,38896,1,0,0:0:0:0:
448,192,39063,1,0,0:0:0:0:
320,192,39063,1,0,0:0:0:0:
320,192,39229,1,0,0:0:0:0:
448,192,39229,1,0,0:0:0:0:
448,192,39396,1,0,0:0:0:0:
320,192,39396,1,0,0:0:0:0:
448,192,39563,1,0,0:0:0:0:
320,192,39563,1,0,0:0:0:0:
64,192,39813,1,0,0:0:0:0:
192,192,39896,1,0,0:0:0:0:
448,192,39896,1,0,0:0:0:0:
192,192,40063,128,0,40229:0:0:0:0:
64,192,40063,128,0,40229:0:0:0:0:
64,192,40396,1,0,0:0:0:0:
320,192,40396,1,0,0:0:0:0:
64,192,40563,1,0,0:0:0:0:
320,192,40563,1,0,0:0:0:0:
64,192,40729,1,0,0:0:0:0:
320,192,40729,1,0,0:0:0:0:
64,192,40896,1,0,0:0:0:0:
192,192,40896,1,0,0:0:0:0:
448,192,41146,1,0,0:0:0:0:
64,192,41229,1,0,0:0:0:0:
192,192,41229,1,0,0:0:0:0:
192,192,41396,128,0,41563:0:0:0:0:
320,192,41396,128,0,41563:0:0:0:0:
192,192,41729,1,0,0:0:0:0:
64,192,41729,1,0,0:0:0:0:
192,192,41896,1,0,0:0:0:0:
64,192,41896,1,0,0:0:0:0:
192,192,42063,1,0,0:0:0:0:
64,192,42063,1,0,0:0:0:0:
64,192,42229,1,0,0:0:0:0:
192,192,42229,1,0,0:0:0:0:
320,192,42479,1,0,0:0:0:0:
448,192,42563,1,0,0:0:0:0:
192,192,42563,1,0,0:0:0:0:
320,192,42729,128,0,42896:0:0:0:0:
64,192,42729,128,0,42896:0:0:0:0:
192,192,43063,1,0,0:0:0:0:
320,192,43063,1,0,0:0:0:0:
320,192,43229,1,0,0:0:0:0:
192,192,43229,1,0,0:0:0:0:
192,192,43396,1,0,0:0:0:0:
320,192,43396,1,0,0:0:0:0:
192,192,43563,1,0,0:0:0:0:
448,192,43563,1,0,0:0:0:0:
64,192,43813,1,0,0:0:0:0:
320,192,43896,1,0,0:0:0:0:
448,192,43896,1,0,0:0:0:0:
448,192,44063,128,0,44229:0:0:0:0:
320,192,44063,128,0,44229:0:0:0:0:
320,192,44396,1,0,0:0:0:0:
192,192,44396,1,0,0:0:0:0:
320,192,44563,1,0,0:0:0:0:
64,192,44563,1,0,0:0:0:0:
192,192,44563,1,0,0:0:0:0:
320,192,44729,1,0,0:0:0:0:
192,192,44729,1,0,0:0:0:0:
320,192,44896,1,0,0:0:0:0:
64,192,44896,1,0,0:0:0:0:
448,192,45146,1,0,0:0:0:0:
64,192,45229,1,0,0:0:0:0:
192,192,45229,1,0,0:0:0:0:
320,192,45229,1,0,0:0:0:0:
192,192,45396,128,0,45563:0:0:0:0:
64,192,45396,128,0,45563:0:0:0:0:
320,192,45729,1,0,0:0:0:0:
64,192,45729,1,0,0:0:0:0:
64,192,45896,1,0,0:0:0:0:
320,192,45896,1,0,0:0:0:0:
192,192,45896,1,0,0:0:0:0:
64,192,46063,1,0,0:0:0:0:
320,192,46063,1,0,0:0:0:0:
64,192,46229,1,0,0:0:0:0:
192,192,46229,1,0,0:0:0:0:
64,192,46479,1,0,0:0:0:0:
448,192,46563,1,0,0:0:0:0:
320,192,46563,1,0,0:0:0:0:
192,192,46563,1,0,0:0:0:0:
64,192,46729,128,0,46896:0:0:0:0:
448,192,46729,128,0,46896:0:0:0:0:
64,192,47063,1,0,0:0:0:0:
192,192,47063,1,0,0:0:0:0:
64,192,47229,1,0,0:0:0:0:
192,192,47229,1,0,0:0:0:0:
320,192,47229,1,0,0:0:0:0:
64,192,47396,1,0,0:0:0:0:
192,192,47396,1,0,0:0:0:0:
64,192,47563,1,0,0:0:0:0:
448,192,47563,1,0,0:0:0:0:
64,192,47813,1,0,0:0:0:0:
448,192,47896,1,0,0:0:0:0:
320,192,47896,1,0,0:0:0:0:
192,192,47896,1,0,0:0:0:0:
448,192,48063,128,0,48229:0:0:0:0:
320,192,48063,128,0,48229:0:0:0:0:
448,192,48396,1,0,0:0:0:0:
192,192,48396,1,0,0:0:0:0:
192,192,48563,1,0,0:0:0:0:
448,192,48563,1,0,0:0:0:0:
192,192,48729,1,0,0:0:0:0:
448,192,48729,1,0,0:0:0:0:
448,192,48896,1,0,0:0:0:0:
320,192,48979,1,0,0:0:0:0:
192,192,49063,1,0,0:0:0:0:
64,192,49146,1,0,0:0:0:0:
320,192,49229,1,0,0:0:0:0:
64,192,49313,1,0,0:0:0:0:
192,192,49313,1,0,0:0:0:0:
448,192,49396,1,0,0:0:0:0:
448,192,49563,1,0,0:0:0:0:
320,192,49563,1,0,0:0:0:0:
64,192,49729,1,0,0:0:0:0:
192,192,49729,1,0,0:0:0:0:
192,192,49896,1,0,0:0:0:0:
64,192,49896,1,0,0:0:0:0:
448,192,49896,1,0,0:0:0:0:
64,192,50063,1,0,0:0:0:0:
192,192,50063,1,0,0:0:0:0:
192,192,50229,1,0,0:0:0:0:
320,192,50229,1,0,0:0:0:0:
448,192,50479,1,0,0:0:0:0:
320,192,50563,1,0,0:0:0:0:
64,192,50563,1,0,0:0:0:0:
192,192,50563,1,0,0:0:0:0:
64,192,50729,128,0,50896:0:0:0:0:
192,192,50729,128,0,50896:0:0:0:0:
448,192,51063,1,0,0:0:0:0:
320,192,51063,1,0,0:0:0:0:
448,192,51229,1,0,0:0:0:0:
320,192,51229,1,0,0:0:0:0:
64,192,51229,1,0,0:0:0:0:
448,192,51396,1,0,0:0:0:0:
320,192,51396,1,0,0:0:0:0:
192,192,51563,1,0,0:0:0:0:
320,192,51563,1,0,0:0:0:0:
64,192,51813,1,0,0:0:0:0:
448,192,51896,1,0,0:0:0:0:
320,192,51896,1,0,0:0:0:0:
192,192,51896,1,0,0:0:0:0:
448,192,52063,128,0,52229:0:0:0:0:
320,192,52063,128,0,52229:0:0:0:0:
64,192,52396,1,0,0:0:0:0:
448,192,52396,1,0,0:0:0:0:
448,192,52563,1,0,0:0:0:0:
320,192,52563,1,0,0:0:0:0:
192,192,52563,1,0,0:0:0:0:
448,192,52729,1,0,0:0:0:0:
320,192,52729,1,0,0:0:0:0:
448,192,52896,1,0,0:0:0:0:
64,192,52896,1,0,0:0:0:0:
64,192,53146,1,0,0:0:0:0:
448,192,53229,1,0,0:0:0:0:
320,192,53229,1,0,0:0:0:0:
192,192,53229,1,0,0:0:0:0:
320,192,53396,128,0,53563:0:0:0:0:
192,192,53396,128,0,53563:0:0:0:0:
192,192,53729,1,0,0:0:0:0:
64,192,53729,1,0,0:0:0:0:
320,192,53896,1,0,0:0:0:0:
192,192,53896,1,0,0:0:0:0:
64,192,53896,1,0,0:0:0:0:
320,192,54063,1,0,0:0:0:0:
64,192,54063,1,0,0:0:0:0:
448,192,54229,1,0,0:0:0:0:
64,192,54229,1,0,0:0:0:0:
64,192,54479,1,0,0:0:0:0:
448,192,54563,1,0,0:0:0:0:
320,192,54563,1,0,0:0:0:0:
192,192,54563,1,0,0:0:0:0:
320,192,54729,128,0,54896:0:0:0:0:
448,192,54729,128,0,54896:0:0:0:0:
192,192,55063,1,0,0:0:0:0:
64,192,55063,1,0,0:0:0:0:
64,192,55229,1,0,0:0:0:0:
320,192,55229,1,0,0:0:0:0:
448,192,55229,1,0,0:0:0:0:
192,192,55396,1,0,0:0:0:0:
64,192,55396,1,0,0:0:0:0:
64,192,55563,1,0,0:0:0:0:
448,192,55563,1,0,0:0:0:0:
320,192,55813,1,0,0:0:0:0:
448,192,55896,1,0,0:0:0:0:
64,192,55896,1,0,0:0:0:0:
192,192,55896,1,0,0:0:0:0:
64,192,56063,128,0,56229:0:0:0:0:
448,192,56063,128,0,56229:0:0:0:0:
192,192,56396,1,0,0:0:0:0:
448,192,56396,1,0,0:0:0:0:
448,192,56563,1,0,0:0:0:0:
320,192,56563,1,0,0:0:0:0:
64,192,56563,1,0,0:0:0:0:
448,192,56729,1,0,0:0:0:0:
192,192,56729,1,0,0:0:0:0:
448,192,56896,1,0,0:0:0:0:
320,192,56896,1,0,0:0:0:0:
64,192,57146,1,0,0:0:0:0:
448,192,57229,1,0,0:0:0:0:
192,192,57229,1,0,0:0:0:0:
320,192,57229,1,0,0:0:0:0:
320,192,57396,128,0,57563:0:0:0:0:
448,192,57396,128,0,57563:0:0:0:0:
320,192,57729,1,0,0:0:0:0:
64,192,57729,1,0,0:0:0:0:
320,192,57896,1,0,0:0:0:0:
64,192,57896,1,0,0:0:0:0:
64,192,58063,1,0,0:0:0:0:
320,192,58063,1,0,0:0:0:0:
320,192,58229,1,0,0:0:0:0:
192,192,58229,1,0,0:0:0:0:
192,192,58479,1,0,0:0:0:0:
320,192,58563,1,0,0:0:0:0:
448,192,58563,1,0,0:0:0:0:
192,192,58729,128,0,58896:0:0:0:0:
448,192,59063,1,0,0:0:0:0:
448,192,59229,1,0,0:0:0:0:
448,192,59396,1,0,0:0:0:0:
64,192,59563,1,0,0:0:0:0:
192,192,59646,1,0,0:0:0:0:
320,192,59729,1,0,0:0:0:0:
448,192,59813,1,0,0:0:0:0:
64,192,59896,1,0,0:0:0:0:
192,192,59979,1,0,0:0:0:0:
320,192,60063,1,0,0:0:0:0:
448,192,60146,1,0,0:0:0:0:
64,192,60229,1,0,0:0:0:0:
192,192,60229,1,0,0:0:0:0:
