osu file format v14

[General]
AudioFilename: audio.mp3
AudioLeadIn: 0
PreviewTime: 263961
Countdown: 0
SampleSet: Soft
StackLeniency: 0.5
Mode: 0
LetterboxInBreaks: 0
WidescreenStoryboard: 0

[Editor]
Bookmarks: 244863,257421,288118,300677,309049
DistanceSpacing: 1
BeatDivisor: 4
GridSize: 8
TimelineZoom: 2.6

[Metadata]
Title:Junpaku*study time
TitleUnicode:純白☆study time
Artist:Casandra
ArtistUnicode:カサンドラ
Creator:wafer
Version:Semi Big Girl!
Source:Lowすぺっく!?~オレと年下妹とせいきょーいく!~
Tags:japanese videogame video game metal eroge visual novel loli hentai 下地和彦 新井健史 Low Spec!? ~Ore to Toshishita Imouto to Seikyouiku!~ SLG Semi Little Girl kami no kotoba goopert dog food door weapon もっとずっとすたでぃ!
BeatmapID:2884952
BeatmapSetID:1398097

[Difficulty]
HPDrainRate:5
CircleSize:4.2
OverallDifficulty:9.2
ApproachRate:9.4
SliderMultiplier:1.4
SliderTickRate:1

[Events]
//Background and Video events
0,0,"girlsstudying.jpg",0,0
//Break Periods
2,185063,189904
//Storyboard Layer 0 (Background)
//Storyboard Layer 1 (Fail)
//Storyboard Layer 2 (Pass)
//Storyboard Layer 3 (Foreground)
//Storyboard Layer 4 (Overlay)
//Storyboard Sound Samples

[TimingPoints]
677,348.837209302326,4,2,21,30,1,0
20909,-100,4,2,34,5,0,0
21607,-100,4,2,34,70,0,0
27188,-83.3333333333333,4,2,34,60,0,0
31374,-83.3333333333333,4,2,34,60,0,0
31549,-71.4285714285714,4,2,34,60,0,0
32769,-71.4285714285714,4,2,34,65,0,0
36956,-62.5,4,2,34,65,0,0
38351,-71.4285714285714,4,2,34,65,0,0
43932,-100,4,2,34,60,0,0
66083,-100,4,2,34,50,0,0
66258,-133.333333333333,4,2,34,55,0,0
77333,-133.333333333333,4,2,34,5,0,0
77420,-133.333333333333,4,2,34,60,0,0
82304,-133.333333333333,4,2,34,30,0,0
82653,-133.333333333333,4,2,34,70,0,0
83002,-62.5,4,2,34,75,0,1
92770,-66.6666666666667,4,2,34,75,0,0
93816,-66.6666666666667,4,2,34,75,0,0
94165,-62.5,4,2,34,75,0,1
102537,-66.6666666666667,4,2,34,75,0,0
102711,-66.6666666666667,4,2,34,75,0,0
103758,-66.6666666666667,4,2,34,75,0,0
105328,-66.6666666666667,4,2,34,75,0,0
107421,-66.6666666666667,4,2,34,70,0,0
108118,-62.5,4,2,34,65,0,0
118583,-133.333333333333,4,2,34,60,0,0
118932,-133.333333333333,4,2,34,60,0,0
119281,-200,4,2,21,50,0,0
129746,-200,4,2,34,55,0,0
130444,-83.3333333333333,4,2,34,60,0,0
131839,-66.6666666666667,4,2,34,60,0,0
142828,-66.6666666666667,4,2,34,50,0,0
143002,-100,4,2,34,55,0,0
154077,-66.6666666666667,4,2,34,55,0,0
154165,-66.6666666666667,4,2,34,60,0,0
159049,-66.6666666666667,4,2,34,40,0,0
159397,-133.333333333333,4,2,34,70,0,0
159746,-62.5,4,2,34,75,0,1
169514,-66.6666666666667,4,2,34,75,0,0
170735,-66.6666666666667,4,2,34,75,0,0
170909,-62.5,4,2,34,75,0,1
179456,-66.6666666666667,4,2,34,75,0,0
180502,-66.6666666666667,4,2,34,75,0,0
183467,-66.6666666666667,4,2,34,70,0,0
190444,-83.3333333333333,4,2,34,60,0,0
194630,-71.4285714285714,4,2,34,60,0,0
196025,-62.5,4,2,34,70,0,0
207188,-66.6666666666667,4,2,34,80,0,1
228118,-66.6666666666667,4,2,34,80,0,0
229514,-66.6666666666667,4,2,34,80,0,1
235095,-58.8235294117647,4,2,34,80,0,1
240677,-250,4,2,34,80,0,1
244863,-250,4,2,99,60,0,0
246258,-66.6666666666667,4,2,34,50,0,0
257421,-66.6666666666667,4,2,34,60,0,0
264397,-62.5,4,2,34,75,0,1
274165,-100,4,2,34,75,0,0
275386,-100,4,2,34,75,0,0
275560,-62.5,4,2,34,75,0,1
284107,-62.5,4,2,34,75,0,1
285153,-62.5,4,2,34,75,0,1
285328,-66.6666666666667,4,2,34,75,0,0
289514,-62.5,4,2,34,65,0,0

[Colours]
Combo1 : 255,174,215
Combo2 : 255,255,128
Combo3 : 128,255,128
Combo4 : 125,190,255

[HitObjects]
37,50,328,5,2,0:0:0:0:
115,29,502,1,2,0:0:0:0:
198,98,677,6,0,B|268:90|268:90|270:84|270:84|358:75,1,140,6|8,1:2|0:0,0:0:0:0:
441,59,1200,1,2,0:0:0:0:
277,258,1549,5,2,3:2:0:0:
198,98,1723,1,10,0:0:0:0:
356,162,1897,1,2,0:0:0:0:
356,162,2072,6,0,B|286:170|286:170|284:176|284:176|196:185,1,140,2|8,1:2|0:0,0:0:0:0:
125,136,2595,1,0,3:2:0:0:
125,136,2682,1,0,3:2:0:0:
125,136,2770,1,2,3:2:0:0:
273,256,3118,5,10,0:0:0:0:
356,162,3293,1,2,0:0:0:0:
301,323,3467,1,2,1:2:0:0:
245,188,3642,1,2,0:0:0:0:
404,249,3816,1,10,0:0:0:0:
226,314,3991,1,2,0:0:0:0:
435,178,4165,1,0,3:2:0:0:
364,384,4339,1,0,3:2:0:0:
364,384,4427,1,0,3:2:0:0:
364,384,4514,1,10,0:0:0:0:
240,188,4688,6,0,B|170:196|170:196|168:202|168:202|80:211,1,140,2|0,1:2|0:0,0:0:0:0:
3,116,5211,1,8,0:0:0:0:
77,285,5386,1,2,0:0:0:0:
129,131,5560,1,0,3:2:0:0:
129,131,5735,1,2,0:0:0:0:
11,216,5909,1,10,0:0:0:0:
160,293,6083,1,2,3:2:0:0:
160,293,6171,1,0,3:2:0:0:
160,293,6258,6,0,B|230:301|230:301|232:307|232:307|320:316,1,140,6|8,1:2|0:0,0:0:0:0:
403,332,6781,1,2,0:0:0:0:
281,145,7130,5,2,3:2:0:0:
160,293,7304,1,10,0:0:0:0:
318,229,7478,1,2,0:0:0:0:
318,229,7653,6,0,B|248:221|248:221|246:215|246:215|158:206,1,140,2|8,1:2|0:0,0:0:0:0:
108,106,8177,1,0,3:2:0:0:
108,106,8264,1,0,3:2:0:0:
108,106,8352,1,0,3:2:0:0:
160,293,8699,5,10,0:0:0:0:
249,183,8874,1,2,0:0:0:0:
309,308,9048,1,2,3:2:0:0:
163,200,9223,1,2,0:0:0:0:
244,350,9397,2,0,L|238:396,3,35,2|2|2|2,1:0|0:0|0:0|0:0,0:0:0:0:
309,308,9746,2,0,L|395:299,1,70,2|0,0:0|0:0,0:0:0:0:
163,200,10095,6,0,L|155:148,3,35,2|2|2|2,1:0|0:0|0:0|0:0,0:0:0:0:
134,267,10444,2,0,B|64:275|64:275|62:281|62:281|-26:290,1,140,2|8,0:0|0:0,0:0:0:0:
84,145,10967,1,0,3:0:0:0:
208,280,11141,1,2,0:0:0:0:
258,179,11316,2,0,L|251:111,2,35,2|0|0,1:0|3:0|3:0,0:0:0:0:
378,267,11664,1,2,1:0:0:0:
378,267,11752,1,2,1:0:0:0:
378,267,11839,6,0,B|448:275|448:275|450:281|450:281|538:290,1,140,6|8,1:2|0:0,0:0:0:0:
472,175,12363,1,2,0:0:0:0:
356,351,12711,5,2,3:2:0:0:
341,157,12885,1,10,0:0:0:0:
512,287,13059,1,2,0:0:0:0:
299,223,13234,6,0,B|229:231|229:231|227:237|227:237|139:246,1,140,2|8,1:2|0:0,0:0:0:0:
79,324,13757,1,0,3:2:0:0:
79,324,13844,1,0,3:2:0:0:
79,324,13932,1,0,3:2:0:0:
188,120,14280,5,10,0:0:0:0:
283,307,14455,1,2,0:0:0:0:
103,204,14629,1,2,3:2:0:0:
299,223,14804,1,2,0:0:0:0:
72,322,14978,1,10,0:0:0:0:
266,146,15153,1,2,0:0:0:0:
184,346,15328,6,0,L|186:374,11,23.3333333333333,2|0|0|0|0|0|0|0|0|0|0|0,1:0|0:0|0:0|0:0|0:0|0:0|0:0|0:0|0:0|0:0|0:0|0:0,0:0:0:0:
256,192,16025,12,0,20909,0:0:0:0:
39,36,21607,5,14,0:1:0:0:
96,152,23002,5,14,0:1:0:0:
153,36,24397,5,14,0:1:0:0:
39,36,25792,5,14,0:1:0:0:
120,221,25967,1,2,0:0:0:0:
157,154,26142,1,2,0:0:0:0:
46,219,26317,1,0,0:0:0:0:
197,221,26490,1,2,0:0:0:0:
83,155,26665,1,0,0:0:0:0:
165,289,26839,1,2,0:0:0:0:
165,289,27014,1,2,0:0:0:0:
234,151,27188,6,0,L|351:142,1,83.9999974365235,14|2,0:1|0:0,0:0:0:0:
384,192,27450,1,2,0:0:0:0:
384,192,27537,1,8,3:1:0:0:
309,64,27711,2,0,L|192:73,1,83.9999974365235,2|8,0:0|3:1,0:0:0:0:
120,221,28060,5,0,0:0:0:0:
65,32,28235,1,8,3:1:0:0:
167,115,28409,1,2,0:0:0:0:
6,214,28583,1,10,3:1:0:0:
199,276,28758,1,2,0:0:0:0:
199,276,28845,1,2,0:0:0:0:
199,276,28932,1,10,3:1:0:0:
85,111,29107,6,0,P|90:162|94:228,1,83.9999974365235,2|8,0:0|3:1,0:0:0:0:
272,384,29456,2,0,P|274:339|281:267,1,83.9999974365235,2|8,0:0|3:1,0:0:0:0:
354,139,29804,1,2,0:0:0:0:
180,191,29979,5,10,3:1:0:0:
382,277,30153,1,2,0:0:0:0:
382,277,30241,1,2,0:0:0:0:
382,277,30328,1,10,3:1:0:0:
288,91,30502,6,0,L|171:82,1,83.9999974365235,2|8,0:0|3:1,0:0:0:0:
18,286,30851,2,0,L|135:277,1,83.9999974365235,2|8,0:0|3:1,0:0:0:0:
204,84,31200,1,2,0:0:0:0:
277,300,31374,1,4,3:3:0:0:
412,83,31549,6,0,P|338:94|327:96,1,48.9999985046387,8|8,0:3|0:3,0:0:0:0:
177,159,31723,2,0,P|251:170|262:172,1,48.9999985046387,4|4,0:3|0:3,0:0:0:0:
430,270,31897,2,0,P|356:281|345:283,1,48.9999985046387,4|0,0:3|0:0,0:0:0:0:
204,84,32072,6,0,P|228:87|253:91,1,48.9999985046387,8|8,0:3|0:3,0:0:0:0:
422,194,32246,2,0,P|398:197|374:201,1,48.9999985046387,8|8,0:3|0:3,0:0:0:0:
211,254,32420,2,0,P|137:243|126:241,3,48.9999985046387,4|4|4|4,0:3|0:3|0:3|0:3,0:0:0:0:
88,305,32770,5,14,0:1:0:0:
53,304,32857,1,8,0:1:0:0:
25,284,32944,1,8,0:1:0:0:
14,251,33031,1,8,0:1:0:0:
25,218,33118,1,8,3:2:0:0:
52,197,33206,1,8,0:1:0:0:
88,182,33293,5,10,0:1:0:0:
123,143,33380,1,8,0:1:0:0:
121,91,33467,1,8,3:2:0:0:
81,56,33554,1,8,0:1:0:0:
28,63,33642,5,10,0:1:0:0:
29,75,33729,1,8,0:1:0:0:
30,87,33816,1,8,3:2:0:0:
32,99,33903,1,8,0:1:0:0:
33,111,33990,1,10,0:1:0:0:
34,123,34078,1,8,0:1:0:0:
42,161,34165,5,10,3:2:0:0:
73,183,34252,1,8,0:1:0:0:
111,192,34339,1,8,0:1:0:0:
149,185,34426,1,8,0:1:0:0:
182,164,34513,1,8,3:2:0:0:
204,132,34601,1,8,0:1:0:0:
233,94,34688,5,10,0:1:0:0:
282,57,34775,1,8,0:1:0:0:
343,48,34862,1,8,3:2:0:0:
401,68,34949,1,8,0:1:0:0:
424,99,35037,5,10,0:1:0:0:
423,111,35124,1,8,0:1:0:0:
422,123,35211,1,8,3:2:0:0:
420,135,35298,1,8,0:1:0:0:
419,147,35385,1,10,0:1:0:0:
418,159,35473,1,8,0:1:0:0:
411,197,35560,5,10,3:2:0:0:
380,219,35647,1,8,0:1:0:0:
342,228,35734,1,8,0:1:0:0:
304,221,35821,1,8,0:1:0:0:
271,200,35908,1,8,3:2:0:0:
249,168,35996,1,8,0:1:0:0:
226,136,36083,5,10,0:1:0:0:
177,99,36170,1,8,0:1:0:0:
116,90,36257,1,8,3:2:0:0:
58,110,36344,1,8,0:1:0:0:
35,141,36432,5,10,0:1:0:0:
36,153,36519,1,8,0:1:0:0:
37,165,36606,1,8,3:2:0:0:
39,177,36693,1,8,0:1:0:0:
40,189,36780,1,10,0:1:0:0:
41,201,36868,1,8,0:1:0:0:
44,212,36956,6,0,L|56:289,1,56,14|8,3:2|0:1,0:0:0:0:
265,355,37130,2,0,L|277:278,1,56,10|8,0:1|0:1,0:0:0:0:
206,77,37304,6,0,L|129:89,1,56,10|8,3:2|0:1,0:0:0:0:
120,316,37478,2,0,L|197:304,1,56,10|8,0:1|0:1,0:0:0:0:
328,155,37653,6,0,L|320:100,1,56,10|8,3:2|0:1,0:0:0:0:
493,272,37827,2,0,L|505:195,1,56,10|8,0:1|0:1,0:0:0:0:
460,57,38002,6,0,L|383:69,1,56,10|8,3:2|0:1,0:0:0:0:
283,224,38176,2,0,L|360:236,1,56,10|8,0:1|0:1,0:0:0:0:
502,346,38351,5,14,0:1:0:0:
472,350,38438,1,8,0:1:0:0:
443,355,38525,1,8,0:1:0:0:
414,359,38612,1,8,0:1:0:0:
385,364,38699,1,8,3:2:0:0:
356,368,38787,1,8,0:1:0:0:
317,371,38874,5,10,0:1:0:0:
275,346,38961,1,8,0:1:0:0:
255,302,39048,1,8,3:2:0:0:
265,255,39135,1,8,0:1:0:0:
301,223,39223,5,10,0:1:0:0:
300,211,39310,1,8,0:1:0:0:
299,199,39397,1,8,3:2:0:0:
297,187,39484,1,8,0:1:0:0:
296,175,39571,1,10,0:1:0:0:
295,163,39659,1,8,0:1:0:0:
293,138,39746,5,10,3:2:0:0:
277,110,39833,1,8,0:1:0:0:
252,92,39920,1,8,0:1:0:0:
221,87,40007,1,8,0:1:0:0:
192,97,40094,1,8,3:2:0:0:
169,118,40182,1,8,0:1:0:0:
141,148,40270,5,10,0:1:0:0:
94,185,40357,1,8,0:1:0:0:
34,176,40444,1,8,3:2:0:0:
2,126,40531,1,8,0:1:0:0:
14,68,40618,1,10,0:1:0:0:
66,38,40706,1,8,0:1:0:0:
126,54,40793,1,10,3:2:0:0:
180,94,40880,1,10,0:1:0:0:
244,99,40967,1,10,0:1:0:0:
304,72,41054,1,10,0:1:0:0:
341,17,41141,1,14,3:2:0:0:
341,17,41665,5,8,0:1:0:0:
368,296,41839,1,14,0:0:0:0:
368,296,42363,5,8,0:1:0:0:
268,65,42537,1,14,0:0:0:0:
486,124,42711,1,10,0:1:0:0:
228,244,42886,5,14,0:0:0:0:
404,9,43060,1,8,0:1:0:0:
476,307,43235,1,14,0:0:0:0:
476,307,43932,5,14,0:1:0:0:
459,308,44019,1,8,0:1:0:0:
443,309,44106,1,10,0:1:0:0:
426,311,44193,1,8,0:1:0:0:
410,312,44280,1,10,3:2:0:0:
393,314,44368,1,8,0:1:0:0:
377,315,44455,1,10,0:1:0:0:
360,316,44542,1,8,0:1:0:0:
346,327,44630,5,10,3:2:0:0:
329,326,44717,1,8,0:1:0:0:
313,325,44804,1,8,0:1:0:0:
296,323,44891,1,8,0:1:0:0:
280,322,44978,1,10,3:2:0:0:
263,320,45066,1,8,0:1:0:0:
247,319,45153,1,10,0:1:0:0:
230,318,45240,1,8,0:1:0:0:
212,313,45328,6,0,L|201:254,3,35,10|8|8|8,3:2|0:1|0:1|0:1,0:0:0:0:
102,190,45677,2,0,L|91:249,3,35,10|8|8|8,3:2|0:1|0:1|0:1,0:0:0:0:
240,119,46025,6,0,L|229:60,1,35,10|8,3:2|0:1,0:0:0:0:
125,15,46200,2,0,L|114:74,1,35,10|8,0:1|0:1,0:0:0:0:
187,177,46374,6,0,L|176:236,1,35,10|8,3:2|0:1,0:0:0:0:
56,125,46549,2,0,L|45:66,1,35,10|8,0:1|0:1,0:0:0:0:
138,288,46723,6,0,L|127:347,7,35,14|8|8|8|8|8|8|8,3:2|0:1|0:1|0:1|3:2|0:1|0:1|0:1,0:0:0:0:
264,195,47421,5,14,3:2:0:0:
311,173,47508,1,8,0:1:0:0:
363,177,47595,1,8,0:1:0:0:
406,206,47682,1,8,0:1:0:0:
434,247,47770,1,8,3:2:0:0:
456,263,47857,1,8,0:1:0:0:
483,259,47944,1,8,0:1:0:0:
504,241,48031,1,8,0:1:0:0:
512,219,48118,6,0,L|502:162,3,35,14|8|8|8,3:2|0:1|0:1|0:1,0:0:0:0:
340,99,48467,2,0,L|350:42,3,35,14|8|8|8,3:2|0:1|0:1|0:1,0:0:0:0:
265,142,48816,5,14,3:2:0:0:
223,128,48903,1,8,0:1:0:0:
180,134,48990,1,8,0:1:0:0:
144,158,49077,1,8,0:1:0:0:
123,196,49165,1,8,3:2:0:0:
106,226,49252,1,8,0:1:0:0:
77,245,49339,1,8,0:1:0:0:
43,248,49426,1,8,0:1:0:0:
16,234,49514,5,14,3:2:0:0:
15,217,49601,1,8,0:1:0:0:
14,201,49688,1,10,0:1:0:0:
12,184,49775,1,8,0:1:0:0:
11,168,49862,1,10,3:2:0:0:
9,151,49950,1,8,0:1:0:0:
8,135,50037,1,10,0:1:0:0:
7,118,50124,1,8,0:1:0:0:
7,99,50211,5,10,3:2:0:0:
16,81,50298,1,8,0:1:0:0:
31,68,50385,1,8,0:1:0:0:
49,59,50472,1,8,0:1:0:0:
69,56,50559,1,10,3:2:0:0:
88,60,50647,1,8,0:1:0:0:
106,69,50734,1,10,0:1:0:0:
120,84,50821,1,8,0:1:0:0:
135,97,50910,6,0,L|194:86,3,35,10|8|8|8,3:2|0:1|0:1|0:1,0:0:0:0:
300,14,51259,2,0,L|241:3,3,35,10|8|8|8,3:2|0:1|0:1|0:1,0:0:0:0:
223,174,51607,6,0,L|188:167,1,35,10|8,3:2|0:1,0:0:0:0:
361,66,51782,2,0,L|395:59,1,35,10|8,0:1|0:1,0:0:0:0:
293,247,51956,5,10,3:2:0:0:
269,250,52043,1,8,0:1:0:0:
245,253,52130,1,8,0:1:0:0:
221,256,52217,1,8,0:1:0:0:
193,262,52304,6,0,L|203:319,3,35,14|8|8|8,3:2|0:1|0:1|0:1,0:0:0:0:
304,132,52653,5,8,3:2:0:0:
331,136,52740,1,8,0:1:0:0:
357,140,52827,1,8,0:1:0:0:
383,142,52914,1,8,0:1:0:0:
415,148,53002,5,14,3:2:0:0:
456,159,53089,1,8,0:1:0:0:
483,192,53176,1,8,0:1:0:0:
485,235,53263,1,8,0:1:0:0:
461,271,53351,1,8,3:2:0:0:
419,282,53438,1,8,0:1:0:0:
381,262,53525,1,8,0:1:0:0:
367,222,53612,1,8,0:1:0:0:
383,183,53700,6,0,L|374:125,1,35,10|8,3:2|0:1,0:0:0:0:
490,25,53874,2,0,L|480:83,1,35,10|8,0:1|0:1,0:0:0:0:
261,65,54049,6,0,L|319:55,1,35,10|8,3:2|0:1,0:0:0:0:
506,145,54223,2,0,L|447:135,1,35,10|8,0:1|0:1,0:0:0:0:
309,269,54397,5,10,3:2:0:0:
262,253,54484,1,8,0:1:0:0:
215,260,54571,1,10,0:1:0:0:
175,286,54658,1,8,0:1:0:0:
144,306,54746,1,10,3:2:0:0:
93,300,54833,1,8,0:1:0:0:
70,255,54920,1,10,0:1:0:0:
95,211,55007,1,8,0:1:0:0:
150,201,55095,5,14,3:2:0:0:
167,202,55182,1,8,0:1:0:0:
183,203,55269,1,10,0:1:0:0:
200,205,55356,1,8,0:1:0:0:
216,206,55443,1,10,3:2:0:0:
233,208,55531,1,8,0:1:0:0:
249,209,55618,1,10,0:1:0:0:
266,210,55705,1,8,0:1:0:0:
280,221,55793,5,10,3:2:0:0:
297,220,55880,1,8,0:1:0:0:
313,219,55967,1,10,0:1:0:0:
330,217,56054,1,8,0:1:0:0:
346,216,56141,1,10,3:2:0:0:
363,214,56229,1,8,0:1:0:0:
379,213,56316,1,10,0:1:0:0:
396,212,56403,1,8,0:1:0:0:
414,210,56491,6,0,L|425:151,3,35,10|8|10|8,3:2|0:1|0:1|0:1,0:0:0:0:
512,100,56839,2,0,L|506:66,3,35,10|8|10|8,3:2|0:1|0:1|0:1,0:0:0:0:
392,34,57188,6,0,L|403:-25,1,35,10|8,3:2|0:1,0:0:0:0:
498,182,57363,2,0,L|509:241,1,35,10|8,0:1|0:1,0:0:0:0:
337,121,57537,6,0,L|278:132,1,35,10|8,3:2|0:1,0:0:0:0:
471,72,57711,2,0,L|530:61,1,35,10|8,0:1|0:1,0:0:0:0:
369,272,57886,5,14,3:2:0:0:
334,268,57973,1,8,0:1:0:0:
299,265,58060,1,8,0:1:0:0:
264,262,58147,1,8,0:1:0:0:
229,259,58235,1,8,3:2:0:0:
187,267,58322,1,8,0:1:0:0:
165,303,58409,1,8,0:1:0:0:
176,344,58496,1,8,0:1:0:0:
214,363,58583,6,0,L|262:358,3,35,14|8|8|8,3:2|0:1|0:1|0:1,0:0:0:0:
103,239,58932,2,0,L|55:233,3,35,10|8|8|8,3:2|0:1|0:1|0:1,0:0:0:0:
197,137,59281,5,14,3:2:0:0:
232,133,59368,1,8,0:1:0:0:
267,130,59455,1,8,0:1:0:0:
302,127,59542,1,8,0:1:0:0:
337,124,59630,5,14,3:2:0:0:
373,89,59717,1,8,0:1:0:0:
367,38,59804,1,8,0:1:0:0:
324,13,59891,1,8,0:1:0:0:
271,30,59979,5,14,3:2:0:0:
257,72,60066,1,8,0:1:0:0:
263,115,60153,1,8,0:1:0:0:
287,151,60240,1,8,0:1:0:0:
325,172,60328,1,8,3:2:0:0:
355,189,60415,1,8,0:1:0:0:
374,218,60502,1,8,0:1:0:0:
377,252,60589,1,8,0:1:0:0:
361,275,60677,5,8,3:2:0:0:
344,276,60764,1,8,0:1:0:0:
328,277,60851,1,10,0:1:0:0:
311,279,60938,1,8,0:1:0:0:
295,280,61025,1,10,3:2:0:0:
278,282,61113,1,8,0:1:0:0:
262,283,61200,1,10,0:1:0:0:
245,284,61287,1,8,0:1:0:0:
231,295,61375,5,10,3:2:0:0:
214,294,61462,1,8,0:1:0:0:
198,293,61549,1,10,0:1:0:0:
181,291,61636,1,8,0:1:0:0:
165,290,61723,1,10,3:2:0:0:
148,288,61811,1,8,0:1:0:0:
132,287,61898,1,10,0:1:0:0:
115,286,61985,1,8,0:1:0:0:
100,285,62072,5,6,3:3:0:0:
67,275,62159,1,4,0:3:0:0:
47,246,62246,1,4,0:3:0:0:
50,212,62333,1,4,0:3:0:0:
75,188,62421,1,8,0:1:0:0:
107,160,62508,1,8,0:1:0:0:
110,117,62595,1,8,0:1:0:0:
82,85,62682,1,8,0:1:0:0:
39,82,62770,6,0,L|-14:75,1,35,6|4,0:3|0:3,0:0:0:0:
166,208,62944,2,0,L|219:215,1,35,6|4,0:3|0:3,0:0:0:0:
233,18,63118,1,8,0:3:0:0:
283,2,63205,1,8,0:3:0:0:
332,19,63292,1,8,0:3:0:0:
362,61,63379,1,8,0:3:0:0:
361,113,63466,5,14,0:0:0:0:
361,113,63990,5,8,0:1:0:0:
313,336,64164,1,14,0:0:0:0:
313,336,64688,5,8,0:1:0:0:
213,105,64862,1,14,0:0:0:0:
431,164,65036,1,10,0:1:0:0:
173,284,65211,5,14,0:0:0:0:
349,49,65385,1,8,0:1:0:0:
428,328,65560,1,14,0:0:0:0:
435,335,66083,5,2,0:0:0:0:
435,335,66171,1,2,0:0:0:0:
435,335,66258,2,0,B|465:302|465:302|453:218,1,105.000004005432,14|0,0:1|0:0,0:0:0:0:
386,113,66781,1,8,0:1:0:0:
301,226,66956,2,0,P|338:221|361:217,1,52.5000020027161,2|8,0:0|0:1,0:0:0:0:
511,135,67304,2,0,P|474:130|451:126,1,52.5000020027161,10|0,0:0|0:0,0:0:0:0:
262,80,67653,6,0,B|232:113|232:113|253:188,1,105.000004005432,10|8,0:1|0:0,0:0:0:0:
326,304,68177,1,2,0:0:0:0:
326,304,68264,1,2,0:0:0:0:
326,304,68351,1,2,0:0:0:0:
352,218,68525,1,8,0:1:0:0:
237,336,68700,2,0,L|167:340,1,52.5000020027161,10|0,0:0|0:0,0:0:0:0:
79,235,69049,5,10,0:1:0:0:
248,171,69223,1,2,0:0:0:0:
54,160,69397,5,10,0:0:0:0:
258,250,69571,1,10,0:1:0:0:
20,284,69746,5,2,0:0:0:0:
171,162,69920,1,10,0:1:0:0:
29,84,70095,1,10,0:0:0:0:
156,237,70269,1,2,0:0:0:0:
227,74,70444,6,0,L|345:64,1,105.000004005432,10|8,0:1|0:0,0:0:0:0:
186,3,70967,1,10,0:1:0:0:
271,153,71142,1,0,1:2:0:0:
271,153,71230,1,0,1:2:0:0:
271,153,71316,1,0,1:2:0:0:
367,0,71490,1,14,0:0:0:0:
227,75,71665,1,2,0:0:0:0:
392,116,71839,6,0,B|444:118|444:118|452:123|452:123|509:126,1,105.000004005432,14|8,0:1|0:0,0:0:0:0:
445,35,72363,1,10,0:1:0:0:
445,35,72711,5,10,0:1:0:0:
347,177,72886,1,10,0:0:0:0:
496,126,73060,1,2,0:0:0:0:
330,65,73235,6,0,L|268:71,1,52.5000020027161,10|8,0:1|0:1,0:0:0:0:
183,124,73583,1,10,0:0:0:0:
100,0,73758,2,0,B|72:24|72:24|97:87,1,105.000004005432,10|8,0:1|0:1,0:0:0:0:
268,147,74281,1,10,0:0:0:0:
268,147,74456,1,2,0:0:0:0:
143,211,74630,6,0,L|81:220,1,52.5000020027161,10|0,0:1|0:0,0:0:0:0:
184,134,74979,1,10,0:0:0:0:
178,290,75153,1,10,0:1:0:0:
97,87,75328,5,2,0:0:0:0:
225,219,75502,2,0,L|287:228,1,52.5000020027161,10|8,0:1|0:0,0:0:0:0:
97,291,75851,6,0,B|51:300|51:300|48:308|48:308|-7:316,1,105.000004005432,2|8,1:2|0:1,0:0:0:0:
143,211,76374,1,10,0:0:0:0:
137,355,76549,1,2,0:0:0:0:
53,199,76723,1,4,0:3:0:0:
235,294,76898,1,4,0:3:0:0:
0,315,77072,1,14,0:0:0:0:
276,110,77421,5,14,0:1:0:0:
276,110,79688,5,10,0:1:0:0:
385,299,79863,1,10,0:0:0:0:
416,80,80037,1,10,0:0:0:0:
250,201,80211,5,14,0:1:0:0:
476,232,80386,1,2,0:0:0:0:
331,46,80560,1,10,0:0:0:0:
385,299,80735,1,2,0:0:0:0:
427,30,80909,5,10,0:1:0:0:
298,262,81084,1,10,0:1:0:0:
495,149,81258,1,10,0:0:0:0:
254,64,81433,1,10,0:1:0:0:
342,360,81607,5,14,0:0:0:0:
496,68,81781,1,10,0:0:0:0:
166,185,81956,1,14,0:0:0:0:
512,236,82130,1,10,0:0:0:0:
252,33,82304,5,2,0:0:0:0:
253,47,82391,1,2,0:0:0:0:
254,60,82478,1,2,0:0:0:0:
255,73,82565,1,2,0:0:0:0:
257,86,82653,2,2,L|256:121,3,26.2500010013581,2|0|0|0,3:1|0:1|0:1|0:1,0:1:0:0:
166,185,83002,6,0,P|110:178|43:167,1,112,14|8,0:1|3:2,0:0:0:0:
242,332,83351,1,8,0:1:0:0:
316,154,83525,2,0,B|384:109|434:180|388:161|464:239|515:186,1,224,14|8,3:2|3:2,0:0:0:0:
396,21,84049,5,10,0:1:0:0:
285,230,84223,1,10,3:2:0:0:
163,5,84397,6,0,P|178:69|185:130,1,112,14|8,0:1|3:2,0:0:0:0:
373,268,84746,1,10,0:1:0:0:
269,45,84921,1,14,3:2:0:0:
165,257,85095,1,8,0:1:0:0:
165,257,85182,1,8,0:1:0:0:
165,257,85270,1,8,3:2:0:0:
328,156,85444,1,10,0:1:0:0:
183,114,85618,1,10,3:2:0:0:
373,268,85793,5,14,0:1:0:0:
439,45,85967,1,10,3:2:0:0:
448,349,86142,5,10,0:1:0:0:
361,75,86316,1,10,3:2:0:0:
280,350,86490,5,10,0:1:0:0:
509,182,86665,1,10,3:2:0:0:
283,33,86839,1,8,0:1:0:0:
283,33,86927,1,8,0:1:0:0:
283,33,87014,1,10,3:2:0:0:
403,250,87188,5,14,0:1:0:0:
453,261,87275,1,2,0:0:0:0:
497,233,87363,1,10,0:0:0:0:
509,182,87450,1,2,0:0:0:0:
480,138,87537,1,6,3:2:0:0:
429,126,87624,1,2,0:0:0:0:
385,155,87711,1,10,0:0:0:0:
374,206,87799,1,2,0:0:0:0:
359,233,87886,1,10,0:1:0:0:
333,251,87973,1,10,0:1:0:0:
301,249,88060,1,10,0:1:0:0:
271,238,88147,1,10,0:1:0:0:
247,216,88235,5,4,0:3:0:0:
210,178,88322,1,4,0:3:0:0:
161,161,88409,1,4,0:3:0:0:
109,167,88496,1,4,0:3:0:0:
65,195,88583,6,0,B|41:233|41:233|75:293,1,112,14|8,0:1|3:2,0:0:0:0:
234,383,88933,1,10,0:1:0:0:
310,169,89107,2,0,B|373:130|428:195|382:176|458:254|510:207,1,224,14|8,3:2|3:2,0:0:0:0:
359,33,89630,5,10,0:1:0:0:
255,270,89805,1,10,3:2:0:0:
509,207,89979,6,0,P|499:156|481:93,1,112,14|8,0:1|3:2,0:0:0:0:
257,32,90328,1,10,0:1:0:0:
350,288,90502,1,14,3:2:0:0:
461,26,90677,1,8,0:1:0:0:
461,26,90764,1,8,0:1:0:0:
461,26,90851,1,8,3:2:0:0:
231,157,91025,1,10,0:1:0:0:
417,206,91200,1,10,3:2:0:0:
286,36,91374,5,10,0:1:0:0:
238,15,91461,1,8,0:1:0:0:
188,26,91548,1,8,0:1:0:0:
154,65,91635,1,8,0:1:0:0:
150,116,91723,2,0,L|162:191,3,56,14|2|2|2,0:0|0:0|0:0|0:0,0:0:0:0:
115,255,92072,5,10,0:1:0:0:
162,276,92159,1,8,0:1:0:0:
212,265,92246,1,8,0:1:0:0:
246,226,92333,1,8,0:1:0:0:
250,175,92421,2,0,L|239:100,1,56,14|0,0:0|0:0,0:0:0:0:
373,13,92595,2,0,L|358:95,1,56,2|0,0:0|0:0,0:0:0:0:
498,115,92770,5,10,0:1:0:0:
510,139,92857,1,8,0:1:0:0:
509,165,92944,1,8,0:1:0:0:
498,188,93031,1,8,0:1:0:0:
475,205,93118,5,14,0:0:0:0:
449,203,93205,1,8,0:1:0:0:
423,200,93292,1,8,0:1:0:0:
397,197,93379,1,8,0:1:0:0:
373,192,93467,5,10,0:0:0:0:
323,198,93554,1,8,0:3:0:0:
292,239,93641,1,8,0:3:0:0:
302,289,93729,1,8,0:3:0:0:
328,319,93816,1,0,1:2:0:0:
341,332,93903,1,0,1:2:0:0:
349,349,93990,1,0,1:2:0:0:
349,367,94077,1,0,1:2:0:0:
344,384,94165,6,0,P|288:377|218:366,1,112,14|8,0:1|3:2,0:0:0:0:
37,290,94514,1,10,0:1:0:0:
264,167,94688,2,0,B|331:121|382:193|336:174|412:252|468:205,1,224,14|8,3:2|3:2,0:0:0:0:
348,29,95211,5,10,0:1:0:0:
211,231,95386,1,10,3:2:0:0:
97,9,95560,6,0,P|115:86|121:137,1,112,14|8,0:1|3:2,0:0:0:0:
306,243,95909,1,10,0:1:0:0:
190,52,96083,1,14,3:2:0:0:
99,304,96258,1,8,0:1:0:0:
99,304,96345,1,8,0:1:0:0:
99,304,96432,1,8,3:2:0:0:
264,167,96606,1,10,0:1:0:0:
119,111,96781,1,10,3:2:0:0:
286,313,96956,5,14,0:1:0:0:
365,74,97130,1,10,3:2:0:0:
419,369,97305,5,10,0:1:0:0:
264,167,97479,1,10,3:2:0:0:
195,383,97653,5,10,0:1:0:0:
419,217,97828,1,10,3:2:0:0:
171,175,98002,1,8,0:1:0:0:
344,342,98177,1,10,3:2:0:0:
316,92,98351,5,14,0:1:0:0:
297,44,98438,1,2,0:0:0:0:
249,25,98526,1,10,0:0:0:0:
200,44,98613,1,2,0:0:0:0:
181,93,98700,1,10,0:1:0:0:
200,142,98787,1,2,0:0:0:0:
250,162,98874,1,10,0:0:0:0:
297,141,98962,1,2,0:0:0:0:
315,127,99049,5,8,0:3:0:0:
349,124,99136,1,8,0:3:0:0:
381,138,99223,1,8,0:3:0:0:
403,165,99310,1,8,0:3:0:0:
430,203,99397,5,6,0:3:0:0:
471,225,99484,1,4,0:3:0:0:
511,200,99571,1,6,0:3:0:0:
511,152,99658,1,4,0:3:0:0:
476,119,99746,6,0,L|342:129,1,112,14|8,0:1|3:2,0:0:0:0:
199,0,100095,1,8,0:1:0:0:
92,201,100269,2,0,B|155:162|210:227|164:208|240:286|294:233,1,224,14|8,3:2|3:2,0:0:0:0:
136,49,100792,5,10,0:1:0:0:
17,260,100967,1,10,3:2:0:0:
230,62,101141,6,0,P|240:113|252:178,1,112,14|8,0:1|3:2,0:0:0:0:
13,115,101490,1,10,0:1:0:0:
189,0,101665,1,14,3:2:0:0:
92,201,101839,1,8,0:1:0:0:
92,201,101926,1,8,0:1:0:0:
92,201,102013,1,8,3:2:0:0:
312,92,102187,1,10,0:1:0:0:
123,36,102363,1,10,3:2:0:0:
263,284,102536,5,8,0:1:0:0:
293,296,102623,1,2,0:0:0:0:
325,290,102710,1,10,0:0:0:0:
347,264,102799,1,2,0:0:0:0:
349,232,102886,5,10,0:1:0:0:
374,187,102973,1,2,0:0:0:0:
420,163,103060,1,10,0:0:0:0:
472,168,103147,1,2,0:0:0:0:
508,203,103235,1,10,0:1:0:0:
512,264,103322,1,10,0:1:0:0:
480,317,103409,1,10,0:0:0:0:
422,338,103496,1,2,0:0:0:0:
362,321,103583,2,0,L|286:316,1,52.5000020027161,8|8,0:1|0:1,0:0:0:0:
207,199,103758,6,0,B|36:186,1,157.500006008148,14|0,0:0|0:0,0:0:0:0:
8,120,104107,1,8,0:1:0:0:
8,120,104194,1,8,0:1:0:0:
8,120,104281,1,10,0:1:0:0:
126,287,104456,1,2,0:0:0:0:
231,99,104630,5,10,0:0:0:0:
257,97,104717,1,8,0:3:0:0:
283,95,104804,1,8,0:3:0:0:
309,93,104891,1,8,0:3:0:0:
333,107,104979,5,4,0:3:0:0:
351,108,105066,1,4,0:3:0:0:
369,109,105153,1,4,0:3:0:0:
387,111,105240,1,4,0:3:0:0:
403,111,105328,5,14,0:1:0:0:
439,125,105415,1,8,0:1:0:0:
460,157,105502,1,8,0:1:0:0:
458,196,105589,1,8,0:1:0:0:
435,227,105677,1,8,0:1:0:0:
398,241,105764,1,8,0:1:0:0:
377,273,105851,1,8,0:1:0:0:
379,312,105938,1,8,0:1:0:0:
412,340,106025,5,8,0:3:0:0:
462,359,106112,1,8,0:3:0:0:
506,328,106199,1,8,0:3:0:0:
505,275,106286,1,8,0:3:0:0:
462,243,106374,1,4,0:3:0:0:
422,203,106461,1,4,0:3:0:0:
407,140,106548,1,4,0:3:0:0:
426,78,106635,1,4,0:3:0:0:
475,36,106722,5,14,0:1:0:0:
475,36,107421,6,0,B|483:97|483:97|477:111|477:111|491:202,2,157.500006008148,14|14|14,0:1|0:1|0:1,0:0:0:0:
166,82,108118,5,14,0:1:0:0:
131,83,108205,1,8,0:1:0:0:
103,103,108292,1,8,0:1:0:0:
92,136,108379,1,8,0:1:0:0:
103,169,108466,1,8,3:2:0:0:
130,190,108554,1,8,0:1:0:0:
166,205,108641,5,10,0:1:0:0:
201,244,108728,1,8,0:1:0:0:
199,296,108815,1,8,3:2:0:0:
159,331,108902,1,8,0:1:0:0:
106,324,108990,5,10,0:1:0:0:
107,312,109077,1,8,0:1:0:0:
108,300,109164,1,8,3:2:0:0:
110,288,109251,1,8,0:1:0:0:
111,276,109338,1,10,0:1:0:0:
112,264,109426,1,8,0:1:0:0:
120,226,109513,5,10,3:2:0:0:
151,204,109600,1,8,0:1:0:0:
189,195,109687,1,8,0:1:0:0:
227,202,109774,1,8,0:1:0:0:
260,223,109863,1,8,3:2:0:0:
282,255,109949,1,8,0:1:0:0:
311,293,110036,5,10,0:1:0:0:
360,330,110123,1,8,0:1:0:0:
421,339,110210,1,8,3:2:0:0:
479,319,110299,1,8,0:1:0:0:
502,288,110386,5,10,0:1:0:0:
501,276,110473,1,8,0:1:0:0:
500,264,110560,1,8,3:2:0:0:
498,252,110647,1,8,0:1:0:0:
497,240,110735,1,10,0:1:0:0:
496,228,110821,1,8,0:1:0:0:
489,190,110909,5,10,3:2:0:0:
458,168,110996,1,8,0:1:0:0:
420,159,111083,1,8,0:1:0:0:
382,166,111171,1,8,0:1:0:0:
349,187,111258,1,8,3:2:0:0:
327,219,111345,1,8,0:1:0:0:
304,251,111431,5,10,0:1:0:0:
255,288,111520,1,8,0:1:0:0:
194,297,111607,1,8,3:2:0:0:
136,277,111694,1,8,0:1:0:0:
113,246,111781,5,10,0:1:0:0:
114,234,111868,1,8,0:1:0:0:
115,222,111956,1,8,3:2:0:0:
117,210,112043,1,8,0:1:0:0:
118,198,112130,1,10,0:1:0:0:
119,186,112217,1,8,0:1:0:0:
122,175,112304,6,0,L|134:98,1,56,14|8,3:2|0:1,0:0:0:0:
265,29,112478,2,0,L|277:106,1,56,10|8,0:1|0:1,0:0:0:0:
240,293,112652,6,0,L|163:281,1,56,10|8,3:2|0:1,0:0:0:0:
128,35,112828,2,0,L|205:47,1,56,10|8,0:1|0:1,0:0:0:0:
321,175,113002,6,0,L|313:230,1,56,10|8,3:2|0:1,0:0:0:0:
504,123,113177,2,0,L|516:200,1,56,10|8,0:1|0:1,0:0:0:0:
450,317,113351,6,0,L|373:305,1,56,10|8,3:2|0:1,0:0:0:0:
265,183,113525,2,0,L|342:171,1,56,10|8,0:1|0:1,0:0:0:0:
483,42,113699,5,14,0:1:0:0:
449,36,113786,1,8,0:1:0:0:
417,31,113873,1,8,0:1:0:0:
384,25,113961,1,8,0:1:0:0:
352,20,114049,1,8,3:2:0:0:
319,16,114136,1,8,0:1:0:0:
281,13,114223,5,10,0:1:0:0:
233,42,114310,1,8,0:1:0:0:
209,92,114397,1,8,3:2:0:0:
220,145,114485,1,8,0:1:0:0:
231,164,114571,5,10,0:1:0:0:
230,178,114658,1,8,0:1:0:0:
229,192,114745,1,8,3:2:0:0:
226,206,114832,1,8,0:1:0:0:
225,219,114921,1,10,0:1:0:0:
224,233,115007,1,8,0:1:0:0:
219,266,115094,5,10,3:2:0:0:
199,299,115181,1,8,0:1:0:0:
168,321,115270,1,8,0:1:0:0:
131,328,115357,1,8,0:1:0:0:
95,315,115444,1,8,3:2:0:0:
67,290,115530,1,4,0:3:0:0:
52,250,115618,5,6,0:3:0:0:
55,189,115705,1,4,0:3:0:0:
93,141,115792,1,4,0:3:0:0:
151,123,115879,1,8,0:1:0:0:
209,141,115966,1,10,0:1:0:0:
247,188,116054,1,4,0:3:0:0:
280,238,116142,5,8,3:3:0:0:
334,283,116229,1,8,0:3:0:0:
405,294,116316,1,8,0:3:0:0:
470,266,116403,1,8,0:3:0:0:
512,208,116490,5,14,3:2:0:0:
512,208,117013,5,8,0:1:0:0:
321,35,117187,1,14,0:0:0:0:
321,35,117711,5,8,0:1:0:0:
400,293,117885,1,14,0:0:0:0:
418,33,118059,1,8,0:1:0:0:
247,188,118234,5,14,0:0:0:0:
512,144,118408,1,8,0:1:0:0:
245,74,118583,6,0,L|237:24,3,26.2500010013581,14|0|0|0,0:0|0:0|0:0|0:0,0:0:0:0:
342,129,118932,2,0,L|334:179,3,26.2500010013581,2|2|2|2,3:1|0:0|0:0|0:0,0:0:0:0:
253,270,119281,5,4,1:1:0:0:
49,176,119979,1,8,0:0:0:0:
245,74,120677,1,4,3:0:0:0:
67,254,121200,1,4,3:0:0:0:
49,176,121374,1,8,0:0:0:0:
253,270,122072,5,2,1:2:0:0:
452,228,122595,1,4,3:0:0:0:
511,283,122770,1,10,0:0:0:0:
307,209,123293,1,8,3:0:0:0:
362,150,123468,5,4,3:0:0:0:
433,84,123729,5,4,3:0:0:0:
502,25,123990,5,4,3:0:0:0:
357,73,124165,5,10,0:0:0:0:
483,164,124340,1,4,3:0:0:0:
502,25,124514,1,2,1:2:0:0:
286,134,124863,5,2,1:2:0:0:
143,20,125386,1,4,3:0:0:0:
76,79,125561,1,10,0:0:0:0:
226,188,126258,5,4,3:0:0:0:
245,265,126519,5,4,3:0:0:0:
262,337,126780,5,4,3:0:0:0:
166,246,126955,5,10,0:0:0:0:
166,246,127654,5,2,1:2:0:0:
436,266,128177,1,4,3:0:0:0:
334,168,128352,1,10,0:0:0:0:
268,335,128700,5,4,3:0:0:0:
241,340,128816,5,4,3:0:0:0:
213,345,128932,5,4,3:0:0:0:
186,350,129048,5,6,1:0:0:0:
0,154,129746,5,10,0:1:0:0:
21,154,129833,1,0,1:2:0:0:
43,155,129920,1,0,1:2:0:0:
66,155,130007,1,0,1:2:0:0:
88,157,130094,1,10,0:1:0:0:
111,157,130182,1,0,1:2:0:0:
133,159,130269,1,0,1:2:0:0:
156,159,130356,1,0,1:2:0:0:
173,159,130444,6,0,L|181:85,1,41.9999987182618,14|0,0:1|0:0,0:0:0:0:
338,12,130618,2,0,L|342:53,1,41.9999987182618,6|4,0:3|0:3,0:0:0:0:
279,201,130793,2,0,L|287:275,1,41.9999987182618,6|4,0:3|0:3,0:0:0:0:
206,38,130967,2,0,L|156:25,1,41.9999987182618,6|0,0:3|0:0,0:0:0:0:
355,135,131142,2,0,L|405:122,1,41.9999987182618,10|0,0:1|0:0,0:0:0:0:
200,243,131316,2,0,L|150:230,1,41.9999987182618,6|4,0:3|0:3,0:0:0:0:
342,53,131490,2,0,L|392:40,1,41.9999987182618,6|4,0:3|0:3,0:0:0:0:
283,242,131665,2,0,L|291:316,1,41.9999987182618,6|4,0:3|0:3,0:0:0:0:
210,119,131839,5,14,0:1:0:0:
177,117,131926,1,8,0:1:0:0:
146,116,132013,1,10,0:1:0:0:
113,115,132100,1,10,0:1:0:0:
82,114,132188,1,10,3:2:0:0:
56,137,132275,1,8,0:1:0:0:
53,171,132362,1,10,0:1:0:0:
75,197,132449,1,8,0:1:0:0:
111,200,132537,5,10,3:2:0:0:
153,187,132624,1,8,0:1:0:0:
184,155,132711,1,10,0:1:0:0:
196,112,132798,1,8,0:1:0:0:
184,69,132885,1,10,3:2:0:0:
153,37,132973,1,8,0:1:0:0:
111,25,133060,1,10,0:1:0:0:
67,35,133147,1,8,0:1:0:0:
40,49,133235,6,0,L|-24:40,3,52.5000020027161,10|8|10|8,3:2|0:1|0:1|0:1,0:0:0:0:
196,112,133583,5,10,3:2:0:0:
235,108,133670,1,8,0:1:0:0:
274,104,133757,1,10,0:1:0:0:
313,100,133844,1,8,0:1:0:0:
352,96,133932,1,10,3:2:0:0:
389,104,134019,1,8,0:1:0:0:
416,132,134106,1,10,0:1:0:0:
421,171,134193,1,8,0:1:0:0:
404,205,134281,1,10,3:2:0:0:
380,235,134368,1,8,0:1:0:0:
381,274,134455,1,10,0:1:0:0:
408,301,134542,1,8,0:1:0:0:
446,304,134630,6,0,L|501:299,7,52.5000020027161,14|8|8|8|8|8|8|8,3:2|0:1|0:1|0:1|3:2|0:1|0:1|0:1,0:0:0:0:
295,214,135328,5,14,3:2:0:0:
248,192,135415,1,8,0:1:0:0:
196,196,135502,1,8,0:1:0:0:
153,225,135589,1,8,0:1:0:0:
125,266,135677,1,8,3:2:0:0:
103,282,135764,1,8,0:1:0:0:
76,278,135851,1,8,0:1:0:0:
55,260,135938,1,8,0:1:0:0:
47,238,136025,6,0,L|55:164,3,52.5000020027161,14|8|10|8,3:2|0:1|0:1|0:1,0:0:0:0:
170,79,136374,2,0,L|156:17,3,52.5000020027161,14|8|10|8,3:2|0:1|0:1|0:1,0:0:0:0:
248,192,136723,5,14,3:2:0:0:
290,178,136810,1,8,0:1:0:0:
333,184,136897,1,10,0:1:0:0:
369,208,136984,1,8,0:1:0:0:
390,246,137072,1,10,3:2:0:0:
407,276,137159,1,8,0:1:0:0:
436,295,137246,1,10,0:1:0:0:
470,298,137333,1,8,0:1:0:0:
497,284,137421,5,14,0:1:0:0:
511,235,137508,1,8,0:1:0:0:
483,193,137595,1,10,0:1:0:0:
432,190,137682,1,8,0:1:0:0:
398,230,137770,1,8,3:2:0:0:
377,275,137857,1,8,0:1:0:0:
327,279,137944,1,8,0:1:0:0:
300,237,138031,1,8,0:1:0:0:
324,193,138118,5,10,3:2:0:0:
333,231,138205,1,8,0:1:0:0:
341,269,138292,1,8,0:1:0:0:
349,308,138379,1,8,0:1:0:0:
356,347,138467,2,0,L|415:353,3,52.5000020027161,10|8|10|8,3:2|0:1|0:1|0:1,0:0:0:0:
227,243,138816,5,6,3:3:0:0:
201,246,138903,1,4,0:3:0:0:
176,249,138990,1,4,0:3:0:0:
150,253,139077,1,4,0:3:0:0:
125,256,139164,1,10,0:1:0:0:
100,259,139252,1,8,0:1:0:0:
74,263,139339,1,10,0:1:0:0:
49,266,139426,1,8,0:1:0:0:
26,267,139514,5,4,0:3:0:0:
0,238,139601,1,4,0:3:0:0:
0,199,139688,1,4,0:3:0:0:
17,167,139775,1,4,0:3:0:0:
54,154,139863,1,4,0:3:0:0:
105,116,139950,1,4,0:3:0:0:
107,53,140037,1,8,0:3:0:0:
58,11,140124,1,8,0:3:0:0:
0,24,140211,5,14,0:0:0:0:
0,24,140735,5,8,0:1:0:0:
26,267,140909,1,14,0:0:0:0:
26,267,141433,5,8,0:1:0:0:
232,79,141607,1,14,0:0:0:0:
0,119,141781,1,8,0:1:0:0:
258,235,141956,5,14,0:0:0:0:
100,0,142130,1,8,0:1:0:0:
26,267,142305,1,14,0:0:0:0:
315,143,142828,5,2,0:0:0:0:
315,143,142916,1,2,0:0:0:0:
315,143,143003,2,0,B|345:176|345:176|332:286,1,140,14|8,0:1|0:0,0:0:0:0:
321,363,143525,1,8,0:1:0:0:
412,265,143700,2,0,P|474:255|498:251,1,70,2|8,0:0|0:1,0:0:0:0:
262,195,144049,1,8,0:0:0:0:
262,195,144397,6,0,B|229:225|229:225|119:212,1,140,10|8,0:1|0:0,0:0:0:0:
58,115,144921,2,0,L|218:139,1,140,10|8,0:1|0:1,0:0:0:0:
272,70,145444,1,10,0:0:0:0:
272,70,145618,1,2,0:0:0:0:
340,181,145793,6,0,L|429:170,1,70,10|0,0:1|0:0,0:0:0:0:
498,67,146142,1,10,0:0:0:0:
472,235,146316,1,10,0:1:0:0:
400,75,146490,1,2,0:0:0:0:
512,155,146664,1,10,0:1:0:0:
401,269,146839,2,0,L|312:280,1,70,10|0,0:0|0:0,0:0:0:0:
153,177,147188,6,0,B|256:189|256:189|278:232,1,140,10|8,0:1|0:0,0:0:0:0:
314,361,147711,1,2,0:0:0:0:
314,361,147799,1,2,0:0:0:0:
314,361,147886,2,0,L|225:350,1,70,2|8,0:0|0:1,0:0:0:0:
153,177,148235,1,14,0:0:0:0:
74,362,148409,1,2,0:0:0:0:
272,221,148583,6,0,B|338:215|338:215|348:224|348:224|427:215,1,140,14|8,0:1|0:0,0:0:0:0:
505,46,149107,2,0,B|520:78|520:78|469:180,1,140,10|8,0:1|0:1,0:0:0:0:
483,322,149630,1,10,0:0:0:0:
407,217,149804,1,2,0:0:0:0:
344,363,149979,6,0,L|432:343,1,70,10|8,0:1|0:1,0:0:0:0:
299,201,150328,1,10,0:0:0:0:
226,361,150502,1,10,0:1:0:0:
226,361,150851,5,10,0:1:0:0:
344,268,151025,1,14,0:0:0:0:
207,196,151200,1,2,0:0:0:0:
322,351,151374,6,0,L|395:340,1,70,14|0,0:1|0:0,0:0:0:0:
299,201,151723,1,10,0:0:0:0:
226,361,151897,1,10,0:1:0:0:
382,245,152072,5,2,0:0:0:0:
224,172,152246,2,0,L|150:182,1,70,10|8,0:1|0:0,0:0:0:0:
342,100,152595,2,0,L|415:89,1,70,10|10,0:1|0:0,0:0:0:0:
235,23,152944,1,10,0:1:0:0:
299,201,153118,5,10,0:1:0:0:
359,18,153293,1,10,0:0:0:0:
237,102,153467,1,4,0:3:0:0:
386,171,153642,1,4,0:3:0:0:
235,23,153816,5,2,1:0:0:0:
223,24,153903,1,2,1:0:0:0:
211,25,153990,1,2,1:0:0:0:
200,26,154077,1,2,1:0:0:0:
191,28,154165,5,14,0:0:0:0:
236,274,156432,5,10,0:1:0:0:
127,85,156607,1,10,0:0:0:0:
96,304,156781,1,10,0:0:0:0:
262,183,156955,5,14,0:1:0:0:
36,152,157130,1,2,0:0:0:0:
181,338,157304,1,10,0:0:0:0:
127,85,157479,1,10,0:1:0:0:
70,376,157653,5,2,0:0:0:0:
213,100,157828,1,10,0:0:0:0:
17,235,158002,1,10,0:0:0:0:
260,351,158177,1,4,0:3:0:0:
170,24,158351,5,14,0:0:0:0:
16,316,158525,1,10,0:0:0:0:
346,199,158700,1,14,0:0:0:0:
4,113,158874,1,10,0:0:0:0:
260,351,159048,5,2,0:0:0:0:
259,337,159135,1,2,0:0:0:0:
258,324,159222,1,2,0:0:0:0:
257,311,159309,1,2,0:0:0:0:
255,298,159397,2,2,L|256:263,3,26.2500010013581,2|0|0|0,3:1|0:1|0:1|0:1,0:1:0:0:
346,199,159746,6,0,P|402:192|472:185,1,112,14|8,0:1|3:2,0:0:0:0:
304,26,160095,1,8,0:1:0:0:
198,205,160270,2,0,B|158:293|83:250|83:250|83:192|143:190,1,224,14|8,3:2|3:2,0:0:0:0:
194,26,160793,1,10,0:1:0:0:
255,271,160967,1,10,3:2:0:0:
109,116,161141,6,0,P|49:102|-10:91,1,112,14|8,0:1|3:2,0:0:0:0:
101,296,161490,1,10,0:1:0:0:
185,30,161665,1,14,3:2:0:0:
296,209,161839,1,8,0:1:0:0:
296,209,161926,1,8,0:1:0:0:
296,209,162014,1,8,3:2:0:0:
102,115,162188,1,10,0:1:0:0:
304,26,162362,1,10,3:2:0:0:
177,286,162537,5,14,0:1:0:0:
89,31,162711,1,10,3:2:0:0:
326,137,162886,5,10,0:1:0:0:
24,218,163060,1,10,3:2:0:0:
248,61,163234,5,10,0:1:0:0:
202,370,163409,1,10,3:2:0:0:
92,100,163583,1,8,0:1:0:0:
92,100,163670,1,8,0:1:0:0:
92,100,163758,1,10,3:2:0:0:
368,251,163932,5,14,0:1:0:0:
399,293,164019,1,2,0:0:0:0:
448,304,164106,1,10,0:0:0:0:
494,280,164193,1,2,0:0:0:0:
511,232,164280,1,6,3:2:0:0:
492,184,164368,1,2,0:0:0:0:
446,162,164455,1,10,0:0:0:0:
395,172,164543,1,2,0:0:0:0:
371,180,164630,1,10,0:1:0:0:
349,166,164717,1,10,0:1:0:0:
335,144,164804,1,10,0:1:0:0:
332,119,164891,1,10,0:1:0:0:
341,85,164979,5,4,0:3:0:0:
304,47,165066,1,4,0:3:0:0:
255,30,165153,1,4,0:3:0:0:
203,36,165240,1,4,0:3:0:0:
164,64,165328,6,0,P|166:117|174:179,1,112,14|8,0:1|3:2,0:0:0:0:
209,382,165677,1,10,0:1:0:0:
337,183,165851,2,0,B|411:118|461:190|461:190|431:254|369:209,1,224,14|8,3:2|3:2,0:0:0:0:
195,143,166374,5,10,0:1:0:0:
319,297,166549,1,10,3:2:0:0:
512,255,166723,6,0,P|502:204|484:141,1,112,14|8,0:1|3:2,0:0:0:0:
270,26,167072,1,10,0:1:0:0:
384,293,167246,1,14,3:2:0:0:
485,43,167421,1,8,0:1:0:0:
485,43,167508,1,8,0:1:0:0:
485,43,167595,1,8,3:2:0:0:
270,140,167769,1,10,0:1:0:0:
500,228,167944,1,10,3:2:0:0:
281,49,168118,5,10,0:1:0:0:
233,28,168205,1,8,0:1:0:0:
183,39,168292,1,8,0:1:0:0:
149,78,168379,1,8,0:1:0:0:
145,129,168467,2,0,L|156:201,3,56,14|2|2|2,0:0|0:0|0:0|0:0,0:0:0:0:
99,268,168816,5,10,0:1:0:0:
146,289,168903,1,8,0:1:0:0:
196,278,168990,1,8,0:1:0:0:
230,239,169077,1,8,0:1:0:0:
234,188,169165,2,0,L|221:113,1,56,14|0,0:0|0:0,0:0:0:0:
363,6,169339,2,0,L|351:82,1,56,2|0,0:0|0:0,0:0:0:0:
490,113,169514,5,10,0:1:0:0:
502,137,169601,1,8,0:1:0:0:
501,163,169688,1,8,0:1:0:0:
490,186,169775,1,8,0:1:0:0:
460,209,169863,5,14,0:0:0:0:
420,215,169950,1,8,0:1:0:0:
387,192,170037,1,8,0:1:0:0:
379,152,170124,1,8,0:1:0:0:
341,128,170211,5,10,0:0:0:0:
291,134,170298,1,8,0:3:0:0:
260,175,170385,1,8,0:3:0:0:
270,225,170473,1,8,0:3:0:0:
296,255,170560,1,0,1:2:0:0:
309,268,170647,1,0,1:2:0:0:
317,285,170734,1,0,1:2:0:0:
317,303,170821,1,0,1:2:0:0:
310,317,170909,6,0,P|254:310|187:301,1,112,14|8,0:1|3:2,0:0:0:0:
34,256,171258,1,10,0:1:0:0:
197,141,171432,2,0,B|244:226|327:184|327:184|327:123|253:134,1,224,14|8,3:2|3:2,0:0:0:0:
160,355,171955,5,10,0:1:0:0:
69,153,172130,1,10,3:2:0:0:
247,289,172304,6,0,P|326:277|375:274,1,112,14|8,0:1|3:2,0:0:0:0:
156,132,172653,1,10,0:1:0:0:
77,338,172827,1,14,3:2:0:0:
232,189,173002,1,8,0:1:0:0:
232,189,173089,1,8,0:1:0:0:
232,189,173176,1,8,3:2:0:0:
27,249,173350,1,10,0:1:0:0:
196,355,173525,1,10,3:2:0:0:
136,97,173700,5,14,0:1:0:0:
48,366,173874,1,10,3:2:0:0:
30,72,174049,5,10,0:1:0:0:
184,340,174223,1,10,3:2:0:0:
247,58,174397,5,10,0:1:0:0:
2,226,174572,1,10,3:2:0:0:
281,222,174746,1,8,0:1:0:0:
104,24,174921,1,10,3:2:0:0:
258,330,175095,5,14,0:1:0:0:
289,372,175183,1,2,0:0:0:0:
338,383,175270,1,10,0:0:0:0:
384,359,175357,1,2,0:0:0:0:
401,311,175444,1,10,0:1:0:0:
382,263,175531,1,2,0:0:0:0:
336,241,175619,1,10,0:0:0:0:
285,251,175706,1,2,0:0:0:0:
261,259,175793,1,8,0:3:0:0:
239,245,175880,1,8,0:3:0:0:
225,223,175967,1,8,0:3:0:0:
222,198,176055,1,8,0:3:0:0:
231,164,176142,5,6,0:3:0:0:
194,126,176229,1,4,0:3:0:0:
145,109,176316,1,6,0:3:0:0:
93,115,176403,1,4,0:3:0:0:
54,143,176491,6,0,P|56:196|61:259,1,112,14|8,0:1|3:2,0:0:0:0:
172,384,176839,1,8,0:1:0:0:
302,189,177014,2,0,B|376:127|426:197|426:197|396:261|334:216,1,224,14|8,3:2|3:2,0:0:0:0:
168,312,177538,1,10,0:1:0:0:
214,67,177711,1,10,3:2:0:0:
278,298,177885,6,0,P|292:237|302:186,1,112,14|8,0:1|3:2,0:0:0:0:
49,259,178234,1,10,0:1:0:0:
230,358,178409,1,14,3:2:0:0:
102,144,178583,1,8,0:1:0:0:
102,144,178670,1,8,0:1:0:0:
102,144,178757,1,8,3:2:0:0:
284,205,178931,1,10,0:1:0:0:
116,312,179107,1,10,3:2:0:0:
218,62,179280,5,8,0:1:0:0:
248,50,179367,1,2,0:0:0:0:
280,56,179456,1,10,0:0:0:0:
302,82,179543,1,2,0:0:0:0:
304,114,179630,5,10,0:1:0:0:
329,159,179717,1,2,0:0:0:0:
375,183,179804,1,10,0:0:0:0:
427,178,179891,1,2,0:0:0:0:
463,143,179979,1,10,0:1:0:0:
467,82,180066,1,10,0:1:0:0:
435,29,180153,1,10,0:0:0:0:
377,8,180240,1,2,0:0:0:0:
315,21,180328,1,8,0:1:0:0:
284,76,180415,1,8,0:1:0:0:
245,125,180502,6,0,B|113:135,1,105.000004005432,14|0,0:0|0:0,0:0:0:0:
4,242,180851,1,8,0:1:0:0:
4,242,180938,1,8,0:1:0:0:
4,242,181025,1,10,0:1:0:0:
66,61,181200,1,2,0:0:0:0:
153,261,181374,5,10,0:0:0:0:
179,263,181461,1,8,0:3:0:0:
205,265,181548,1,8,0:3:0:0:
231,267,181635,1,8,0:3:0:0:
249,270,181723,1,4,0:3:0:0:
267,271,181810,1,4,0:3:0:0:
285,272,181897,1,4,0:3:0:0:
303,274,181984,1,4,0:3:0:0:
346,279,182072,5,14,0:1:0:0:
396,269,182159,1,8,0:1:0:0:
418,224,182246,1,8,0:1:0:0:
394,179,182333,1,8,0:1:0:0:
344,170,182421,1,8,0:1:0:0:
300,125,182508,1,8,0:1:0:0:
310,63,182595,1,8,0:1:0:0:
367,35,182682,1,8,0:1:0:0:
423,64,182770,5,8,0:3:0:0:
358,70,182857,1,8,0:3:0:0:
293,76,182944,1,8,0:3:0:0:
227,81,183031,1,8,0:3:0:0:
176,93,183118,6,0,L|172:173,1,52.5000020027161,4|4,0:3|0:3,0:0:0:0:
24,260,183293,2,0,L|22:208,1,52.5000020027161,4|4,0:3|0:3,0:0:0:0:
179,379,183467,5,14,0:1:0:0:
179,379,184165,6,0,B|118:371|118:371|104:377|104:377|13:363,2,157.500006008148,14|14|14,0:1|0:1|0:1,0:0:0:0:
358,282,184863,1,14,3:2:0:0:
426,32,190444,5,14,3:1:0:0:
426,32,190531,1,2,0:0:0:0:
426,32,190618,1,2,0:0:0:0:
263,82,190793,1,10,3:1:0:0:
422,194,190967,2,0,P|430:142|444:91,1,83.9999974365235,2|8,0:0|3:1,0:0:0:0:
307,0,191316,1,2,0:0:0:0:
319,162,191490,1,8,3:1:0:0:
426,32,191665,1,2,0:0:0:0:
226,0,191839,5,10,3:1:0:0:
226,0,191926,1,2,0:0:0:0:
226,0,192013,1,2,0:0:0:0:
365,92,192188,1,10,3:1:0:0:
205,213,192362,2,0,P|197:161|183:110,1,83.9999974365235,2|8,0:0|3:1,0:0:0:0:
318,13,192711,1,2,0:0:0:0:
300,201,192885,1,8,3:1:0:0:
173,54,193060,1,2,0:0:0:0:
387,178,193235,5,10,3:1:0:0:
387,178,193322,1,2,0:0:0:0:
387,178,193409,1,2,0:0:0:0:
205,213,193584,1,10,3:1:0:0:
381,94,193758,2,0,L|386:177,1,83.9999974365235,2|8,0:0|3:1,0:0:0:0:
228,294,194107,1,2,0:0:0:0:
277,112,194281,1,8,3:1:0:0:
414,259,194456,1,2,0:0:0:0:
205,201,194630,6,0,P|194:127|192:116,1,48.9999985046387,10|8,0:1|0:0,0:0:0:0:
320,318,194804,2,0,P|323:342|326:366,1,48.9999985046387,6|4,0:3|0:3,0:0:0:0:
451,140,194978,2,0,P|447:115|444:91,1,48.9999985046387,6|4,0:3|0:3,0:0:0:0:
244,245,195152,2,0,P|170:234|159:232,1,48.9999985046387,10|8,0:1|0:0,0:0:0:0:
506,361,195327,6,0,P|509:337|513:312,1,48.9999985046387,6|4,0:3|0:3,0:0:0:0:
328,222,195501,2,0,P|325:198|321:174,1,48.9999985046387,4|4,0:3|0:3,0:0:0:0:
182,362,195677,2,0,P|171:288|169:277,3,48.9999985046387,10|8|8|8,0:0|0:0|0:0|0:0,0:0:0:0:
94,256,196025,5,14,0:1:0:0:
67,224,196112,1,8,0:1:0:0:
63,183,196199,1,8,0:1:0:0:
83,147,196286,1,8,0:1:0:0:
120,129,196374,1,8,3:2:0:0:
146,97,196461,1,8,0:1:0:0:
150,56,196548,1,8,0:1:0:0:
130,20,196635,1,8,0:1:0:0:
93,0,196723,5,14,3:2:0:0:
97,37,196810,1,8,0:1:0:0:
102,75,196897,1,8,0:1:0:0:
108,114,196984,1,8,0:1:0:0:
113,151,197071,1,8,3:2:0:0:
119,189,197159,1,8,0:1:0:0:
124,228,197246,1,8,0:1:0:0:
130,265,197333,1,8,0:1:0:0:
139,300,197421,5,14,3:2:0:0:
191,314,197508,1,8,0:1:0:0:
235,283,197595,1,8,0:1:0:0:
239,229,197682,1,8,0:1:0:0:
199,191,197770,5,14,3:2:0:0:
187,137,197857,1,8,0:1:0:0:
218,92,197944,1,8,0:1:0:0:
271,84,198031,1,8,0:1:0:0:
326,110,198118,5,14,3:2:0:0:
370,142,198205,1,8,0:1:0:0:
425,140,198292,1,8,0:1:0:0:
469,107,198379,1,8,0:1:0:0:
482,74,198467,5,8,3:2:0:0:
481,60,198554,1,8,0:1:0:0:
480,46,198641,1,8,0:1:0:0:
479,32,198728,1,8,0:1:0:0:
446,4,198816,5,14,3:2:0:0:
398,0,198903,1,8,0:1:0:0:
361,25,198990,1,8,0:1:0:0:
332,55,199077,1,8,0:1:0:0:
307,82,199165,1,8,3:2:0:0:
273,107,199252,1,8,0:1:0:0:
234,112,199339,1,8,0:1:0:0:
198,92,199426,1,8,0:1:0:0:
168,76,199514,5,14,3:2:0:0:
172,113,199601,1,8,0:1:0:0:
177,151,199688,1,8,0:1:0:0:
183,190,199775,1,8,0:1:0:0:
188,227,199862,1,8,3:2:0:0:
194,265,199950,1,8,0:1:0:0:
199,304,200037,1,8,0:1:0:0:
205,341,200124,1,8,0:1:0:0:
211,370,200211,6,0,L|266:361,1,56,10|8,3:2|0:1,0:0:0:0:
462,236,200385,2,0,L|406:227,1,56,10|8,0:1|0:1,0:0:0:0:
284,105,200559,6,0,L|296:182,1,56,14|8,3:2|0:1,0:0:0:0:
403,371,200735,2,0,L|391:294,1,56,10|8,0:1|0:1,0:0:0:0:
442,70,200909,6,0,L|434:125,1,56,14|8,3:2|0:1,0:0:0:0:
249,273,201084,2,0,L|172:261,1,56,10|8,0:1|0:1,0:0:0:0:
378,134,201258,6,0,L|455:122,1,56,10|8,3:2|0:1,0:0:0:0:
266,186,201432,2,0,L|189:174,1,56,10|8,0:1|0:1,0:0:0:0:
127,103,201607,5,14,0:1:0:0:
107,144,201694,1,8,0:1:0:0:
111,190,201781,1,8,0:1:0:0:
136,227,201868,1,8,0:1:0:0:
172,252,201956,1,8,3:2:0:0:
192,293,202043,1,8,0:1:0:0:
188,339,202130,1,8,0:1:0:0:
163,377,202217,1,8,0:1:0:0:
122,370,202304,5,14,3:2:0:0:
95,330,202391,1,8,0:1:0:0:
95,283,202478,1,8,0:1:0:0:
121,243,202565,1,8,0:1:0:0:
164,224,202652,1,8,3:2:0:0:
211,231,202740,1,8,0:1:0:0:
246,263,202827,1,8,0:1:0:0:
257,309,202914,1,8,0:1:0:0:
276,347,203002,5,14,3:2:0:0:
326,369,203089,1,8,0:1:0:0:
380,360,203176,1,8,0:1:0:0:
419,321,203263,1,8,0:1:0:0:
432,273,203351,5,14,3:2:0:0:
411,221,203438,1,8,0:1:0:0:
366,189,203525,1,8,0:1:0:0:
311,186,203612,1,8,0:1:0:0:
258,214,203700,5,14,3:2:0:0:
218,256,203787,1,8,0:1:0:0:
161,244,203874,1,8,0:1:0:0:
145,188,203961,1,8,0:1:0:0:
185,147,204049,5,8,3:2:0:0:
186,123,204136,1,8,0:1:0:0:
187,104,204223,1,8,0:1:0:0:
188,86,204310,1,8,0:1:0:0:
179,50,204397,5,14,3:2:0:0:
135,23,204484,1,8,0:1:0:0:
85,20,204571,1,8,0:1:0:0:
40,44,204658,1,8,0:1:0:0:
12,86,204745,1,8,3:2:0:0:
8,137,204833,1,8,0:1:0:0:
29,182,204920,1,8,0:1:0:0:
71,212,205007,1,8,0:1:0:0:
114,209,205095,5,14,3:2:0:0:
157,242,205182,1,8,0:1:0:0:
169,296,205269,1,8,0:1:0:0:
145,345,205356,1,8,0:1:0:0:
96,368,205443,1,8,3:2:0:0:
42,355,205531,1,8,0:1:0:0:
9,312,205618,1,8,0:1:0:0:
11,257,205705,1,8,0:1:0:0:
45,212,205793,5,6,0:3:0:0:
97,194,205880,1,4,0:3:0:0:
150,210,205967,1,6,0:3:0:0:
184,254,206054,1,4,0:3:0:0:
209,295,206142,5,6,0:3:0:0:
245,334,206229,1,4,0:3:0:0:
298,344,206316,1,6,0:3:0:0:
348,323,206403,1,4,0:3:0:0:
383,289,206490,5,2,1:2:0:0:
432,265,206577,1,0,1:2:0:0:
485,281,206664,1,2,1:2:0:0:
510,325,206752,1,0,1:2:0:0:
481,377,206839,5,10,0:0:0:0:
409,378,206926,1,8,0:0:0:0:
358,329,207013,1,10,0:0:0:0:
356,258,207100,1,8,0:0:0:0:
406,206,207188,6,0,B|432:165|432:165|415:86,1,105.000004005432,14|8,0:1|3:2,0:0:0:0:
344,0,207450,2,0,B|318:41|318:41|335:120,1,105.000004005432,2|0,0:0|0:0,0:0:0:0:
256,157,207711,6,2,B|205:126|134:176|184:165|122:234|60:203,1,210.000008010865,12|8,3:2|3:2,0:1:0:0:
171,31,208235,1,8,0:1:0:0:
171,31,208322,1,8,0:1:0:0:
171,31,208409,1,8,3:2:0:0:
237,230,208583,1,10,0:1:0:0:
78,101,208758,1,8,3:2:0:0:
257,78,208932,1,8,0:1:0:0:
257,78,209019,1,8,0:1:0:0:
257,78,209106,1,8,3:2:0:0:
114,241,209281,6,0,L|6:229,1,105.000004005432,10|8,0:1|3:2,0:0:0:0:
187,112,209630,1,8,0:1:0:0:
187,112,209717,1,8,0:1:0:0:
187,112,209804,1,8,3:2:0:0:
210,325,209978,5,10,0:1:0:0:
102,147,210153,1,10,3:2:0:0:
102,147,210240,1,2,0:0:0:0:
102,147,210328,1,8,0:1:0:0:
276,188,210501,1,8,3:2:0:0:
102,345,210676,6,0,L|114:237,1,105.000004005432,10|8,0:1|3:2,0:0:0:0:
257,77,211025,1,8,0:1:0:0:
257,77,211112,1,8,0:1:0:0:
257,77,211200,1,8,3:2:0:0:
336,288,211374,5,14,0:1:0:0:
144,150,211549,1,8,3:2:0:0:
364,49,211723,1,10,0:1:0:0:
364,49,211810,1,8,0:1:0:0:
364,49,211897,2,0,B|424:96|424:96|368:229,1,210.000008010865,14|10,3:2|3:2,0:0:0:0:
229,318,212421,2,0,L|222:240,3,52.5000020027161,0|0|10|0,1:2|1:2|0:0|1:2,0:0:0:0:
112,361,212770,5,14,0:1:0:0:
66,337,212857,1,2,0:0:0:0:
42,291,212944,1,10,3:2:0:0:
51,240,213031,1,2,0:0:0:0:
81,208,213118,5,10,0:1:0:0:
117,184,213205,1,2,0:0:0:0:
130,143,213292,1,10,3:2:0:0:
114,103,213379,1,2,0:0:0:0:
76,82,213466,1,10,0:1:0:0:
33,91,213554,1,2,0:0:0:0:
6,124,213641,1,10,3:2:0:0:
7,167,213728,1,2,0:0:0:0:
24,192,213816,5,10,0:1:0:0:
43,208,213903,1,10,0:1:0:0:
69,214,213990,1,10,3:2:0:0:
94,207,214077,1,2,0:0:0:0:
127,186,214165,5,10,0:1:0:0:
166,159,214252,1,2,0:0:0:0:
212,150,214339,1,10,3:2:0:0:
257,161,214426,1,2,0:0:0:0:
299,193,214514,1,10,0:1:0:0:
305,230,214601,1,2,0:0:0:0:
283,262,214688,1,10,3:2:0:0:
245,268,214775,1,2,0:0:0:0:
214,246,214863,5,10,0:1:0:0:
201,195,214950,1,2,0:0:0:0:
219,147,215037,1,10,3:2:0:0:
261,117,215124,1,2,0:0:0:0:
313,115,215211,1,10,0:1:0:0:
356,143,215299,1,10,0:1:0:0:
376,191,215386,1,10,3:2:0:0:
371,233,215473,1,10,0:1:0:0:
346,274,215560,6,2,B|295:243|224:293|274:282|212:351|150:320,1,210.000008010865,14|8,0:1|0:1,0:1:0:0:
298,136,216083,1,10,3:2:0:0:
416,328,216258,1,10,0:1:0:0:
384,81,216432,5,10,3:2:0:0:
305,341,216607,1,10,0:1:0:0:
239,71,216781,5,10,3:2:0:0:
475,245,216956,1,10,0:1:0:0:
208,211,217130,5,0,1:2:0:0:
168,209,217217,1,0,1:2:0:0:
129,207,217304,1,0,1:2:0:0:
89,206,217391,1,0,1:2:0:0:
50,204,217479,2,0,L|43:149,1,52.5000020027161,8|8,0:3|0:3,0:0:0:0:
137,293,217653,5,6,0:3:0:0:
160,293,217740,1,2,0:0:0:0:
184,294,217827,1,6,0:3:0:0:
207,295,217914,1,2,0:0:0:0:
226,297,218002,2,2,B|356:307|356:307|389:367,1,157.500006008148,6|0,0:3|0:1,0:1:0:0:
461,368,218351,5,12,0:1:0:0:
498,332,218438,1,2,0:0:0:0:
503,281,218525,1,10,3:2:0:0:
474,238,218612,1,2,0:0:0:0:
424,225,218700,1,10,0:1:0:0:
387,190,218787,1,2,0:0:0:0:
384,139,218874,1,10,3:2:0:0:
417,100,218961,1,2,0:0:0:0:
468,95,219049,5,10,0:1:0:0:
448,142,219136,1,2,0:0:0:0:
403,169,219223,1,10,3:2:0:0:
356,162,219310,1,2,0:0:0:0:
313,129,219397,1,10,0:1:0:0:
275,94,219484,1,2,0:0:0:0:
225,78,219571,1,10,3:2:0:0:
173,82,219658,1,2,0:0:0:0:
127,106,219745,1,10,0:1:0:0:
94,147,219833,1,2,0:0:0:0:
98,199,219921,5,10,3:2:0:0:
118,234,220008,1,2,0:0:0:0:
157,247,220095,1,10,0:1:0:0:
194,231,220182,1,2,0:0:0:0:
212,194,220269,1,10,3:2:0:0:
200,155,220357,1,2,0:0:0:0:
156,126,220444,5,10,0:1:0:0:
129,123,220531,1,2,0:0:0:0:
103,121,220618,1,10,3:2:0:0:
77,119,220705,1,2,0:0:0:0:
46,113,220793,5,10,0:1:0:0:
21,84,220880,1,10,0:1:0:0:
27,47,220967,1,10,3:2:0:0:
59,27,221054,1,2,0:0:0:0:
95,39,221142,5,12,0:1:0:0:
136,70,221229,1,2,0:0:0:0:
187,79,221316,1,10,3:2:0:0:
236,62,221403,1,2,0:0:0:0:
272,24,221490,1,10,0:1:0:0:
323,16,221577,1,2,0:0:0:0:
366,43,221664,1,10,3:2:0:0:
382,92,221751,1,2,0:0:0:0:
361,139,221839,5,10,0:1:0:0:
335,183,221926,1,2,0:0:0:0:
342,235,222013,1,10,3:2:0:0:
377,273,222100,1,2,0:0:0:0:
427,283,222187,1,10,0:1:0:0:
475,263,222275,1,2,0:0:0:0:
501,218,222362,1,10,3:2:0:0:
496,166,222449,1,2,0:0:0:0:
462,127,222537,5,10,0:1:0:0:
410,137,222624,1,2,0:0:0:0:
359,130,222711,1,10,3:2:0:0:
313,104,222798,1,2,0:0:0:0:
280,64,222886,1,10,0:1:0:0:
247,42,222973,1,2,0:0:0:0:
208,37,223060,1,10,3:2:0:0:
171,48,223147,1,2,0:0:0:0:
142,74,223234,5,10,0:1:0:0:
144,100,223322,1,10,0:1:0:0:
147,126,223409,1,10,3:2:0:0:
149,152,223496,1,10,0:1:0:0:
153,172,223583,1,10,0:1:0:0:
154,190,223671,1,10,0:1:0:0:
156,209,223758,1,10,3:2:0:0:
158,229,223845,1,10,0:1:0:0:
162,265,223932,5,12,0:1:0:0:
149,304,224019,1,2,0:0:0:0:
113,327,224106,1,10,3:2:0:0:
73,320,224193,1,2,0:0:0:0:
37,288,224281,5,10,0:1:0:0:
38,236,224368,1,2,0:0:0:0:
76,202,224455,1,10,3:2:0:0:
127,204,224542,1,2,0:0:0:0:
161,242,224630,5,10,0:1:0:0:
191,283,224717,1,2,0:0:0:0:
239,303,224804,1,10,3:2:0:0:
291,296,224891,1,2,0:0:0:0:
331,264,224979,5,10,0:1:0:0:
341,208,225066,1,2,0:0:0:0:
308,162,225153,1,10,3:2:0:0:
253,153,225240,1,2,0:0:0:0:
207,186,225328,5,10,0:1:0:0:
179,213,225415,1,2,0:0:0:0:
140,220,225502,1,10,3:2:0:0:
106,203,225589,1,2,0:0:0:0:
88,168,225676,1,10,0:1:0:0:
88,129,225764,1,2,0:0:0:0:
113,99,225851,1,10,3:2:0:0:
151,92,225938,1,2,0:0:0:0:
193,114,226025,5,10,0:1:0:0:
223,147,226112,1,2,0:0:0:0:
273,156,226199,1,10,3:2:0:0:
321,137,226286,1,2,0:0:0:0:
356,92,226374,1,10,0:1:0:0:
407,54,226461,1,10,0:1:0:0:
470,63,226548,1,10,3:2:0:0:
508,115,226635,1,2,0:0:0:0:
507,174,226723,6,2,B|479:213|479:213|296:193,1,210.000008010865,14|8,0:1|0:1,0:1:0:0:
233,17,227246,1,8,3:2:0:0:
145,183,227421,1,8,0:1:0:0:
145,183,227508,1,8,0:1:0:0:
145,183,227595,1,8,3:2:0:0:
331,109,227770,1,8,0:1:0:0:
144,44,227944,1,8,3:2:0:0:
262,272,228118,5,14,0:0:0:0:
317,17,228293,1,8,0:1:0:0:
134,180,228467,5,14,0:0:0:0:
389,168,228642,1,8,0:1:0:0:
224,24,228816,5,10,0:3:0:0:
182,258,228991,1,4,0:3:0:0:
332,109,229165,5,10,0:1:0:0:
142,63,229340,1,10,0:1:0:0:
354,262,229514,6,0,L|458:256,1,105.000004005432,14|0,0:0|0:0,0:0:0:0:
293,209,229863,2,0,B|259:233|259:233|278:310,1,105.000004005432,10|0,0:0|0:0,0:0:0:0:
470,172,230211,2,0,L|366:178,1,105.000004005432,10|0,0:0|0:0,0:0:0:0:
215,73,230560,2,0,B|249:97|249:97|230:174,1,105.000004005432,10|0,0:0|0:0,0:0:0:0:
116,361,230909,5,10,0:0:0:0:
8,124,231083,1,14,0:0:0:0:
274,294,231432,5,10,0:0:0:0:
5,221,231781,5,10,0:0:0:0:
256,111,232130,5,10,0:0:0:0:
354,262,232304,6,0,L|458:256,1,105.000004005432,14|0,0:0|0:0,0:0:0:0:
293,209,232653,2,0,B|259:233|259:233|278:310,1,105.000004005432,10|0,0:0|0:0,0:0:0:0:
470,172,233002,2,0,L|366:178,1,105.000004005432,10|0,0:0|0:0,0:0:0:0:
216,74,233351,2,0,B|250:98|250:98|231:175,1,105.000004005432,10|0,0:0|0:0,0:0:0:0:
116,361,233700,5,10,0:0:0:0:
8,124,233874,1,14,0:0:0:0:
274,294,234223,5,10,0:0:0:0:
5,221,234572,5,10,0:0:0:0:
31,218,234659,1,2,0:0:0:0:
57,216,234746,1,8,0:3:0:0:
83,213,234833,1,8,0:3:0:0:
109,211,234920,1,8,0:3:0:0:
130,209,235008,1,8,0:3:0:0:
150,206,235095,6,0,L|156:73,1,119.000002269745,10|8,0:0|0:1,0:0:0:0:
238,30,235357,1,8,0:1:0:0:
243,44,235444,6,0,L|237:166,1,119.000002269745,10|8,0:0|0:1,0:0:0:0:
320,237,235706,1,8,0:1:0:0:
315,223,235793,6,0,L|321:101,1,119.000002269745,10|8,0:0|0:1,0:0:0:0:
403,28,236054,1,8,0:1:0:0:
408,42,236141,6,0,L|402:164,1,119.000002269745,10|8,0:0|0:1,0:0:0:0:
492,234,236403,1,8,0:1:0:0:
497,220,236490,6,0,L|492:125,1,59.5000011348725,10|0,0:0|0:0,0:0:0:0:
320,104,236665,2,0,L|314:226,1,119.000002269745,14|8,0:0|0:1,0:0:0:0:
236,295,236927,1,8,0:1:0:0:
231,281,237014,6,0,L|237:159,1,119.000002269745,10|8,0:0|0:1,0:0:0:0:
154,88,237276,1,8,0:1:0:0:
159,102,237363,6,0,L|153:224,1,119.000002269745,10|8,0:0|0:1,0:0:0:0:
71,297,237624,1,8,0:1:0:0:
64,289,237711,2,0,L|70:217,1,59.5000011348725,10|0,0:0|0:0,0:0:0:0:
159,102,237886,6,0,L|153:235,1,119.000002269745,14|8,0:0|0:1,0:0:0:0:
247,278,238148,1,8,0:1:0:0:
252,264,238235,6,0,L|246:142,1,119.000002269745,10|8,0:0|0:1,0:0:0:0:
329,71,238497,1,8,0:1:0:0:
324,85,238584,6,0,L|330:207,1,119.000002269745,10|8,0:0|0:1,0:0:0:0:
412,280,238845,1,8,0:1:0:0:
417,266,238932,6,0,L|411:144,1,119.000002269745,10|8,0:0|0:1,0:0:0:0:
501,74,239194,1,8,0:1:0:0:
506,88,239281,6,0,L|501:183,1,59.5000011348725,10|0,0:0|0:0,0:0:0:0:
329,204,239456,2,0,L|323:82,1,119.000002269745,14|8,0:0|0:1,0:0:0:0:
230,28,239717,1,8,0:1:0:0:
225,42,239804,6,0,L|232:140,3,59.5000011348725,10|8|8|8,0:0|0:1|0:1|0:1,0:0:0:0:
161,142,240153,5,8,0:3:0:0:
107,119,240240,1,8,0:3:0:0:
53,139,240327,1,4,0:3:0:0:
30,193,240414,1,4,0:3:0:0:
50,247,240501,1,4,0:3:0:0:
103,270,240589,1,4,0:3:0:0:
153,256,240677,6,0,B|257:193|340:305|269:281|358:379|420:356|420:356|487:333|501:283|501:283|519:231|468:171|468:171|380:199|408:266,1,672,14|0,0:1|0:0,0:0:0:0:
404,255,246258,5,14,0:1:0:0:
358,91,246781,1,8,0:1:0:0:
420,43,246956,1,2,1:2:0:0:
108,129,247653,5,10,0:1:0:0:
169,82,247915,5,8,0:1:0:0:
100,52,248177,5,8,0:1:0:0:
179,157,248351,1,2,1:2:0:0:
179,157,248700,5,8,0:1:0:0:
38,112,248874,1,8,0:1:0:0:
85,217,249049,5,10,0:1:0:0:
131,53,249572,1,8,0:1:0:0:
69,5,249747,1,2,1:2:0:0:
381,91,250444,5,10,0:1:0:0:
320,44,250706,5,8,0:1:0:0:
389,14,250968,5,8,0:1:0:0:
310,119,251142,1,2,1:2:0:0:
310,119,251491,5,10,0:1:0:0:
451,74,251665,1,10,0:1:0:0:
400,154,251839,5,10,0:1:0:0:
354,318,252362,1,8,0:1:0:0:
416,366,252537,1,2,1:2:0:0:
104,280,253234,5,10,0:1:0:0:
165,327,253496,5,8,0:1:0:0:
96,357,253758,5,8,0:1:0:0:
175,252,253932,1,2,1:2:0:0:
175,252,254281,5,10,0:1:0:0:
34,297,254455,1,10,0:1:0:0:
80,152,254630,5,10,0:1:0:0:
175,252,255153,1,8,0:1:0:0:
241,215,255328,1,2,1:2:0:0:
313,241,255502,1,8,0:1:0:0:
313,241,255851,5,10,0:1:0:0:
398,88,256200,1,8,0:1:0:0:
448,169,256374,1,2,1:2:0:0:
329,129,256549,1,8,0:1:0:0:
473,98,256723,1,2,1:2:0:0:
344,32,256897,5,0,1:2:0:0:
317,29,256984,1,0,1:2:0:0:
291,27,257071,1,10,0:3:0:0:
265,25,257158,1,2,0:0:0:0:
239,23,257245,1,6,0:3:0:0:
213,20,257333,1,2,0:0:0:0:
187,19,257421,5,14,0:0:0:0:
276,274,259688,5,10,0:1:0:0:
385,85,259863,1,10,0:0:0:0:
416,304,260037,1,10,0:0:0:0:
250,183,260211,5,14,0:0:0:0:
476,152,260386,1,2,0:0:0:0:
331,338,260560,1,10,0:0:0:0:
385,85,260735,1,10,0:1:0:0:
442,376,260909,5,2,0:0:0:0:
299,100,261084,1,10,0:1:0:0:
495,235,261258,1,14,0:0:0:0:
252,351,261433,1,2,0:0:0:0:
342,24,261607,5,14,0:0:0:0:
496,316,261781,1,10,0:0:0:0:
166,199,261956,1,14,0:0:0:0:
512,148,262130,1,10,0:0:0:0:
256,192,262217,12,0,263700,0:0:0:0:
97,86,264049,5,2,0:0:0:0:
166,199,264223,1,2,0:0:0:0:
166,199,264310,1,2,0:0:0:0:
166,199,264397,6,0,P|110:206|69:170,1,112,14|8,0:1|3:2,0:0:0:0:
256,40,264746,1,8,0:1:0:0:
329,226,264921,2,0,B|399:219|399:219|451:146|451:146|514:142,1,224,14|8,3:2|3:2,0:0:0:0:
396,363,265444,5,10,0:1:0:0:
285,154,265618,1,10,3:2:0:0:
163,379,265792,6,0,P|151:316|188:247,1,112,14|8,0:1|3:2,0:0:0:0:
373,116,266141,1,10,0:1:0:0:
230,329,266316,1,14,3:2:0:0:
162,89,266490,1,8,0:1:0:0:
162,89,266577,1,8,0:1:0:0:
162,89,266665,1,8,3:2:0:0:
329,226,266839,1,10,0:1:0:0:
110,321,267013,1,10,3:2:0:0:
273,81,267188,5,14,0:1:0:0:
408,325,267362,1,10,3:2:0:0:
479,50,267537,5,10,0:1:0:0:
323,306,267711,1,10,3:2:0:0:
384,19,267885,5,10,0:1:0:0:
491,303,268060,1,10,3:2:0:0:
285,111,268234,1,8,0:1:0:0:
285,111,268322,1,8,0:1:0:0:
285,111,268409,1,10,3:2:0:0:
109,250,268583,5,14,0:1:0:0:
59,261,268670,1,2,0:0:0:0:
15,233,268758,1,10,0:0:0:0:
3,182,268845,1,2,0:0:0:0:
32,138,268932,1,6,3:2:0:0:
83,126,269019,1,2,0:0:0:0:
127,155,269106,1,10,0:0:0:0:
138,206,269194,1,2,0:0:0:0:
153,233,269281,1,10,0:1:0:0:
179,251,269368,1,10,0:1:0:0:
211,249,269455,1,10,0:1:0:0:
241,238,269542,1,10,0:1:0:0:
265,216,269630,5,4,0:3:0:0:
302,178,269717,1,4,0:3:0:0:
351,161,269804,1,4,0:3:0:0:
403,167,269891,1,4,0:3:0:0:
447,195,269978,6,0,B|471:233|471:233|437:298,1,112,14|8,0:1|3:2,0:0:0:0:
299,72,270328,1,10,0:1:0:0:
211,249,270502,2,0,B|141:256|141:256|89:329|89:329|26:333,1,224,14|8,3:2|3:2,0:0:0:0:
135,102,271025,5,10,0:1:0:0:
254,334,271200,1,10,3:2:0:0:
36,255,271374,6,0,L|17:134,1,112,14|8,0:1|3:2,0:0:0:0:
220,23,271723,1,10,0:1:0:0:
154,293,271897,1,14,3:2:0:0:
56,31,272072,1,8,0:1:0:0:
56,31,272159,1,8,0:1:0:0:
56,31,272246,1,8,3:2:0:0:
281,157,272420,1,10,0:1:0:0:
80,244,272595,1,10,3:2:0:0:
226,36,272769,5,10,0:1:0:0:
274,15,272856,1,8,0:1:0:0:
324,26,272943,1,8,0:1:0:0:
358,65,273030,1,8,0:1:0:0:
362,116,273118,2,0,L|351:191,3,56,14|2|2|2,0:0|0:0|0:0|0:0,0:0:0:0:
397,255,273467,5,10,0:1:0:0:
350,276,273554,1,8,0:1:0:0:
300,265,273641,1,8,0:1:0:0:
266,226,273728,1,8,0:1:0:0:
262,175,273816,2,0,L|276:100,1,56,14|0,0:0|0:0,0:0:0:0:
139,13,273990,2,0,L|151:84,1,56,2|0,0:0|0:0,0:0:0:0:
14,115,274165,5,10,0:1:0:0:
2,139,274252,1,8,0:1:0:0:
3,165,274339,1,8,0:1:0:0:
14,188,274426,1,8,0:1:0:0:
37,205,274513,5,14,0:0:0:0:
63,203,274600,1,8,0:1:0:0:
89,200,274687,1,8,0:1:0:0:
115,197,274774,1,8,0:1:0:0:
139,192,274862,5,10,0:0:0:0:
189,198,274949,1,8,0:3:0:0:
220,239,275036,1,8,0:3:0:0:
210,289,275124,1,8,0:3:0:0:
184,319,275211,1,0,1:2:0:0:
171,332,275298,1,0,1:2:0:0:
163,349,275385,1,0,1:2:0:0:
163,367,275472,1,0,1:2:0:0:
168,384,275560,6,0,P|224:377|291:368,1,112,14|8,0:1|3:2,0:0:0:0:
480,271,275909,1,10,0:1:0:0:
262,166,276083,2,0,B|192:173|192:173|140:246|140:246|77:250,1,224,14|8,3:2|3:2,0:0:0:0:
164,29,276606,5,10,0:1:0:0:
311,236,276781,1,10,3:2:0:0:
455,24,276955,6,0,L|344:37,1,112,14|8,0:1|3:2,0:0:0:0:
175,238,277304,1,10,0:1:0:0:
315,33,277478,1,14,3:2:0:0:
413,304,277653,1,8,0:1:0:0:
413,304,277740,1,8,0:1:0:0:
413,304,277827,1,8,3:2:0:0:
245,164,278001,1,10,0:1:0:0:
421,100,278176,1,10,3:2:0:0:
226,313,278351,5,14,0:1:0:0:
95,92,278525,1,10,3:2:0:0:
64,364,278700,5,10,0:1:0:0:
187,113,278874,1,10,3:2:0:0:
292,363,279048,5,10,0:1:0:0:
63,192,279223,1,10,3:2:0:0:
336,227,279397,1,8,0:1:0:0:
151,348,279572,1,10,3:2:0:0:
196,92,279746,5,14,0:1:0:0:
215,44,279833,1,2,0:0:0:0:
263,25,279921,1,10,0:0:0:0:
312,44,280008,1,2,0:0:0:0:
331,93,280095,1,10,0:1:0:0:
312,142,280182,1,2,0:0:0:0:
262,162,280269,1,10,0:0:0:0:
215,141,280357,1,2,0:0:0:0:
197,127,280444,5,8,0:3:0:0:
163,124,280531,1,8,0:3:0:0:
131,138,280618,1,8,0:3:0:0:
109,165,280705,1,8,0:3:0:0:
82,203,280792,5,6,0:3:0:0:
41,225,280879,1,4,0:3:0:0:
2,200,280966,1,6,0:3:0:0:
0,152,281053,1,4,0:3:0:0:
36,119,281142,6,0,L|170:134,1,112,14|8,0:1|3:2,0:0:0:0:
248,277,281490,1,8,0:1:0:0:
400,103,281665,2,0,B|330:96|330:96|278:23|278:23|215:19,1,224,14|8,3:2|3:2,0:0:0:0:
384,259,282187,5,10,0:1:0:0:
472,31,282362,1,10,3:2:0:0:
231,96,282536,6,0,P|205:149|220:206,1,112,14|8,0:1|3:2,0:0:0:0:
478,143,282885,1,10,0:1:0:0:
296,10,283060,1,14,3:2:0:0:
383,246,283234,1,8,0:1:0:0:
383,246,283321,1,8,0:1:0:0:
383,246,283408,1,8,3:2:0:0:
282,20,283582,1,10,0:1:0:0:
463,128,283758,1,10,3:2:0:0:
249,284,283931,5,8,0:1:0:0:
219,296,284020,1,2,0:0:0:0:
187,290,284107,1,10,0:0:0:0:
165,264,284194,1,2,0:0:0:0:
163,232,284281,5,10,0:1:0:0:
138,187,284368,1,2,0:0:0:0:
92,163,284455,1,10,0:0:0:0:
40,168,284542,1,2,0:0:0:0:
4,203,284630,1,10,0:1:0:0:
0,264,284717,1,10,0:1:0:0:
32,317,284804,1,10,0:0:0:0:
90,338,284891,1,2,0:0:0:0:
150,321,284978,2,0,L|231:312,1,56,8|8,0:1|0:1,0:0:0:0:
305,199,285153,6,0,B|494:184,1,168,14|0,0:0|0:0,0:0:0:0:
504,120,285502,1,8,0:1:0:0:
504,120,285589,1,8,0:1:0:0:
504,120,285676,1,10,0:1:0:0:
386,287,285851,1,2,0:0:0:0:
281,99,286025,5,10,0:0:0:0:
255,97,286112,1,8,0:3:0:0:
229,95,286199,1,8,0:3:0:0:
203,93,286286,1,8,0:3:0:0:
179,107,286374,5,4,0:3:0:0:
161,108,286461,1,4,0:3:0:0:
143,109,286548,1,4,0:3:0:0:
125,111,286635,1,4,0:3:0:0:
109,111,286723,5,14,0:1:0:0:
73,125,286810,1,8,0:1:0:0:
52,157,286897,1,8,0:1:0:0:
54,196,286984,1,8,0:1:0:0:
77,227,287072,1,8,0:1:0:0:
114,241,287159,1,8,0:1:0:0:
135,273,287246,1,8,0:1:0:0:
133,312,287333,1,8,0:1:0:0:
110,345,287420,5,8,0:3:0:0:
60,364,287507,1,8,0:3:0:0:
16,333,287594,1,8,0:3:0:0:
17,280,287681,1,8,0:3:0:0:
54,242,287769,1,4,0:3:0:0:
101,196,287856,1,4,0:3:0:0:
116,133,287943,1,4,0:3:0:0:
97,71,288030,1,4,0:3:0:0:
48,29,288117,5,14,0:1:0:0:
201,55,288816,6,0,B|140:47|140:47|126:53|126:53|35:39,2,157.500006008148,14|14|14,0:1|0:1|0:1,0:0:0:0:
424,79,289514,5,14,0:1:0:0:
459,80,289601,1,8,0:1:0:0:
487,100,289688,1,8,0:1:0:0:
498,133,289775,1,8,0:1:0:0:
487,166,289862,1,8,3:2:0:0:
460,187,289950,1,8,0:1:0:0:
424,202,290037,5,10,0:1:0:0:
389,241,290124,1,8,0:1:0:0:
391,293,290211,1,8,3:2:0:0:
431,328,290298,1,8,0:1:0:0:
484,321,290386,5,10,0:1:0:0:
483,309,290473,1,8,0:1:0:0:
482,297,290560,1,8,3:2:0:0:
480,285,290647,1,8,0:1:0:0:
479,273,290734,1,10,0:1:0:0:
478,261,290822,1,8,0:1:0:0:
470,223,290909,5,10,3:2:0:0:
439,201,290996,1,8,0:1:0:0:
401,192,291083,1,8,0:1:0:0:
363,199,291170,1,8,0:1:0:0:
330,220,291257,1,8,3:2:0:0:
308,252,291345,1,8,0:1:0:0:
279,290,291432,5,10,0:1:0:0:
230,327,291519,1,8,0:1:0:0:
169,336,291606,1,8,3:2:0:0:
111,316,291693,1,8,0:1:0:0:
88,285,291781,5,10,0:1:0:0:
89,273,291868,1,8,0:1:0:0:
90,261,291955,1,8,3:2:0:0:
92,249,292042,1,8,0:1:0:0:
93,237,292129,1,10,0:1:0:0:
94,225,292217,1,8,0:1:0:0:
101,187,292304,5,10,3:2:0:0:
132,165,292391,1,8,0:1:0:0:
170,156,292478,1,8,0:1:0:0:
208,163,292565,1,8,0:1:0:0:
241,184,292652,1,8,3:2:0:0:
263,216,292740,1,8,0:1:0:0:
286,248,292827,5,10,0:1:0:0:
335,285,292914,1,8,0:1:0:0:
396,294,293001,1,8,3:2:0:0:
454,274,293088,1,8,0:1:0:0:
477,243,293176,5,10,0:1:0:0:
476,231,293263,1,8,0:1:0:0:
475,219,293350,1,8,3:2:0:0:
473,207,293437,1,8,0:1:0:0:
472,195,293524,1,10,0:1:0:0:
471,183,293612,1,8,0:1:0:0:
468,172,293700,6,0,L|456:95,1,56,14|8,3:2|0:1,0:0:0:0:
247,29,293874,2,0,L|235:106,1,56,10|8,0:1|0:1,0:0:0:0:
306,307,294048,6,0,L|383:295,1,56,10|8,3:2|0:1,0:0:0:0:
392,68,294222,2,0,L|315:80,1,56,10|8,0:1|0:1,0:0:0:0:
184,229,294397,6,0,L|192:284,1,56,10|8,3:2|0:1,0:0:0:0:
19,112,294571,2,0,L|7:189,1,56,10|8,0:1|0:1,0:0:0:0:
52,327,294746,6,0,L|129:315,1,56,10|8,3:2|0:1,0:0:0:0:
229,160,294920,2,0,L|152:148,1,56,10|8,0:1|0:1,0:0:0:0:
10,38,295095,5,14,0:1:0:0:
40,34,295182,1,8,0:1:0:0:
69,29,295269,1,8,0:1:0:0:
98,25,295356,1,8,0:1:0:0:
127,20,295443,1,8,3:2:0:0:
156,16,295531,1,8,0:1:0:0:
195,13,295618,5,10,0:1:0:0:
237,38,295705,1,8,0:1:0:0:
257,82,295792,1,8,3:2:0:0:
247,129,295879,1,8,0:1:0:0:
211,161,295967,5,10,0:1:0:0:
212,173,296054,1,8,0:1:0:0:
213,185,296141,1,8,3:2:0:0:
215,197,296228,1,8,0:1:0:0:
216,209,296315,1,10,0:1:0:0:
217,221,296403,1,8,0:1:0:0:
219,246,296490,5,10,3:2:0:0:
235,274,296577,1,8,0:1:0:0:
260,292,296664,1,8,0:1:0:0:
291,297,296751,1,8,0:1:0:0:
320,287,296838,1,8,3:2:0:0:
343,266,296926,1,8,0:1:0:0:
372,246,297014,5,10,0:1:0:0:
409,216,297101,1,8,0:1:0:0:
457,223,297188,1,8,3:2:0:0:
483,263,297275,1,8,0:1:0:0:
473,310,297362,1,10,0:1:0:0:
432,334,297450,1,8,0:1:0:0:
384,321,297537,5,10,3:2:0:0:
340,289,297624,1,10,0:1:0:0:
289,285,297711,1,10,0:1:0:0:
241,306,297798,1,10,0:1:0:0:
212,350,297886,5,14,3:2:0:0:
189,352,297973,1,8,0:1:0:0:
167,353,298060,1,8,0:1:0:0:
145,355,298147,1,8,0:1:0:0:
122,357,298234,1,8,3:2:0:0:
100,358,298322,1,8,0:1:0:0:
68,360,298409,5,10,0:1:0:0:
46,329,298496,1,8,0:1:0:0:
37,291,298583,1,8,3:2:0:0:
44,253,298670,1,8,0:1:0:0:
65,220,298757,1,10,0:1:0:0:
97,198,298845,1,8,0:1:0:0:
135,169,298932,5,8,3:2:0:0:
172,120,299019,1,8,0:1:0:0:
181,59,299106,1,10,0:1:0:0:
161,2,299193,1,8,0:1:0:0:
113,0,299281,6,0,L|36:12,1,56,14|8,3:2|0:1,0:0:0:0:
238,166,299455,2,0,L|315:154,1,56,10|8,0:1|0:1,0:0:0:0:
61,135,299629,6,0,L|6:126,1,56,10|8,3:2|0:1,0:0:0:0:
248,20,299804,2,0,L|325:8,1,56,10|8,0:0|0:1,0:0:0:0:
144,224,299978,6,0,L|136:169,1,56,10|8,3:2|0:1,0:0:0:0:
58,3,300152,2,0,L|70:80,1,56,10|8,0:1|0:1,0:0:0:0:
247,110,300327,6,0,L|239:165,3,56,10|8|10|8,3:2|0:1|0:0|0:0,0:0:0:0:
370,72,300677,5,14,0:1:0:0:
407,73,300764,1,8,0:1:0:0:
436,93,300851,1,8,0:1:0:0:
448,128,300938,1,8,0:1:0:0:
436,163,301025,1,8,3:2:0:0:
408,184,301113,1,8,0:1:0:0:
370,200,301200,5,10,0:1:0:0:
334,241,301287,1,8,0:1:0:0:
336,296,301374,1,8,3:2:0:0:
378,332,301461,1,8,0:1:0:0:
433,325,301549,5,10,0:1:0:0:
432,312,301636,1,8,0:1:0:0:
431,300,301723,1,8,3:2:0:0:
429,287,301810,1,8,0:1:0:0:
428,274,301897,1,10,0:1:0:0:
427,262,301985,1,8,0:1:0:0:
419,222,302072,5,10,3:2:0:0:
387,199,302159,1,8,0:1:0:0:
346,189,302246,1,8,0:1:0:0:
307,197,302333,1,8,0:1:0:0:
272,219,302422,1,8,3:2:0:0:
249,252,302508,1,8,0:1:0:0:
218,293,302595,5,10,0:1:0:0:
168,331,302682,1,8,0:1:0:0:
104,340,302769,1,8,3:2:0:0:
43,319,302858,1,8,0:1:0:0:
18,287,302945,5,10,0:1:0:0:
19,274,303032,1,8,0:1:0:0:
20,262,303119,1,8,3:2:0:0:
23,249,303206,1,8,0:1:0:0:
24,237,303294,1,10,0:1:0:0:
25,225,303380,1,8,0:1:0:0:
33,184,303468,5,10,3:2:0:0:
65,162,303555,1,8,0:1:0:0:
105,152,303642,1,8,0:1:0:0:
144,160,303730,1,8,0:1:0:0:
179,181,303817,1,8,3:2:0:0:
202,215,303904,1,8,0:1:0:0:
226,248,303990,5,10,0:1:0:0:
277,287,304079,1,8,0:1:0:0:
341,297,304166,1,8,3:2:0:0:
402,275,304253,1,8,0:1:0:0:
426,243,304340,5,10,0:1:0:0:
425,231,304427,1,8,0:1:0:0:
424,218,304515,1,8,3:2:0:0:
422,205,304602,1,8,0:1:0:0:
421,193,304689,1,10,0:1:0:0:
420,180,304776,1,8,0:1:0:0:
416,169,304863,6,0,L|404:88,1,56,14|8,3:2|0:1,0:0:0:0:
267,16,305037,2,0,L|254:97,1,56,10|8,0:1|0:1,0:0:0:0:
293,293,305211,6,0,L|373:280,1,56,10|8,3:2|0:1,0:0:0:0:
410,22,305387,2,0,L|330:35,1,56,10|8,0:1|0:1,0:0:0:0:
208,169,305561,6,0,L|216:226,1,56,10|8,3:2|0:1,0:0:0:0:
16,114,305736,2,0,L|3:195,1,56,10|8,0:1|0:1,0:0:0:0:
73,317,305910,6,0,L|153:305,1,56,10|8,3:2|0:1,0:0:0:0:
263,177,306084,2,0,L|183:164,1,56,10|8,0:1|0:1,0:0:0:0:
39,29,306258,5,14,0:1:0:0:
74,23,306345,1,8,0:1:0:0:
108,18,306432,1,8,0:1:0:0:
142,12,306520,1,8,0:1:0:0:
176,7,306608,1,8,3:2:0:0:
210,3,306695,1,8,0:1:0:0:
250,0,306782,5,10,0:1:0:0:
300,29,306869,1,8,0:1:0:0:
326,82,306956,1,8,3:2:0:0:
314,137,307044,1,8,0:1:0:0:
303,157,307130,5,10,0:1:0:0:
304,172,307217,1,8,0:1:0:0:
305,186,307304,1,8,3:2:0:0:
308,201,307391,1,8,0:1:0:0:
309,215,307480,1,6,0:3:0:0:
310,230,307566,1,4,0:3:0:0:
315,264,307653,5,10,3:2:0:0:
336,299,307740,1,8,0:3:0:0:
368,322,307829,1,8,0:3:0:0:
407,329,307916,1,8,0:3:0:0:
445,315,308003,1,8,0:0:0:0:
474,290,308089,1,8,0:3:0:0:
490,247,308177,5,10,0:3:0:0:
487,183,308264,1,8,0:3:0:0:
447,133,308351,1,4,0:3:0:0:
387,114,308438,1,4,0:3:0:0:
326,133,308525,1,6,0:3:0:0:
285,182,308613,1,4,0:3:0:0:
251,235,308701,5,6,0:3:0:0:
195,282,308788,1,6,0:3:0:0:
120,294,308875,1,6,0:3:0:0:
52,264,308962,1,6,0:3:0:0:
8,203,309049,5,14,3:2:0:0:
8,203,309572,5,8,0:1:0:0:
347,143,309746,1,14,0:0:0:0:
347,143,310270,5,8,0:1:0:0:
48,51,310444,1,14,0:0:0:0:
157,320,310618,1,8,0:1:0:0:
245,22,310793,5,14,0:0:0:0:
8,181,310967,1,8,0:1:0:0:
286,260,311142,1,14,0:0:0:0:
