osu file format v14

[General]
AudioFilename: audio.ogg
AudioLeadIn: 0
PreviewTime: 61709
Countdown: 0
SampleSet: Soft
StackLeniency: 0.7
Mode: 3
LetterboxInBreaks: 0
SpecialStyle: 0
WidescreenStoryboard: 0

[Editor]
Bookmarks: 663,6244,11825,22988,45314,62058,87164
DistanceSpacing: 1.1
BeatDivisor: 4
GridSize: 16
TimelineZoom: 1.8

[Metadata]
Title:Junpaku*study time
TitleUnicode:純白☆study time
Artist:Casandra
ArtistUnicode:カサンドラ
Creator:keksikosu
Version:Happy Girl!
Source:Lowすぺっく!? ~オレと年下妹とせいきょーいく!~
Tags:japanese videogame video game metal j-metal jmetal eroge visual novel vn loli vocal 下地和彦 新井健史 low spec!? ~ore to toshishita imouto to seikyouiku!~ slg semi little girl もっとずっとすたでぃ!jumpstream js op opening Mirsaaa Rivals_7 Damaree JooF12 DenYi
BeatmapID:4086321
BeatmapSetID:1969686

[Difficulty]
HPDrainRate:8.5
CircleSize:4
OverallDifficulty:8.5
ApproachRate:5
SliderMultiplier:1.4
SliderTickRate:1

[Events]
//Background and Video events
0,0,"6.jpg",0,0
//Break Periods
//Storyboard Layer 0 (Background)
//Storyboard Layer 1 (Fail)
//Storyboard Layer 2 (Pass)
//Storyboard Layer 3 (Foreground)
//Storyboard Layer 4 (Overlay)
//Storyboard Sound Samples
Sample,66593,0,"Hat open.wav",50
Sample,97901,0,"Hat open.wav",50

[TimingPoints]
663,348.837209302326,4,2,1,40,1,0
62058,-100,4,2,1,40,0,1
85779,-100,4,2,1,40,0,0

[HitObjects]
64,192,663,5,2,0:0:0:0:
192,192,663,1,8,0:0:0:0:
320,192,663,1,4,0:0:0:0:
448,192,663,1,0,0:0:0:0:
320,192,837,1,0,0:0:0:0:
448,192,924,1,0,0:0:0:0:
320,192,1011,1,0,0:0:0:0:
448,192,1186,128,0,1883:0:0:0:0:
192,192,1535,128,0,1883:0:0:0:0:
320,192,1883,128,0,2058:0:0:0:0:
64,192,2058,1,2,0:0:0:0:
192,192,2058,1,4,0:0:0:0:
448,192,2058,1,8,0:0:0:0:
192,192,2232,1,0,0:0:0:0:
64,192,2319,1,0,0:0:0:0:
192,192,2407,1,0,0:0:0:0:
64,192,2581,128,0,3279:0:0:0:0:
448,192,2930,128,0,3279:0:0:0:0:
192,192,3279,128,0,3453:0:0:0:0:
64,192,3453,1,2,0:0:0:0:
320,192,3453,1,8,0:0:0:0:
448,192,3453,1,4,0:0:0:0:
448,192,3628,1,0,0:0:0:0:
320,192,3715,1,0,0:0:0:0:
448,192,3802,1,0,0:0:0:0:
320,192,3976,128,0,4674:0:0:0:0:
64,192,4325,128,0,4674:0:0:0:0:
192,192,4674,128,0,4849:0:0:0:0:
64,192,4849,1,2,0:0:0:0:
320,192,4849,1,4,0:0:0:0:
448,192,4849,1,8,0:0:0:0:
448,192,5023,128,0,5372:0:0:0:0:
320,192,5197,128,0,5546:0:0:0:0:
192,192,5372,128,0,5721:0:0:0:0:
448,192,5546,128,0,6069:0:0:0:0:
320,192,5721,128,0,6069:0:0:0:0:
64,192,5895,128,0,6244:0:0:0:0:
192,192,6069,128,0,6244:0:0:0:0:
320,192,6244,1,2,0:0:0:0:
448,192,6244,1,0,0:0:0:50:Hat open.wav
64,192,6418,1,0,0:0:0:0:
192,192,6506,1,0,0:0:0:0:
320,192,6593,1,2,0:0:0:0:
448,192,6593,1,0,0:0:0:50:Hat open.wav
64,192,6767,128,0,7116:0:0:0:0:
192,192,6942,1,2,0:0:0:0:
448,192,6942,1,0,0:0:0:50:Hat open.wav
320,192,7116,128,0,7465:0:0:0:0:
64,192,7290,1,2,0:0:0:0:
192,192,7290,1,0,0:0:0:50:Hat open.wav
448,192,7465,128,0,7639:0:0:0:0:
64,192,7639,1,2,0:0:0:0:
320,192,7639,1,0,0:0:0:50:Hat open.wav
192,192,7814,1,0,0:0:0:0:
448,192,7901,1,0,0:0:0:0:
64,192,7988,1,2,0:0:0:0:
320,192,7988,1,0,0:0:0:50:Hat open.wav
192,192,8163,128,0,8511:0:0:0:0:
320,192,8337,1,2,0:0:0:0:
448,192,8337,1,0,0:0:0:50:Hat open.wav
64,192,8511,128,0,8860:0:0:0:0:
192,192,8686,1,2,0:0:0:0:
448,192,8686,1,0,0:0:0:50:Hat open.wav
320,192,8860,128,0,9035:0:0:0:0:
64,192,9035,1,2,0:0:0:0:
192,192,9035,1,0,0:0:0:50:Hat open.wav
448,192,9209,1,0,0:0:0:0:
320,192,9296,1,0,0:0:0:0:
64,192,9383,1,2,0:0:0:0:
192,192,9383,1,0,0:0:0:50:Hat open.wav
448,192,9558,128,0,9907:0:0:0:0:
64,192,9732,1,2,0:0:0:0:
320,192,9732,1,0,0:0:0:50:Hat open.wav
192,192,9907,128,0,10256:0:0:0:0:
320,192,10081,1,2,0:0:0:0:
448,192,10081,1,0,0:0:0:50:Hat open.wav
64,192,10256,128,0,10430:0:0:0:0:
192,192,10430,1,4,0:0:0:0:
320,192,10430,1,0,0:0:0:50:Tom1.wav
448,192,10430,1,0,0:0:0:0:
64,192,10604,1,0,0:0:0:50:Tom2.wav
192,192,10604,1,0,0:0:0:0:
320,192,10692,1,0,0:0:0:50:Tom1.wav
192,192,10779,1,0,0:0:0:50:Tom2.wav
448,192,10779,1,0,0:0:0:0:
64,192,10866,1,0,0:0:0:50:Tom1.wav
320,192,10953,1,0,0:0:0:50:Tom2.wav
448,192,10953,1,0,0:0:0:0:
64,192,11128,1,0,0:0:0:50:Tom3.wav
320,192,11128,1,0,0:0:0:0:
192,192,11215,1,0,0:0:0:50:Tom3.wav
320,192,11302,1,0,0:0:0:50:Tom2.wav
448,192,11302,1,0,0:0:0:0:
64,192,11389,1,0,0:0:0:50:Tom2.wav
192,192,11476,1,0,0:0:0:50:Tom3.wav
448,192,11476,1,0,0:0:0:0:
64,192,11564,1,0,0:0:0:50:Tom3.wav
320,192,11564,1,0,0:0:0:0:
192,192,11651,1,0,0:0:0:50:Tom4.wav
448,192,11651,1,0,0:0:0:0:
320,192,11738,1,0,0:0:0:50:Tom4.wav
64,192,11825,1,8,0:0:0:0:
192,192,11825,1,0,0:0:0:50:Hat open.wav
448,192,11825,1,0,0:0:0:0:
320,192,11913,1,2,0:0:0:0:
192,192,12000,1,2,0:0:0:0:
64,192,12087,1,2,0:0:0:0:
320,192,12174,1,8,0:0:0:0:
448,192,12174,1,0,0:0:0:50:Hat open.wav
192,192,12261,1,2,0:0:0:0:
64,192,12349,1,2,0:0:0:0:
448,192,12349,1,0,0:0:0:0:
192,192,12436,1,2,0:0:0:0:
320,192,12436,1,0,0:0:0:0:
64,192,12523,1,8,0:0:0:0:
448,192,12523,1,0,0:0:0:50:Hat open.wav
320,192,12610,1,2,0:0:0:0:
64,192,12697,1,2,0:0:0:0:
192,192,12697,1,0,0:0:0:0:
320,192,12785,1,2,0:0:0:0:
448,192,12785,1,0,0:0:0:0:
64,192,12872,1,8,0:0:0:0:
192,192,12872,1,0,0:0:0:50:Hat open.wav
448,192,12959,1,2,0:0:0:0:
64,192,13046,1,2,0:0:0:0:
320,192,13046,1,0,0:0:0:0:
192,192,13133,1,2,0:0:0:0:
448,192,13133,1,0,0:0:0:0:
64,192,13221,1,8,0:0:0:0:
320,192,13221,1,0,0:0:0:50:Hat open.wav
192,192,13308,1,2,0:0:0:0:
448,192,13395,1,2,0:0:0:0:
320,192,13482,1,2,0:0:0:0:
64,192,13569,1,8,0:0:0:0:
192,192,13569,1,0,0:0:0:50:Hat open.wav
448,192,13657,1,2,0:0:0:0:
192,192,13744,1,2,0:0:0:0:
320,192,13744,1,0,0:0:0:0:
64,192,13831,1,2,0:0:0:0:
448,192,13831,1,0,0:0:0:0:
192,192,13918,1,8,0:0:0:0:
320,192,13918,1,0,0:0:0:50:Hat open.wav
64,192,14006,1,2,0:0:0:0:
320,192,14093,1,2,0:0:0:0:
448,192,14093,1,0,0:0:0:0:
64,192,14180,1,2,0:0:0:0:
192,192,14180,1,0,0:0:0:0:
320,192,14267,1,8,0:0:0:0:
448,192,14267,1,0,0:0:0:50:Hat open.wav
192,192,14354,1,2,0:0:0:0:
64,192,14442,1,2,0:0:0:0:
320,192,14442,1,0,0:0:0:0:
192,192,14529,1,2,0:0:0:0:
448,192,14529,1,0,0:0:0:0:
64,192,14616,1,8,0:0:0:0:
320,192,14616,1,0,0:0:0:50:Hat open.wav
448,192,14703,1,2,0:0:0:0:
192,192,14790,1,2,0:0:0:0:
320,192,14878,1,2,0:0:0:0:
64,192,14965,1,8,0:0:0:0:
448,192,14965,1,0,0:0:0:50:Hat open.wav
192,192,15052,1,2,0:0:0:0:
320,192,15139,1,2,0:0:0:0:
448,192,15139,1,0,0:0:0:0:
64,192,15226,1,2,0:0:0:0:
192,192,15226,1,0,0:0:0:0:
320,192,15314,1,8,0:0:0:0:
448,192,15314,1,0,0:0:0:50:Hat open.wav
64,192,15401,1,2,0:0:0:0:
192,192,15488,1,2,0:0:0:0:
320,192,15488,1,0,0:0:0:0:
64,192,15575,1,2,0:0:0:0:
448,192,15575,1,0,0:0:0:0:
192,192,15663,1,8,0:0:0:0:
320,192,15663,1,0,0:0:0:50:Hat open.wav
448,192,15750,1,2,0:0:0:0:
64,192,15837,1,2,0:0:0:0:
192,192,15837,1,0,0:0:0:0:
320,192,15924,1,2,0:0:0:0:
448,192,15924,1,0,0:0:0:0:
64,192,16011,1,8,0:0:0:0:
192,192,16011,1,0,0:0:0:50:Hat open.wav
320,192,16099,1,2,0:0:0:0:
192,192,16186,128,2,16273:0:0:0:0:
448,192,16186,1,0,0:0:0:0:
64,192,16273,1,2,0:0:0:0:
320,192,16360,1,8,0:0:0:0:
448,192,16360,128,0,16447:0:0:0:50:Hat open.wav
192,192,16447,1,2,0:0:0:0:
64,192,16535,128,2,16622:0:0:0:0:
320,192,16535,1,0,0:0:0:0:
448,192,16622,1,2,0:0:0:0:
192,192,16709,1,8,0:0:0:0:
320,192,16709,128,0,16796:0:0:0:50:Hat open.wav
64,192,16796,1,2,0:0:0:0:
192,192,16883,1,2,0:0:0:0:
448,192,16883,128,0,16971:0:0:0:0:
320,192,16971,1,2,0:0:0:0:
64,192,17058,1,8,0:0:0:0:
192,192,17058,128,0,17145:0:0:0:50:Hat open.wav
448,192,17145,1,2,0:0:0:0:
64,192,17232,128,2,17319:0:0:0:0:
320,192,17232,1,0,0:0:0:0:
192,192,17319,1,2,0:0:0:0:
320,192,17407,1,8,0:0:0:0:
448,192,17407,1,0,0:0:0:50:Hat open.wav
64,192,17494,1,2,0:0:0:0:
192,192,17581,1,2,0:0:0:0:
320,192,17668,1,2,0:0:0:0:
64,192,17756,1,8,0:0:0:0:
448,192,17756,1,0,0:0:0:50:Hat open.wav
192,192,17843,1,2,0:0:0:0:
320,192,17930,1,2,0:0:0:0:
448,192,17930,1,0,0:0:0:0:
64,192,18017,1,2,0:0:0:0:
192,192,18017,1,0,0:0:0:0:
320,192,18104,1,8,0:0:0:0:
448,192,18104,1,0,0:0:0:50:Hat open.wav
64,192,18192,1,2,0:0:0:0:
192,192,18279,1,2,0:0:0:0:
448,192,18279,1,0,0:0:0:0:
64,192,18366,1,2,0:0:0:0:
320,192,18366,1,0,0:0:0:0:
192,192,18453,1,8,0:0:0:0:
448,192,18453,1,0,0:0:0:50:Hat open.wav
320,192,18540,1,2,0:0:0:0:
64,192,18628,1,2,0:0:0:0:
192,192,18628,1,0,0:0:0:0:
320,192,18715,1,2,0:0:0:0:
448,192,18715,1,0,0:0:0:0:
64,192,18802,1,8,0:0:0:0:
192,192,18802,1,0,0:0:0:50:Hat open.wav
448,192,18889,1,2,0:0:0:0:
320,192,18976,1,2,0:0:0:0:
192,192,19064,1,2,0:0:0:0:
64,192,19151,1,8,0:0:0:0:
448,192,19151,1,0,0:0:0:50:Hat open.wav
320,192,19238,1,2,0:0:0:0:
64,192,19325,1,2,0:0:0:0:
192,192,19325,1,0,0:0:0:0:
320,192,19413,1,2,0:0:0:0:
448,192,19413,1,0,0:0:0:0:
64,192,19500,1,8,0:0:0:0:
192,192,19500,1,0,0:0:0:50:Hat open.wav
320,192,19587,1,2,0:0:0:0:
64,192,19674,1,2,0:0:0:0:
448,192,19674,1,0,0:0:0:0:
192,192,19761,1,2,0:0:0:0:
320,192,19761,1,0,0:0:0:0:
64,192,19849,1,8,0:0:0:0:
448,192,19849,1,0,0:0:0:50:Hat open.wav
192,192,19936,1,2,0:0:0:0:
320,192,20023,1,2,0:0:0:0:
448,192,20023,1,0,0:0:0:0:
64,192,20110,1,2,0:0:0:0:
192,192,20197,128,8,20372:0:0:0:0:
320,192,20197,128,0,20372:0:0:0:50:Hat open.wav
448,192,20197,128,0,20372:0:0:0:0:
192,192,20721,128,2,21069:0:0:0:0:
64,192,20895,128,8,21069:0:0:0:0:
320,192,20895,128,0,21069:0:0:0:50:Hat open.wav
448,192,20895,128,0,21069:0:0:0:0:
192,192,21418,128,2,21767:0:0:0:0:
64,192,21593,128,8,22116:0:0:0:0:
448,192,21593,128,4,21767:0:0:0:0:
320,192,21767,128,2,21942:0:0:0:0:
192,192,21942,128,8,22116:0:0:0:0:
448,192,21942,128,0,22465:0:0:0:50:Hat open.wav
320,192,22116,128,2,22465:0:0:0:0:
64,192,22290,128,8,22465:0:0:0:0:
192,192,22290,128,0,22465:0:0:0:50:Hat open.wav
192,192,22988,1,4,0:0:0:0:
320,192,22988,1,8,0:0:0:0:
448,192,22988,1,0,0:0:0:0:
64,192,23075,1,2,0:0:0:0:
320,192,23163,1,2,0:0:0:0:
192,192,23250,1,2,0:0:0:0:
64,192,23337,1,8,0:0:0:0:
448,192,23337,1,0,0:0:0:50:Hat open.wav
320,192,23424,1,2,0:0:0:0:
448,192,23511,1,2,0:0:0:0:
192,192,23599,1,2,0:0:0:0:
64,192,23686,1,8,0:0:0:0:
320,192,23686,1,0,0:0:0:50:Hat open.wav
448,192,23773,1,2,0:0:0:0:
192,192,23860,1,2,0:0:0:0:
64,192,23947,1,2,0:0:0:0:
320,192,24035,1,8,0:0:0:0:
448,192,24035,1,0,0:0:0:50:Hat open.wav
192,192,24122,1,2,0:0:0:0:
448,192,24209,1,2,0:0:0:0:
320,192,24296,1,2,0:0:0:0:
64,192,24383,1,8,0:0:0:0:
192,192,24383,1,0,0:0:0:50:Hat open.wav
448,192,24471,1,2,0:0:0:0:
320,192,24558,1,2,0:0:0:0:
64,192,24645,1,2,0:0:0:0:
192,192,24732,1,8,0:0:0:0:
448,192,24732,1,0,0:0:0:50:Hat open.wav
64,192,24819,1,2,0:0:0:0:
320,192,24907,1,2,0:0:0:0:
448,192,24994,1,2,0:0:0:0:
64,192,25081,1,8,0:0:0:0:
192,192,25081,1,0,0:0:0:50:Hat open.wav
320,192,25168,1,2,0:0:0:0:
64,192,25256,1,2,0:0:0:0:
192,192,25343,1,2,0:0:0:0:
320,192,25430,1,8,0:0:0:0:
448,192,25430,1,0,0:0:0:50:Hat open.wav
64,192,25517,1,2,0:0:0:0:
320,192,25604,1,2,0:0:0:0:
448,192,25692,1,2,0:0:0:0:
64,192,25779,1,8,0:0:0:0:
192,192,25779,1,0,0:0:0:50:Hat open.wav
320,192,25779,1,0,0:0:0:0:
448,192,25866,1,2,0:0:0:0:
192,192,25953,1,2,0:0:0:0:
320,192,26040,1,2,0:0:0:0:
64,192,26128,1,8,0:0:0:0:
448,192,26128,1,0,0:0:0:50:Hat open.wav
192,192,26215,1,2,0:0:0:0:
320,192,26302,1,2,0:0:0:0:
64,192,26389,1,2,0:0:0:0:
192,192,26476,1,8,0:0:0:0:
320,192,26476,1,0,0:0:0:50:Hat open.wav
448,192,26476,1,0,0:0:0:0:
64,192,26564,1,2,0:0:0:0:
192,192,26651,1,2,0:0:0:0:
448,192,26738,1,2,0:0:0:0:
64,192,26825,1,8,0:0:0:0:
320,192,26825,1,0,0:0:0:50:Hat open.wav
192,192,26913,1,2,0:0:0:0:
448,192,27000,1,2,0:0:0:0:
320,192,27087,1,2,0:0:0:0:
64,192,27174,1,8,0:0:0:0:
192,192,27174,1,0,0:0:0:50:Hat open.wav
448,192,27174,1,0,0:0:0:0:
320,192,27261,1,2,0:0:0:0:
192,192,27349,1,2,0:0:0:0:
448,192,27436,1,2,0:0:0:0:
64,192,27523,1,8,0:0:0:0:
192,192,27523,1,0,0:0:0:50:Hat open.wav
320,192,27523,1,0,0:0:0:0:
448,192,27610,1,2,0:0:0:0:
320,192,27697,1,2,0:0:0:0:
192,192,27785,1,2,0:0:0:0:
64,192,27872,1,8,0:0:0:0:
320,192,27872,1,0,0:0:0:50:Hat open.wav
448,192,27872,1,0,0:0:0:0:
192,192,27959,1,2,0:0:0:0:
64,192,28046,1,2,0:0:0:0:
448,192,28133,1,2,0:0:0:0:
192,192,28221,1,8,0:0:0:0:
320,192,28221,1,0,0:0:0:50:Hat open.wav
64,192,28308,1,2,0:0:0:0:
320,192,28395,1,2,0:0:0:0:
448,192,28482,1,2,0:0:0:0:
64,192,28569,1,8,0:0:0:0:
192,192,28569,1,0,0:0:0:50:Hat open.wav
320,192,28657,1,2,0:0:0:0:
64,192,28744,1,2,0:0:0:0:
192,192,28831,1,2,0:0:0:0:
320,192,28918,1,8,0:0:0:0:
448,192,28918,1,0,0:0:0:50:Hat open.wav
64,192,29006,1,2,0:0:0:0:
320,192,29093,1,2,0:0:0:0:
192,192,29180,1,2,0:0:0:0:
64,192,29267,1,8,0:0:0:0:
448,192,29267,1,0,0:0:0:50:Hat open.wav
320,192,29354,1,2,0:0:0:0:
192,192,29442,1,2,0:0:0:0:
448,192,29529,1,2,0:0:0:0:
64,192,29616,1,8,0:0:0:0:
320,192,29616,1,0,0:0:0:50:Hat open.wav
448,192,29703,1,2,0:0:0:0:
192,192,29790,1,2,0:0:0:0:
320,192,29878,1,2,0:0:0:0:
64,192,29965,1,8,0:0:0:0:
448,192,29965,1,0,0:0:0:50:Hat open.wav
192,192,30052,1,2,0:0:0:0:
64,192,30139,1,2,0:0:0:0:
320,192,30226,1,2,0:0:0:0:
192,192,30314,1,8,0:0:0:0:
448,192,30314,1,0,0:0:0:50:Hat open.wav
320,192,30401,1,2,0:0:0:0:
64,192,30488,1,2,0:0:0:0:
448,192,30575,1,2,0:0:0:0:
192,192,30663,1,8,0:0:0:0:
320,192,30663,1,0,0:0:0:50:Hat open.wav
64,192,30750,1,2,0:0:0:0:
192,192,30837,1,2,0:0:0:0:
448,192,30924,1,2,0:0:0:0:
64,192,31011,1,8,0:0:0:0:
320,192,31011,1,0,0:0:0:50:Hat open.wav
448,192,31099,1,2,0:0:0:0:
192,192,31186,1,2,0:0:0:0:
64,192,31273,1,2,0:0:0:0:
192,192,31360,1,8,0:0:0:0:
320,192,31360,1,0,0:0:0:50:Hat open.wav
448,192,31360,1,0,0:0:0:0:
64,192,31447,1,2,0:0:0:0:
320,192,31535,1,2,0:0:0:0:
192,192,31622,1,2,0:0:0:0:
64,192,31709,1,8,0:0:0:0:
448,192,31709,1,0,0:0:0:50:Hat open.wav
320,192,31796,1,2,0:0:0:0:
192,192,31883,1,2,0:0:0:0:
448,192,31971,1,2,0:0:0:0:
64,192,32058,1,8,0:0:0:0:
192,192,32058,1,0,0:0:0:50:Hat open.wav
320,192,32058,1,0,0:0:0:0:
448,192,32145,1,2,0:0:0:0:
320,192,32232,1,2,0:0:0:0:
64,192,32319,1,2,0:0:0:0:
192,192,32407,1,8,0:0:0:0:
448,192,32407,1,0,0:0:0:50:Hat open.wav
320,192,32494,1,2,0:0:0:0:
64,192,32581,1,2,0:0:0:0:
192,192,32668,1,2,0:0:0:0:
64,192,32756,1,8,0:0:0:0:
320,192,32756,1,0,0:0:0:50:Hat open.wav
448,192,32756,1,0,0:0:0:0:
192,192,32843,1,2,0:0:0:0:
448,192,32930,1,2,0:0:0:0:
320,192,33017,1,2,0:0:0:0:
64,192,33104,1,8,0:0:0:0:
192,192,33104,1,0,0:0:0:50:Hat open.wav
448,192,33104,1,0,0:0:0:0:
320,192,33192,1,2,0:0:0:0:
192,192,33279,1,2,0:0:0:0:
448,192,33366,1,2,0:0:0:0:
64,192,33453,1,8,0:0:0:0:
192,192,33453,1,0,0:0:0:50:Hat open.wav
320,192,33453,1,0,0:0:0:0:
448,192,33540,1,2,0:0:0:0:
320,192,33628,1,2,0:0:0:0:
64,192,33715,1,2,0:0:0:0:
192,192,33802,1,8,0:0:0:0:
448,192,33802,1,0,0:0:0:50:Hat open.wav
320,192,33889,1,2,0:0:0:0:
64,192,33976,1,2,0:0:0:0:
192,192,34064,1,2,0:0:0:0:
64,192,34151,1,8,0:0:0:0:
320,192,34151,1,4,0:0:0:0:
448,192,34151,1,0,0:0:0:0:
192,192,34238,1,2,0:0:0:0:
448,192,34325,1,2,0:0:0:0:
320,192,34413,1,2,0:0:0:0:
64,192,34500,1,8,0:0:0:0:
192,192,34500,1,0,0:0:0:50:Hat open.wav
448,192,34587,1,2,0:0:0:0:
64,192,34674,1,2,0:0:0:0:
192,192,34761,1,2,0:0:0:0:
320,192,34849,1,8,0:0:0:0:
448,192,34849,1,0,0:0:0:50:Hat open.wav
64,192,34936,1,2,0:0:0:0:
320,192,35023,1,2,0:0:0:0:
192,192,35110,1,2,0:0:0:0:
64,192,35197,1,8,0:0:0:0:
448,192,35197,1,0,0:0:0:50:Hat open.wav
320,192,35285,1,2,0:0:0:0:
448,192,35372,1,2,0:0:0:0:
192,192,35459,1,2,0:0:0:0:
64,192,35546,1,8,0:0:0:0:
320,192,35546,1,0,0:0:0:50:Hat open.wav
448,192,35633,1,2,0:0:0:0:
192,192,35721,1,2,0:0:0:0:
320,192,35808,1,2,0:0:0:0:
64,192,35895,1,8,0:0:0:0:
448,192,35895,1,0,0:0:0:50:Hat open.wav
192,192,35982,1,2,0:0:0:0:
64,192,36069,1,2,0:0:0:0:
320,192,36157,1,2,0:0:0:0:
192,192,36244,1,8,0:0:0:0:
448,192,36244,1,0,0:0:0:50:Hat open.wav
64,192,36331,1,2,0:0:0:0:
320,192,36418,1,2,0:0:0:0:
448,192,36506,1,2,0:0:0:0:
64,192,36593,1,8,0:0:0:0:
192,192,36593,1,0,0:0:0:50:Hat open.wav
320,192,36680,1,2,0:0:0:0:
448,192,36767,1,2,0:0:0:0:
192,192,36854,1,2,0:0:0:0:
64,192,36942,1,8,0:0:0:0:
320,192,36942,1,0,0:0:0:50:Hat open.wav
448,192,36942,1,0,0:0:0:0:
192,192,37029,1,2,0:0:0:0:
64,192,37116,1,2,0:0:0:0:
320,192,37203,1,2,0:0:0:0:
192,192,37290,1,8,0:0:0:0:
448,192,37290,1,0,0:0:0:50:Hat open.wav
64,192,37378,1,2,0:0:0:0:
320,192,37465,1,2,0:0:0:0:
448,192,37552,1,2,0:0:0:0:
64,192,37639,1,8,0:0:0:0:
192,192,37639,1,0,0:0:0:50:Hat open.wav
320,192,37639,1,0,0:0:0:0:
448,192,37726,1,2,0:0:0:0:
192,192,37814,1,2,0:0:0:0:
320,192,37901,1,2,0:0:0:0:
64,192,37988,1,8,0:0:0:0:
448,192,37988,1,0,0:0:0:50:Hat open.wav
192,192,38075,1,2,0:0:0:0:
320,192,38163,1,2,0:0:0:0:
64,192,38250,1,2,0:0:0:0:
192,192,38337,1,8,0:0:0:0:
320,192,38337,1,0,0:0:0:50:Hat open.wav
448,192,38337,1,0,0:0:0:0:
64,192,38424,1,2,0:0:0:0:
448,192,38511,1,2,0:0:0:0:
192,192,38599,1,2,0:0:0:0:
64,192,38686,1,8,0:0:0:0:
320,192,38686,1,0,0:0:0:50:Hat open.wav
448,192,38686,1,0,0:0:0:0:
192,192,38773,1,2,0:0:0:0:
64,192,38860,1,2,0:0:0:0:
320,192,38947,1,2,0:0:0:0:
64,192,39035,1,8,0:0:0:0:
192,192,39035,1,0,0:0:0:50:Hat open.wav
448,192,39035,1,0,0:0:0:0:
320,192,39122,1,2,0:0:0:0:
192,192,39209,1,2,0:0:0:0:
448,192,39296,1,2,0:0:0:0:
64,192,39383,1,8,0:0:0:0:
320,192,39383,1,0,0:0:0:50:Hat open.wav
192,192,39471,1,2,0:0:0:0:
320,192,39558,1,2,0:0:0:0:
448,192,39645,1,2,0:0:0:0:
64,192,39732,1,8,0:0:0:0:
192,192,39732,1,0,0:0:0:50:Hat open.wav
320,192,39819,1,2,0:0:0:0:
64,192,39907,1,2,0:0:0:0:
192,192,39994,1,2,0:0:0:0:
320,192,40081,1,8,0:0:0:0:
448,192,40081,1,0,0:0:0:50:Hat open.wav
64,192,40168,1,2,0:0:0:0:
448,192,40256,1,2,0:0:0:0:
192,192,40343,1,2,0:0:0:0:
64,192,40430,1,8,0:0:0:0:
320,192,40430,1,0,0:0:0:50:Hat open.wav
448,192,40517,1,2,0:0:0:0:
192,192,40604,1,2,0:0:0:0:
320,192,40692,1,2,0:0:0:0:
64,192,40779,1,8,0:0:0:0:
448,192,40779,1,0,0:0:0:50:Hat open.wav
192,192,40866,1,2,0:0:0:0:
320,192,40953,1,2,0:0:0:0:
64,192,41040,1,2,0:0:0:0:
192,192,41128,1,4,0:0:0:0:
320,192,41128,1,0,0:0:0:50:Tom1.wav
448,192,41128,1,0,0:0:0:0:
64,192,41215,1,2,0:0:0:0:
192,192,41302,1,2,0:0:0:0:
448,192,41389,1,2,0:0:0:0:
64,192,41476,1,4,0:0:0:0:
192,192,41476,1,0,0:0:0:50:Tom2.wav
320,192,41476,1,0,0:0:0:0:
448,192,41564,1,2,0:0:0:0:
320,192,41651,1,2,0:0:0:0:
192,192,41738,1,2,0:0:0:0:
64,192,41825,1,0,0:0:0:40:Tom2.wav
448,192,41825,1,0,0:0:0:0:
320,192,41883,1,0,0:0:0:40:Tom2.wav
192,192,41942,1,0,0:0:0:40:Tom2.wav
64,192,42000,1,0,0:0:0:40:Tom3.wav
320,192,42058,1,0,0:0:0:40:Tom3.wav
448,192,42116,1,0,0:0:0:40:Tom3.wav
192,192,42174,1,0,0:0:0:40:Tom1.wav
320,192,42232,1,0,0:0:0:40:Tom1.wav
64,192,42290,1,0,0:0:0:40:Tom2.wav
192,192,42349,1,0,0:0:0:40:Tom2.wav
320,192,42407,1,0,0:0:0:40:Tom3.wav
448,192,42465,1,0,0:0:0:40:Tom3.wav
64,192,42523,128,8,42697:0:0:0:0:
192,192,42523,128,0,42697:0:0:0:50:Hat open.wav
320,192,42523,128,0,42697:0:0:0:0:
320,192,43046,128,2,43395:0:0:0:0:
64,192,43221,128,8,43395:0:0:0:0:
192,192,43221,128,0,43395:0:0:0:50:Hat open.wav
448,192,43221,128,0,43395:0:0:0:0:
320,192,43744,1,2,0:0:0:0:
192,192,43831,1,2,0:0:0:0:
64,192,43918,1,8,0:0:0:0:
320,192,43918,1,4,0:0:0:0:
448,192,43918,1,0,0:0:0:0:
192,192,44006,1,2,0:0:0:0:
64,192,44093,1,2,0:0:0:0:
448,192,44180,1,2,0:0:0:0:
64,192,44267,1,4,0:0:0:0:
192,192,44267,1,8,0:0:0:0:
320,192,44267,1,0,0:0:0:0:
448,192,44354,1,2,0:0:0:0:
192,192,44442,1,2,0:0:0:0:
320,192,44529,1,2,0:0:0:0:
64,192,44616,128,4,44790:0:0:0:0:
192,192,44616,128,8,44790:0:0:0:0:
448,192,44616,128,0,44790:0:0:0:0:
320,192,45139,1,0,0:0:0:0:
192,192,45197,1,0,0:0:0:0:
64,192,45256,1,0,0:0:0:0:
192,192,45314,1,2,0:0:0:0:
320,192,45314,1,4,0:0:0:0:
448,192,45314,1,0,0:0:0:0:
64,192,45663,1,8,0:0:0:0:
320,192,45663,1,0,0:0:0:40:Ride.wav
448,192,45663,1,0,0:0:0:0:
192,192,45837,1,2,0:0:0:0:
448,192,45837,1,0,0:0:0:0:
320,192,46011,1,0,0:0:0:40:Ride.wav
192,192,46186,1,2,0:0:0:0:
448,192,46186,1,0,0:0:0:0:
64,192,46360,1,8,0:0:0:0:
192,192,46360,1,0,0:0:0:40:Ride.wav
320,192,46360,1,0,0:0:0:0:
64,192,46709,1,2,0:0:0:0:
448,192,46709,1,0,0:0:0:40:Ride.wav
64,192,46883,1,2,0:0:0:0:
448,192,46883,1,0,0:0:0:0:
192,192,47058,1,8,0:0:0:0:
320,192,47058,1,0,0:0:0:40:Ride.wav
448,192,47058,1,0,0:0:0:0:
64,192,47232,1,2,0:0:0:0:
192,192,47232,1,0,0:0:0:0:
320,192,47319,1,0,0:0:0:0:
448,192,47407,1,0,0:0:0:40:Ride.wav
64,192,47581,1,2,0:0:0:0:
320,192,47581,1,0,0:0:0:0:
64,192,47756,1,8,0:0:0:0:
192,192,47756,1,0,0:0:0:40:Ride.wav
448,192,47756,1,0,0:0:0:0:
320,192,47930,1,0,0:0:0:0:
64,192,48104,1,2,0:0:0:0:
448,192,48104,1,0,0:0:0:40:Ride.wav
192,192,48279,1,0,0:0:0:0:
64,192,48453,1,8,0:0:0:0:
320,192,48453,1,0,0:0:0:40:Ride.wav
448,192,48453,1,0,0:0:0:0:
192,192,48628,1,2,0:0:0:0:
448,192,48628,1,0,0:0:0:0:
64,192,48715,1,0,0:0:0:0:
320,192,48802,1,0,0:0:0:40:Ride.wav
64,192,48976,1,2,0:0:0:0:
192,192,48976,1,0,0:0:0:0:
192,192,49151,1,8,0:0:0:0:
320,192,49151,1,0,0:0:0:40:Ride.wav
448,192,49151,1,0,0:0:0:0:
64,192,49325,1,0,0:0:0:0:
320,192,49500,1,2,0:0:0:0:
448,192,49500,1,0,0:0:0:40:Ride.wav
64,192,49587,1,0,0:0:0:0:
192,192,49674,1,2,0:0:0:0:
64,192,49849,1,8,0:0:0:0:
320,192,49849,1,0,0:0:0:40:Ride.wav
448,192,49849,1,0,0:0:0:0:
64,192,50023,1,2,0:0:0:0:
192,192,50023,1,0,0:0:0:0:
448,192,50110,1,0,0:0:0:0:
320,192,50197,1,0,0:0:0:40:Ride.wav
64,192,50285,1,0,0:0:0:0:
192,192,50372,1,2,0:0:0:0:
448,192,50372,1,0,0:0:0:0:
64,192,50546,1,8,0:0:0:0:
192,192,50546,1,0,0:0:0:50:Hat open.wav
320,192,50546,1,0,0:0:0:0:
320,192,50721,1,0,0:0:0:0:
64,192,50895,1,2,0:0:0:0:
192,192,50895,1,4,0:0:0:0:
448,192,50895,1,0,0:0:0:0:
64,192,51244,1,8,0:0:0:0:
192,192,51244,1,0,0:0:0:40:Ride.wav
320,192,51244,1,0,0:0:0:0:
320,192,51418,1,2,0:0:0:0:
448,192,51418,1,0,0:0:0:0:
192,192,51506,1,0,0:0:0:0:
64,192,51593,1,0,0:0:0:40:Ride.wav
192,192,51767,1,2,0:0:0:0:
448,192,51767,1,0,0:0:0:0:
64,192,51942,1,8,0:0:0:0:
320,192,51942,1,0,0:0:0:40:Ride.wav
448,192,51942,1,0,0:0:0:0:
192,192,52116,1,0,0:0:0:0:
64,192,52290,1,2,0:0:0:0:
320,192,52290,1,0,0:0:0:40:Ride.wav
64,192,52465,1,2,0:0:0:0:
320,192,52465,1,0,0:0:0:0:
192,192,52639,1,8,0:0:0:0:
320,192,52639,1,0,0:0:0:40:Ride.wav
448,192,52639,1,0,0:0:0:0:
64,192,52814,1,2,0:0:0:0:
448,192,52814,1,0,0:0:0:0:
192,192,52901,1,0,0:0:0:0:
320,192,52988,1,0,0:0:0:40:Ride.wav
192,192,53163,1,2,0:0:0:0:
448,192,53163,1,0,0:0:0:0:
64,192,53337,1,8,0:0:0:0:
320,192,53337,1,0,0:0:0:40:Ride.wav
448,192,53337,1,0,0:0:0:0:
192,192,53511,1,0,0:0:0:0:
64,192,53686,1,2,0:0:0:0:
320,192,53686,1,0,0:0:0:40:Ride.wav
448,192,53860,1,0,0:0:0:0:
64,192,54035,1,8,0:0:0:0:
192,192,54035,1,0,0:0:0:40:Ride.wav
320,192,54035,1,0,0:0:0:0:
192,192,54209,1,2,0:0:0:0:
448,192,54209,1,0,0:0:0:0:
320,192,54383,1,0,0:0:0:40:Ride.wav
64,192,54558,1,2,0:0:0:0:
192,192,54558,1,0,0:0:0:0:
64,192,54732,1,8,0:0:0:0:
320,192,54732,1,0,0:0:0:40:Ride.wav
448,192,54732,1,0,0:0:0:0:
448,192,54907,1,0,0:0:0:0:
64,192,55081,1,2,0:0:0:0:
192,192,55081,1,0,0:0:0:40:Ride.wav
320,192,55256,1,2,0:0:0:0:
448,192,55256,1,0,0:0:0:0:
64,192,55430,1,8,0:0:0:0:
192,192,55430,1,0,0:0:0:40:Ride.wav
320,192,55430,1,0,0:0:0:0:
64,192,55604,1,2,0:0:0:0:
448,192,55604,1,0,0:0:0:0:
192,192,55779,1,0,0:0:0:50:Tom1.wav
320,192,55779,1,0,0:0:0:0:
192,192,55953,1,2,0:0:0:0:
448,192,55953,1,0,0:0:0:0:
64,192,56128,1,8,0:0:0:0:
320,192,56128,1,0,0:0:0:50:Hat open.wav
448,192,56128,1,0,0:0:0:0:
192,192,56302,1,0,0:0:0:0:
192,192,56476,1,2,0:0:0:0:
320,192,56476,1,4,0:0:0:0:
448,192,56476,1,0,0:0:0:0:
64,192,56535,1,0,0:0:0:0:
320,192,56593,1,0,0:0:0:0:
448,192,56651,1,0,0:0:0:0:
192,192,56825,1,0,0:0:0:0:
320,192,57000,1,0,0:0:0:0:
64,192,57174,1,0,0:0:0:0:
192,192,57349,1,0,0:0:0:0:
448,192,57523,1,0,0:0:0:0:
320,192,57697,1,0,0:0:0:0:
64,192,57872,1,0,0:0:0:0:
448,192,58221,1,0,0:0:0:0:
192,192,58395,1,0,0:0:0:0:
64,192,58744,1,2,0:0:0:0:
192,192,58744,1,0,0:0:0:0:
64,192,58918,1,8,0:0:0:0:
320,192,58918,1,0,0:0:0:0:
448,192,58918,1,0,0:0:0:0:
192,192,59093,1,8,0:0:0:0:
320,192,59093,1,0,0:0:0:0:
448,192,59093,1,0,0:0:0:0:
64,192,59267,1,2,0:0:0:0:
192,192,59267,1,4,0:0:0:0:
320,192,59267,1,0,0:0:0:0:
64,192,59442,1,2,0:0:0:0:
448,192,59442,1,0,0:0:0:0:
192,192,59616,1,8,0:0:0:0:
320,192,59616,1,0,0:0:0:0:
448,192,59616,1,0,0:0:0:0:
64,192,59790,1,2,0:0:0:0:
320,192,59790,1,0,0:0:0:0:
192,192,59965,1,2,0:0:0:0:
448,192,59965,1,0,0:0:0:40:Ride.wav
64,192,60139,1,8,0:0:0:0:
192,192,60139,1,0,0:0:0:0:
320,192,60139,1,0,0:0:0:0:
64,192,60314,1,8,0:0:0:0:
320,192,60314,1,0,0:0:0:40:Ride.wav
448,192,60314,1,0,0:0:0:0:
192,192,60488,1,0,0:0:0:50:Tom2.wav
448,192,60488,1,0,0:0:0:0:
64,192,60663,128,2,60750:0:0:0:0:
192,192,60663,128,0,60750:0:0:0:50:Hat open.wav
320,192,60663,128,0,60750:0:0:0:0:
64,192,60837,128,8,60924:0:0:0:0:
320,192,60837,128,0,60924:0:0:0:50:Hat open.wav
448,192,60837,128,0,60924:0:0:0:0:
64,192,61011,128,8,61099:0:0:0:0:
192,192,61011,128,0,61099:0:0:0:50:Hat open.wav
448,192,61011,128,0,61099:0:0:0:0:
192,192,61186,128,8,61273:0:0:0:0:
320,192,61186,128,0,61273:0:0:0:50:Hat open.wav
448,192,61186,128,0,61273:0:0:0:0:
64,192,61360,1,0,0:0:0:0:
320,192,61404,1,0,0:0:0:0:
192,192,61447,1,0,0:0:0:0:
448,192,61491,1,0,0:0:0:0:
64,192,61535,1,0,0:0:0:0:
320,192,61578,1,0,0:0:0:0:
192,192,61622,1,0,0:0:0:0:
448,192,61665,1,0,0:0:0:0:
64,192,61709,128,0,61883:0:0:0:0:
320,192,61883,128,0,62058:0:0:0:0:
64,192,62058,1,2,0:0:0:0:
192,192,62058,128,4,62232:0:0:0:0:
448,192,62058,1,0,0:0:0:0:
320,192,62232,1,8,0:0:0:0:
448,192,62232,1,0,0:0:0:0:
64,192,62407,1,2,0:0:0:0:
320,192,62407,128,0,62756:0:0:0:0:
64,192,62581,1,8,0:0:0:0:
192,192,62581,1,0,0:0:0:50:Hat open.wav
448,192,62581,128,0,62756:0:0:0:0:
192,192,62756,1,2,0:0:0:0:
64,192,62930,1,8,0:0:0:0:
320,192,62930,1,0,0:0:0:50:Hat open.wav
448,192,62930,1,0,0:0:0:0:
192,192,63104,1,2,0:0:0:0:
320,192,63104,128,0,63279:0:0:0:0:
64,192,63279,128,8,63453:0:0:0:0:
192,192,63279,1,0,0:0:0:50:Hat open.wav
448,192,63279,1,0,0:0:0:0:
320,192,63453,1,2,0:0:0:0:
448,192,63453,128,0,63802:0:0:0:0:
64,192,63628,1,8,0:0:0:0:
192,192,63628,1,0,0:0:0:50:Hat open.wav
320,192,63628,1,0,0:0:0:0:
64,192,63802,1,2,0:0:0:0:
192,192,63802,128,0,64151:0:0:0:0:
64,192,63976,1,8,0:0:0:0:
320,192,63976,128,0,64151:0:0:0:50:Hat open.wav
448,192,63976,1,0,0:0:0:0:
448,192,64151,1,2,0:0:0:0:
64,192,64238,1,2,0:0:0:0:
192,192,64325,1,8,0:0:0:0:
320,192,64325,1,0,0:0:0:50:Hat open.wav
448,192,64325,1,0,0:0:0:0:
64,192,64500,1,2,0:0:0:0:
320,192,64500,1,0,0:0:0:0:
64,192,64674,1,8,0:0:0:0:
192,192,64674,1,0,0:0:0:50:Hat open.wav
448,192,64674,1,0,0:0:0:0:
192,192,64849,1,2,0:0:0:0:
320,192,64849,1,4,0:0:0:0:
448,192,64849,1,0,0:0:0:0:
64,192,65023,128,8,65197:0:0:0:0:
320,192,65023,1,0,0:0:0:0:
192,192,65197,1,2,0:0:0:0:
448,192,65197,1,0,0:0:0:0:
64,192,65372,128,8,65546:0:0:0:0:
192,192,65372,1,0,0:0:0:50:Hat open.wav
320,192,65372,1,0,0:0:0:0:
320,192,65546,128,2,65721:0:0:0:0:
448,192,65546,1,0,0:0:0:0:
64,192,65721,1,8,0:0:0:0:
192,192,65721,128,0,65895:0:0:0:50:Hat open.wav
448,192,65721,1,0,0:0:0:0:
320,192,65895,1,2,0:0:0:0:
64,192,65982,1,2,0:0:0:0:
192,192,66069,1,8,0:0:0:0:
320,192,66069,1,0,0:0:0:50:Hat open.wav
448,192,66069,128,0,66593:0:0:0:0:
64,192,66244,1,6,0:0:0:0:
64,192,66418,1,8,0:0:0:0:
192,192,66418,1,0,0:0:0:0:
320,192,66418,128,0,66942:0:0:0:0:
192,192,66593,1,2,0:0:0:0:
64,192,66767,128,8,66854:0:0:0:0:
448,192,66767,128,0,66942:0:0:0:0:
64,192,66942,1,2,0:0:0:0:
192,192,66942,1,0,0:0:0:0:
320,192,67029,1,2,0:0:0:0:
192,192,67116,1,8,0:0:0:0:
448,192,67116,1,0,0:0:0:0:
64,192,67203,1,2,0:0:0:0:
320,192,67290,1,2,0:0:0:0:
448,192,67290,1,0,0:0:0:50:Hat open.wav
192,192,67378,1,2,0:0:0:0:
64,192,67465,1,8,0:0:0:0:
320,192,67465,1,0,0:0:0:0:
448,192,67552,1,2,0:0:0:0:
64,192,67639,128,2,67814:0:0:0:0:
192,192,67639,1,4,0:0:0:0:
320,192,67639,1,0,0:0:0:0:
192,192,67814,1,8,0:0:0:0:
448,192,67814,1,0,0:0:0:0:
64,192,67988,1,2,0:0:0:0:
448,192,67988,128,0,68337:0:0:0:0:
64,192,68163,1,8,0:0:0:0:
192,192,68163,1,0,0:0:0:50:Hat open.wav
320,192,68163,128,0,68337:0:0:0:0:
192,192,68337,1,2,0:0:0:0:
64,192,68511,1,8,0:0:0:0:
320,192,68511,1,0,0:0:0:50:Hat open.wav
448,192,68511,1,0,0:0:0:0:
192,192,68686,1,2,0:0:0:0:
320,192,68686,1,0,0:0:0:0:
64,192,68860,1,8,0:0:0:0:
192,192,68860,1,0,0:0:0:50:Hat open.wav
448,192,68860,1,0,0:0:0:0:
320,192,69035,1,2,0:0:0:0:
448,192,69035,128,0,69209:0:0:0:0:
64,192,69209,1,8,0:0:0:0:
192,192,69209,1,0,0:0:0:50:Hat open.wav
320,192,69209,1,0,0:0:0:0:
64,192,69383,128,2,69732:0:0:0:0:
448,192,69383,1,0,0:0:0:0:
192,192,69558,128,8,69732:0:0:0:0:
320,192,69558,1,0,0:0:0:50:Hat open.wav
448,192,69558,1,0,0:0:0:0:
320,192,69732,1,2,0:0:0:0:
64,192,69819,1,2,0:0:0:0:
192,192,69907,1,8,0:0:0:0:
320,192,69907,1,0,0:0:0:50:Hat open.wav
448,192,69907,1,0,0:0:0:0:
64,192,70081,1,2,0:0:0:0:
448,192,70081,128,0,70256:0:0:0:0:
64,192,70256,1,8,0:0:0:0:
192,192,70256,1,0,0:0:0:0:
320,192,70256,128,0,70430:0:0:0:0:
192,192,70430,1,2,0:0:0:0:
448,192,70430,1,0,0:0:0:0:
64,192,70517,1,2,0:0:0:0:
320,192,70604,1,2,0:0:0:0:
448,192,70604,1,0,0:0:0:0:
192,192,70692,1,2,0:0:0:0:
64,192,70779,1,8,0:0:0:0:
320,192,70779,1,4,0:0:0:0:
448,192,70779,1,0,0:0:0:0:
192,192,70866,1,0,0:0:0:0:
320,192,70953,1,0,0:0:0:0:
192,192,71040,1,0,0:0:0:0:
64,192,71128,1,2,0:0:0:0:
448,192,71128,1,0,0:0:0:0:
320,192,71215,1,2,0:0:0:0:
64,192,71302,1,2,0:0:0:0:
192,192,71302,1,0,0:0:0:0:
448,192,71389,1,2,0:0:0:0:
64,192,71476,1,8,0:0:0:0:
192,192,71476,1,4,0:0:0:0:
320,192,71476,1,0,0:0:0:0:
448,192,71564,1,0,0:0:0:0:
320,192,71651,1,0,0:0:0:0:
448,192,71738,1,0,0:0:0:0:
64,192,71825,1,2,0:0:0:0:
192,192,71825,1,0,0:0:0:0:
320,192,71913,1,2,0:0:0:0:
64,192,72000,1,2,0:0:0:0:
192,192,72087,1,2,0:0:0:0:
64,192,72174,1,8,0:0:0:0:
320,192,72174,1,4,0:0:0:0:
448,192,72174,1,0,0:0:0:0:
192,192,72261,1,0,0:0:0:0:
448,192,72349,1,2,0:0:0:0:
320,192,72436,1,2,0:0:0:0:
64,192,72523,1,8,0:0:0:0:
192,192,72523,1,0,0:0:0:0:
320,192,72610,1,8,0:0:0:0:
448,192,72610,1,0,0:0:0:0:
64,192,72697,1,0,0:0:0:50:Tom1.wav
192,192,72785,1,0,0:0:0:50:Tom1.wav
448,192,72872,1,0,0:0:0:50:Tom2.wav
320,192,72872,1,0,0:0:0:0:
192,192,72959,1,0,0:0:0:50:Tom2.wav
448,192,73046,1,0,0:0:0:50:Tom3.wav
64,192,73046,1,0,0:0:0:0:
320,192,73133,1,8,0:0:0:0:
64,192,73221,128,2,73395:0:0:0:0:
192,192,73221,1,4,0:0:0:0:
448,192,73221,1,0,0:0:0:0:
192,192,73395,1,8,0:0:0:0:
320,192,73395,1,0,0:0:0:0:
320,192,73569,128,2,73918:0:0:0:0:
448,192,73569,1,0,0:0:0:0:
64,192,73744,1,8,0:0:0:0:
192,192,73744,128,0,73918:0:0:0:50:Hat open.wav
448,192,73744,1,0,0:0:0:0:
64,192,73918,1,2,0:0:0:0:
192,192,74093,1,8,0:0:0:0:
320,192,74093,1,0,0:0:0:50:Hat open.wav
448,192,74093,1,0,0:0:0:0:
64,192,74267,1,2,0:0:0:0:
320,192,74267,1,0,0:0:0:0:
64,192,74442,1,8,0:0:0:0:
192,192,74442,1,0,0:0:0:50:Hat open.wav
448,192,74442,1,0,0:0:0:0:
192,192,74616,128,2,74790:0:0:0:0:
320,192,74616,1,0,0:0:0:0:
64,192,74790,1,8,0:0:0:0:
320,192,74790,1,0,0:0:0:50:Hat open.wav
448,192,74790,1,0,0:0:0:0:
192,192,74965,1,2,0:0:0:0:
448,192,74965,128,0,75314:0:0:0:0:
64,192,75139,1,8,0:0:0:0:
192,192,75139,1,0,0:0:0:50:Hat open.wav
320,192,75139,128,0,75314:0:0:0:0:
64,192,75314,1,2,0:0:0:0:
448,192,75401,1,2,0:0:0:0:
64,192,75488,1,8,0:0:0:0:
192,192,75488,1,0,0:0:0:50:Hat open.wav
320,192,75488,1,0,0:0:0:0:
192,192,75663,128,2,75837:0:0:0:0:
448,192,75663,1,0,0:0:0:0:
64,192,75837,1,8,0:0:0:0:
320,192,75837,1,0,0:0:0:50:Hat open.wav
448,192,75837,128,0,76011:0:0:0:0:
64,192,76011,128,2,76186:0:0:0:0:
192,192,76011,1,4,0:0:0:0:
320,192,76011,1,0,0:0:0:0:
192,192,76186,1,8,0:0:0:0:
448,192,76186,1,0,0:0:0:0:
64,192,76360,1,2,0:0:0:0:
320,192,76360,1,0,0:0:0:0:
192,192,76535,1,8,0:0:0:0:
320,192,76535,1,0,0:0:0:50:Hat open.wav
448,192,76535,1,0,0:0:0:0:
64,192,76709,1,2,0:0:0:0:
448,192,76709,1,0,0:0:0:0:
64,192,76883,1,8,0:0:0:0:
192,192,76883,128,0,77232:0:0:0:50:Hat open.wav
320,192,76883,1,0,0:0:0:0:
448,192,77058,1,2,0:0:0:0:
64,192,77232,1,8,0:0:0:0:
320,192,77232,1,0,0:0:0:50:Hat open.wav
448,192,77232,128,0,77407:0:0:0:0:
192,192,77407,1,2,0:0:0:0:
320,192,77494,1,2,0:0:0:0:
64,192,77581,1,8,0:0:0:0:
448,192,77581,1,0,0:0:0:50:Hat open.wav
192,192,77668,1,0,0:0:0:0:
320,192,77756,1,2,0:0:0:0:
448,192,77756,1,0,0:0:0:0:
192,192,77843,1,0,0:0:0:0:
64,192,77930,1,8,0:0:0:0:
448,192,77930,1,0,0:0:0:0:
320,192,78017,1,0,0:0:0:0:
64,192,78104,1,2,0:0:0:0:
192,192,78104,1,0,0:0:0:30:soft-hitfinish.wav
448,192,78104,1,0,0:0:0:0:
320,192,78192,1,2,0:0:0:0:
64,192,78279,1,8,0:0:0:0:
192,192,78279,1,0,0:0:0:0:
448,192,78366,1,2,0:0:0:0:
64,192,78453,1,2,0:0:0:0:
320,192,78453,1,0,0:0:0:30:soft-hitfinish.wav
192,192,78540,1,2,0:0:0:0:
320,192,78628,1,8,0:0:0:0:
448,192,78628,1,0,0:0:0:0:
64,192,78715,1,2,0:0:0:0:
192,192,78802,1,2,0:0:0:0:
320,192,78802,128,4,78976:0:0:0:0:
448,192,78802,1,0,0:0:0:0:
64,192,78976,1,8,0:0:0:0:
192,192,78976,1,0,0:0:0:0:
64,192,79151,128,2,79500:0:0:0:0:
448,192,79151,1,0,0:0:0:0:
192,192,79325,128,8,79500:0:0:0:0:
320,192,79325,1,0,0:0:0:50:Hat open.wav
448,192,79325,1,0,0:0:0:0:
320,192,79500,1,2,0:0:0:0:
64,192,79674,1,8,0:0:0:0:
192,192,79674,1,0,0:0:0:50:Hat open.wav
448,192,79674,128,0,79849:0:0:0:0:
64,192,79849,128,2,80023:0:0:0:0:
320,192,79849,1,0,0:0:0:0:
192,192,80023,1,8,0:0:0:0:
320,192,80023,128,0,80197:0:0:0:50:Hat open.wav
448,192,80023,1,0,0:0:0:0:
64,192,80197,1,2,0:0:0:0:
192,192,80197,128,0,80372:0:0:0:0:
64,192,80372,1,8,0:0:0:0:
320,192,80372,1,0,0:0:0:50:Hat open.wav
448,192,80372,1,0,0:0:0:0:
192,192,80546,1,2,0:0:0:0:
448,192,80546,128,0,80895:0:0:0:0:
64,192,80721,1,8,0:0:0:0:
192,192,80721,1,0,0:0:0:50:Hat open.wav
320,192,80721,128,0,80895:0:0:0:0:
64,192,80895,1,2,0:0:0:0:
448,192,80982,1,2,0:0:0:0:
64,192,81069,1,8,0:0:0:0:
192,192,81069,1,0,0:0:0:50:Hat open.wav
320,192,81069,1,0,0:0:0:0:
192,192,81244,1,2,0:0:0:0:
448,192,81244,1,0,0:0:0:0:
64,192,81418,1,8,0:0:0:0:
320,192,81418,1,4,0:0:0:0:
448,192,81418,1,0,0:0:0:0:
64,192,81593,1,2,0:0:0:0:
192,192,81593,1,0,0:0:0:0:
320,192,81680,1,2,0:0:0:0:
192,192,81767,1,8,0:0:0:0:
448,192,81767,1,0,0:0:0:50:Hat open.wav
64,192,81854,1,0,0:0:0:0:
320,192,81942,1,2,0:0:0:0:
448,192,81942,1,0,0:0:0:0:
192,192,82029,1,0,0:0:0:0:
64,192,82116,1,8,0:0:0:0:
320,192,82116,1,0,0:0:0:50:Hat open.wav
192,192,82203,1,0,0:0:0:0:
64,192,82290,1,2,0:0:0:0:
448,192,82290,1,0,0:0:0:0:
320,192,82378,1,2,0:0:0:0:
64,192,82465,1,8,0:0:0:0:
192,192,82465,1,0,0:0:0:0:
320,192,82552,1,8,0:0:0:0:
448,192,82552,1,0,0:0:0:0:
192,192,82639,1,0,0:0:0:50:Tom1.wav
448,192,82726,1,0,0:0:0:50:Tom1.wav
64,192,82814,128,2,83163:0:0:0:0:
192,192,82814,128,4,83075:0:0:0:0:
320,192,82814,128,0,82988:0:0:0:0:
320,192,83163,1,2,0:0:0:0:
448,192,83163,1,0,0:0:0:0:
192,192,83250,1,2,0:0:0:0:
64,192,83337,1,2,0:0:0:0:
448,192,83337,1,4,0:0:0:0:
320,192,83424,1,0,0:0:0:0:
192,192,83511,1,0,0:0:0:0:
448,192,83599,1,0,0:0:0:0:
64,192,83686,1,8,0:0:0:0:
192,192,83686,1,0,0:0:0:0:
320,192,83773,1,8,0:0:0:0:
448,192,83773,1,0,0:0:0:0:
64,192,83860,1,0,0:0:0:50:Tom1.wav
192,192,83947,1,0,0:0:0:50:Tom1.wav
320,192,84035,1,8,0:0:0:0:
448,192,84035,1,0,0:0:0:0:
64,192,84122,1,8,0:0:0:0:
192,192,84122,1,0,0:0:0:0:
448,192,84209,1,0,0:0:0:50:Tom3.wav
320,192,84296,1,0,0:0:0:50:Tom3.wav
64,192,84383,1,4,0:0:0:0:
192,192,84383,1,2,0:0:0:0:
448,192,84383,1,0,0:0:0:0:
320,192,84471,1,2,0:0:0:0:
64,192,84558,1,8,0:0:0:0:
192,192,84558,1,0,0:0:0:0:
448,192,84645,1,0,0:0:0:40:Tom2.wav
320,192,84732,1,0,0:0:0:40:Tom2.wav
64,192,84819,1,0,0:0:0:40:Tom3.wav
192,192,84907,1,8,0:0:0:0:
448,192,84907,1,0,0:0:0:0:
320,192,84994,1,0,0:0:0:40:Tom1.wav
64,192,85081,1,0,0:0:0:40:Tom2.wav
448,192,85081,1,0,0:0:0:0:
192,192,85139,1,0,0:0:0:40:Tom2.wav
320,192,85197,1,0,0:0:0:40:Tom3.wav
64,192,85256,1,0,0:0:0:40:Tom3.wav
192,192,85314,1,0,0:0:0:40:Tom4.wav
448,192,85372,1,0,0:0:0:40:Tom4.wav
320,192,85430,1,0,0:0:0:40:Tom1.wav
192,192,85488,1,0,0:0:0:40:Tom1.wav
448,192,85546,1,0,0:0:0:40:Tom2.wav
320,192,85604,1,0,0:0:0:40:Tom2.wav
64,192,85663,1,0,0:0:0:40:Tom3.wav
192,192,85721,1,0,0:0:0:40:Tom3.wav
64,192,85779,128,2,86302:0:0:0:0:
320,192,85779,128,4,86302:0:0:0:0:
448,192,85779,128,0,86302:0:0:0:0:
192,192,86128,128,0,86302:0:0:0:0:
192,192,86476,128,2,86564:0:0:0:0:
320,192,86476,128,4,86564:0:0:0:0:
448,192,86476,128,0,86564:0:0:0:0:
64,192,86738,128,2,86825:0:0:0:0:
192,192,86738,128,4,86825:0:0:0:0:
448,192,86738,128,0,86825:0:0:0:0:
64,192,87000,128,2,87087:0:0:0:0:
192,192,87000,128,4,87087:0:0:0:0:
320,192,87000,128,0,87087:0:0:0:0:
64,192,87174,1,8,0:0:0:0:
320,192,87174,1,0,0:0:0:50:Hat open.wav
448,192,87174,1,0,0:0:0:0:
192,192,87261,1,2,0:0:0:0:
320,192,87349,1,2,0:0:0:0:
448,192,87436,1,2,0:0:0:0:
64,192,87523,1,8,0:0:0:0:
192,192,87523,1,0,0:0:0:50:Hat open.wav
320,192,87610,1,2,0:0:0:0:
64,192,87697,1,2,0:0:0:0:
448,192,87697,1,0,0:0:0:0:
192,192,87785,1,2,0:0:0:0:
320,192,87785,1,0,0:0:0:0:
64,192,87872,1,8,0:0:0:0:
448,192,87872,1,0,0:0:0:50:Hat open.wav
192,192,87959,1,2,0:0:0:0:
320,192,88046,1,2,0:0:0:0:
448,192,88046,1,0,0:0:0:0:
64,192,88133,1,2,0:0:0:0:
192,192,88133,1,0,0:0:0:0:
320,192,88221,1,8,0:0:0:0:
448,192,88221,1,0,0:0:0:50:Hat open.wav
64,192,88308,1,2,0:0:0:0:
192,192,88395,1,2,0:0:0:0:
448,192,88395,1,0,0:0:0:0:
64,192,88482,1,2,0:0:0:0:
320,192,88482,1,0,0:0:0:0:
192,192,88569,1,8,0:0:0:0:
448,192,88569,1,0,0:0:0:50:Hat open.wav
320,192,88657,1,2,0:0:0:0:
64,192,88744,1,2,0:0:0:0:
192,192,88831,1,2,0:0:0:0:
320,192,88918,1,8,0:0:0:0:
448,192,88918,1,0,0:0:0:50:Hat open.wav
64,192,89006,1,2,0:0:0:0:
192,192,89093,1,2,0:0:0:0:
320,192,89093,1,0,0:0:0:0:
64,192,89180,1,2,0:0:0:0:
448,192,89180,1,0,0:0:0:0:
192,192,89267,1,8,0:0:0:0:
320,192,89267,1,0,0:0:0:50:Hat open.wav
448,192,89354,1,2,0:0:0:0:
64,192,89442,1,2,0:0:0:0:
192,192,89442,1,0,0:0:0:0:
320,192,89529,1,2,0:0:0:0:
448,192,89529,1,0,0:0:0:0:
64,192,89616,1,8,0:0:0:0:
192,192,89616,1,0,0:0:0:50:Hat open.wav
320,192,89703,1,2,0:0:0:0:
192,192,89790,1,2,0:0:0:0:
448,192,89790,1,0,0:0:0:0:
64,192,89878,1,2,0:0:0:0:
320,192,89878,1,0,0:0:0:0:
192,192,89965,1,8,0:0:0:0:
448,192,89965,1,0,0:0:0:50:Hat open.wav
64,192,90052,1,2,0:0:0:0:
320,192,90139,1,2,0:0:0:0:
192,192,90226,1,2,0:0:0:0:
64,192,90314,1,8,0:0:0:0:
448,192,90314,1,0,0:0:0:50:Hat open.wav
320,192,90401,1,2,0:0:0:0:
64,192,90488,1,2,0:0:0:0:
192,192,90488,1,0,0:0:0:0:
320,192,90575,1,2,0:0:0:0:
448,192,90575,1,0,0:0:0:0:
64,192,90663,1,8,0:0:0:0:
192,192,90663,1,0,0:0:0:50:Hat open.wav
448,192,90750,1,2,0:0:0:0:
192,192,90837,1,2,0:0:0:0:
320,192,90837,1,0,0:0:0:0:
64,192,90924,1,2,0:0:0:0:
448,192,90924,1,0,0:0:0:0:
192,192,91011,1,8,0:0:0:0:
320,192,91011,1,0,0:0:0:50:Hat open.wav
64,192,91099,1,2,0:0:0:0:
320,192,91186,1,2,0:0:0:0:
448,192,91186,1,0,0:0:0:0:
64,192,91273,1,2,0:0:0:0:
192,192,91273,1,0,0:0:0:0:
320,192,91360,1,8,0:0:0:0:
448,192,91360,1,0,0:0:0:50:Hat open.wav
192,192,91447,1,2,0:0:0:0:
64,192,91535,1,2,0:0:0:0:
320,192,91535,128,0,91622:0:0:0:0:
448,192,91622,1,2,0:0:0:0:
64,192,91709,128,8,91796:0:0:0:0:
192,192,91709,1,0,0:0:0:50:Hat open.wav
320,192,91796,1,2,0:0:0:0:
192,192,91883,1,2,0:0:0:0:
448,192,91883,128,0,91971:0:0:0:0:
64,192,91971,1,2,0:0:0:0:
192,192,92058,128,8,92145:0:0:0:0:
320,192,92058,1,0,0:0:0:50:Hat open.wav
448,192,92145,1,2,0:0:0:0:
64,192,92232,128,2,92319:0:0:0:0:
320,192,92232,1,0,0:0:0:0:
192,192,92319,1,2,0:0:0:0:
320,192,92407,128,8,92494:0:0:0:0:
448,192,92407,1,0,0:0:0:50:Hat open.wav
64,192,92494,1,2,0:0:0:0:
192,192,92581,1,2,0:0:0:0:
448,192,92581,128,0,92668:0:0:0:0:
320,192,92668,1,2,0:0:0:0:
64,192,92756,1,8,0:0:0:0:
192,192,92756,1,0,0:0:0:50:Hat open.wav
448,192,92843,1,2,0:0:0:0:
320,192,92930,1,2,0:0:0:0:
192,192,93017,1,2,0:0:0:0:
64,192,93104,1,8,0:0:0:0:
448,192,93104,1,0,0:0:0:50:Hat open.wav
320,192,93192,1,2,0:0:0:0:
64,192,93279,1,2,0:0:0:0:
192,192,93279,1,0,0:0:0:0:
320,192,93366,1,2,0:0:0:0:
448,192,93366,1,0,0:0:0:0:
64,192,93453,1,8,0:0:0:0:
192,192,93453,1,0,0:0:0:50:Hat open.wav
448,192,93540,1,2,0:0:0:0:
64,192,93628,1,2,0:0:0:0:
320,192,93628,1,0,0:0:0:0:
192,192,93715,1,2,0:0:0:0:
448,192,93715,1,0,0:0:0:0:
64,192,93802,1,8,0:0:0:0:
320,192,93802,1,0,0:0:0:50:Hat open.wav
192,192,93889,1,2,0:0:0:0:
320,192,93976,1,2,0:0:0:0:
448,192,93976,1,0,0:0:0:0:
64,192,94064,1,2,0:0:0:0:
192,192,94064,1,0,0:0:0:0:
320,192,94151,1,8,0:0:0:0:
448,192,94151,1,0,0:0:0:50:Hat open.wav
64,192,94238,1,2,0:0:0:0:
192,192,94325,1,2,0:0:0:0:
320,192,94413,1,2,0:0:0:0:
64,192,94500,1,8,0:0:0:0:
448,192,94500,1,0,0:0:0:50:Hat open.wav
192,192,94587,1,2,0:0:0:0:
320,192,94674,1,2,0:0:0:0:
448,192,94674,1,0,0:0:0:0:
64,192,94761,1,2,0:0:0:0:
192,192,94761,1,0,0:0:0:0:
320,192,94849,1,8,0:0:0:0:
448,192,94849,1,0,0:0:0:50:Hat open.wav
64,192,94936,1,2,0:0:0:0:
192,192,95023,1,2,0:0:0:0:
320,192,95023,1,0,0:0:0:0:
64,192,95110,1,2,0:0:0:0:
448,192,95110,1,0,0:0:0:0:
192,192,95197,1,8,0:0:0:0:
320,192,95197,1,0,0:0:0:50:Hat open.wav
448,192,95285,1,2,0:0:0:0:
64,192,95372,1,2,0:0:0:0:
192,192,95372,1,0,0:0:0:0:
320,192,95459,1,2,0:0:0:0:
448,192,95459,1,0,0:0:0:0:
64,192,95546,1,8,0:0:0:0:
192,192,95546,1,0,0:0:0:50:Hat open.wav
320,192,95633,1,2,0:0:0:0:
64,192,95721,1,2,0:0:0:0:
192,192,95808,1,2,0:0:0:0:
320,192,95895,1,8,0:0:0:0:
448,192,95895,1,0,0:0:0:50:Hat open.wav
64,192,95982,1,2,0:0:0:0:
192,192,96069,1,2,0:0:0:0:
320,192,96069,1,0,0:0:0:0:
64,192,96157,1,2,0:0:0:0:
448,192,96157,1,0,0:0:0:0:
192,192,96244,1,8,0:0:0:0:
320,192,96244,1,0,0:0:0:50:Hat open.wav
448,192,96331,1,2,0:0:0:0:
64,192,96418,1,2,0:0:0:0:
192,192,96418,1,0,0:0:0:0:
320,192,96506,1,2,0:0:0:0:
448,192,96506,1,0,0:0:0:0:
64,192,96593,1,8,0:0:0:0:
192,192,96593,1,0,0:0:0:50:Hat open.wav
320,192,96680,1,2,0:0:0:0:
64,192,96767,1,2,0:0:0:0:
448,192,96767,1,0,0:0:0:0:
192,192,96854,1,2,0:0:0:0:
64,192,96942,1,4,0:0:0:0:
320,192,96942,1,8,0:0:0:0:
448,192,96942,1,0,0:0:0:0:
192,192,97029,1,2,0:0:0:0:
320,192,97116,1,2,0:0:0:0:
448,192,97116,128,0,97203:0:0:0:0:
64,192,97203,1,2,0:0:0:0:
192,192,97290,1,8,0:0:0:0:
320,192,97290,128,0,97378:0:0:0:0:
448,192,97378,1,0,0:0:0:50:Tom1.wav
64,192,97465,128,0,97552:0:0:0:50:Tom2.wav
192,192,97465,1,0,0:0:0:0:
320,192,97552,1,0,0:0:0:50:Tom3.wav
64,192,97639,1,8,0:0:0:0:
192,192,97639,128,0,97726:0:0:0:50:Hat open.wav
448,192,97639,1,0,0:0:0:0:
320,192,97726,1,0,0:0:0:50:Tom2.wav
64,192,97814,1,0,0:0:0:50:Tom2.wav
448,192,97814,128,0,97901:0:0:0:0:
192,192,97901,1,8,0:0:0:0:
320,192,97988,128,0,98075:0:0:0:50:Tom3.wav
448,192,97988,1,0,0:0:0:0:
64,192,98075,128,0,98163:0:0:0:50:Tom3.wav
320,192,98163,128,0,98250:0:0:0:50:soft-hitclap.wav
448,192,98163,1,0,0:0:0:50:Tom4.wav
64,192,98250,128,0,98337:0:0:0:50:Tom4.wav
192,192,98337,1,8,0:0:0:0:
320,192,98337,1,4,0:0:0:0:
448,192,98337,1,0,0:0:0:0:
64,192,98424,1,2,0:0:0:0:
192,192,98511,1,2,0:0:0:0:
320,192,98599,1,2,0:0:0:0:
64,192,98686,1,8,0:0:0:0:
448,192,98686,1,0,0:0:0:50:Hat open.wav
192,192,98773,1,2,0:0:0:0:
320,192,98860,1,2,0:0:0:0:
448,192,98860,1,0,0:0:0:0:
64,192,98947,1,2,0:0:0:0:
192,192,98947,1,0,0:0:0:0:
320,192,99035,1,8,0:0:0:0:
448,192,99035,1,0,0:0:0:50:Hat open.wav
64,192,99122,1,2,0:0:0:0:
192,192,99209,1,2,0:0:0:0:
448,192,99209,1,0,0:0:0:0:
64,192,99296,1,2,0:0:0:0:
320,192,99296,1,0,0:0:0:0:
192,192,99383,1,8,0:0:0:0:
448,192,99383,1,0,0:0:0:50:Hat open.wav
320,192,99471,1,2,0:0:0:0:
64,192,99558,1,2,0:0:0:0:
192,192,99558,1,0,0:0:0:0:
320,192,99645,1,2,0:0:0:0:
448,192,99645,1,0,0:0:0:0:
64,192,99732,1,8,0:0:0:0:
192,192,99732,1,0,0:0:0:50:Hat open.wav
448,192,99819,1,2,0:0:0:0:
320,192,99907,1,2,0:0:0:0:
192,192,99994,1,2,0:0:0:0:
64,192,100081,1,8,0:0:0:0:
448,192,100081,1,0,0:0:0:50:Hat open.wav
320,192,100168,1,2,0:0:0:0:
64,192,100256,1,2,0:0:0:0:
192,192,100256,1,0,0:0:0:0:
320,192,100343,1,2,0:0:0:0:
448,192,100343,1,0,0:0:0:0:
64,192,100430,1,8,0:0:0:0:
192,192,100430,1,0,0:0:0:50:Hat open.wav
448,192,100517,1,2,0:0:0:0:
192,192,100604,1,2,0:0:0:0:
320,192,100604,1,0,0:0:0:0:
64,192,100692,1,2,0:0:0:0:
448,192,100692,1,0,0:0:0:0:
192,192,100779,1,8,0:0:0:0:
320,192,100779,1,0,0:0:0:50:Hat open.wav
64,192,100866,1,2,0:0:0:0:
320,192,100953,1,2,0:0:0:0:
448,192,100953,1,0,0:0:0:0:
64,192,101040,1,2,0:0:0:0:
192,192,101040,1,0,0:0:0:0:
320,192,101128,1,8,0:0:0:0:
448,192,101128,1,0,0:0:0:50:Hat open.wav
192,192,101215,1,2,0:0:0:0:
448,192,101302,1,2,0:0:0:0:
320,192,101389,1,2,0:0:0:0:
64,192,101476,1,8,0:0:0:0:
192,192,101476,1,0,0:0:0:50:Hat open.wav
448,192,101564,1,2,0:0:0:0:
64,192,101651,1,2,0:0:0:0:
320,192,101651,1,0,0:0:0:0:
192,192,101738,1,2,0:0:0:0:
448,192,101738,1,0,0:0:0:0:
64,192,101825,1,8,0:0:0:0:
320,192,101825,1,0,0:0:0:50:Hat open.wav
192,192,101913,1,2,0:0:0:0:
320,192,102000,1,2,0:0:0:0:
448,192,102000,1,0,0:0:0:0:
64,192,102087,1,2,0:0:0:0:
192,192,102087,1,0,0:0:0:0:
320,192,102174,1,8,0:0:0:0:
448,192,102174,1,0,0:0:0:50:Hat open.wav
64,192,102261,1,2,0:0:0:0:
192,192,102349,1,2,0:0:0:0:
448,192,102349,1,0,0:0:0:0:
64,192,102436,1,2,0:0:0:0:
320,192,102436,1,0,0:0:0:0:
192,192,102523,1,8,0:0:0:0:
448,192,102523,1,0,0:0:0:50:Hat open.wav
320,192,102610,1,2,0:0:0:0:
64,192,102697,1,2,0:0:0:0:
192,192,102697,128,0,102785:0:0:0:0:
448,192,102785,1,2,0:0:0:0:
64,192,102872,128,8,102959:0:0:0:0:
320,192,102872,1,0,0:0:0:50:Hat open.wav
192,192,102959,1,2,0:0:0:0:
320,192,103046,1,2,0:0:0:0:
448,192,103046,128,0,103133:0:0:0:0:
64,192,103133,1,2,0:0:0:0:
192,192,103221,1,8,0:0:0:0:
320,192,103221,128,0,103308:0:0:0:50:Hat open.wav
448,192,103308,1,2,0:0:0:0:
64,192,103395,128,2,103482:0:0:0:0:
192,192,103395,1,0,0:0:0:0:
320,192,103482,1,2,0:0:0:0:
192,192,103569,128,8,103657:0:0:0:0:
448,192,103569,1,0,0:0:0:50:Hat open.wav
64,192,103657,1,2,0:0:0:0:
320,192,103744,1,2,0:0:0:0:
448,192,103744,128,0,103831:0:0:0:0:
192,192,103831,1,2,0:0:0:0:
64,192,103918,1,8,0:0:0:0:
320,192,103918,1,0,0:0:0:50:Hat open.wav
448,192,104006,1,2,0:0:0:0:
192,192,104093,1,2,0:0:0:0:
320,192,104180,1,2,0:0:0:0:
64,192,104267,1,8,0:0:0:0:
448,192,104267,1,0,0:0:0:50:Hat open.wav
192,192,104354,1,2,0:0:0:0:
320,192,104442,1,2,0:0:0:0:
448,192,104442,1,0,0:0:0:0:
64,192,104529,1,2,0:0:0:0:
192,192,104529,1,0,0:0:0:0:
320,192,104616,1,8,0:0:0:0:
448,192,104616,1,0,0:0:0:50:Hat open.wav
64,192,104703,1,2,0:0:0:0:
192,192,104790,1,2,0:0:0:0:
320,192,104790,1,0,0:0:0:0:
64,192,104878,1,2,0:0:0:0:
448,192,104878,1,0,0:0:0:0:
192,192,104965,1,8,0:0:0:0:
320,192,104965,1,0,0:0:0:50:Hat open.wav
448,192,105052,1,2,0:0:0:0:
64,192,105139,1,0,0:0:0:50:Tom1.wav
192,192,105139,1,0,0:0:0:0:
320,192,105226,1,0,0:0:0:50:Tom1.wav
64,192,105314,1,8,0:0:0:0:
192,192,105314,1,4,0:0:0:0:
448,192,105314,1,0,0:0:0:0:
320,192,105401,1,0,0:0:0:50:Tom2.wav
448,192,105488,1,0,0:0:0:50:Tom3.wav
192,192,105575,1,0,0:0:0:50:Tom3.wav
320,192,105663,1,0,0:0:0:50:Tom4.wav
64,192,105750,1,0,0:0:0:50:Tom4.wav
320,192,105837,1,8,0:0:0:0:
448,192,105837,1,0,0:0:0:0:
64,192,105924,1,8,0:0:0:0:
192,192,105924,1,0,0:0:0:0:
320,192,106011,1,0,0:0:0:40:Tom1.wav
448,192,106011,1,0,0:0:0:0:
192,192,106069,1,0,0:0:0:40:Tom1.wav
64,192,106128,1,0,0:0:0:40:Tom2.wav
320,192,106186,1,0,0:0:0:40:Tom2.wav
448,192,106244,1,0,0:0:0:40:Tom3.wav
192,192,106302,1,0,0:0:0:40:Tom3.wav
320,192,106360,1,0,0:0:0:40:Tom2.wav
64,192,106418,1,0,0:0:0:30:soft-hitclap.wav
448,192,106476,1,0,0:0:0:30:soft-hitclap.wav
320,192,106535,1,0,0:0:0:40:Tom3.wav
192,192,106593,1,0,0:0:0:30:soft-hitclap.wav
64,192,106651,1,0,0:0:0:30:soft-hitclap.wav
192,192,106709,128,8,106883:0:0:0:0:
320,192,106709,128,4,106883:0:0:0:0:
448,192,106709,128,0,106883:0:0:0:0:
320,192,107232,128,2,107581:0:0:0:0:
64,192,107407,128,8,107581:0:0:0:0:
192,192,107407,128,4,107581:0:0:0:0:
448,192,107407,128,0,107581:0:0:0:0:
192,192,107930,1,2,0:0:0:0:
320,192,108017,1,2,0:0:0:0:
64,192,108104,1,4,0:0:0:0:
192,192,108104,1,8,0:0:0:0:
448,192,108104,1,0,0:0:0:0:
320,192,108192,1,2,0:0:0:0:
448,192,108279,1,2,0:0:0:0:
64,192,108366,1,2,0:0:0:0:
192,192,108453,1,8,0:0:0:0:
320,192,108453,1,4,0:0:0:0:
448,192,108453,1,0,0:0:0:0:
64,192,108540,1,2,0:0:0:0:
320,192,108628,1,2,0:0:0:0:
192,192,108715,1,2,0:0:0:0:
64,192,108802,128,8,108976:0:0:0:0:
320,192,108802,128,0,108976:0:0:0:50:Wushh.wav
448,192,108802,128,0,108976:0:0:0:0:
