osu file format v14

[General]
AudioFilename: audio.mp3
AudioLeadIn: 0
PreviewTime: 82304
Countdown: 0
SampleSet: Soft
StackLeniency: 0.4
Mode: 0
LetterboxInBreaks: 0
WidescreenStoryboard: 0

[Editor]
Bookmarks: 685,11847,21615,32777,43940,63126,66266,77428,83010,94173,108126,119289,131847,143010,154173,159754,170917,183475,196033,207196,210248,218359,229521,246266,257428,264405,275568,278351,288126,289521,300684,311149
DistanceSpacing: 0.3
BeatDivisor: 4
GridSize: 8
TimelineZoom: 1.9

[Metadata]
Title:Junpaku*study time
TitleUnicode:純白☆study time
Artist:Casandra
ArtistUnicode:カサンドラ
Creator:Xexxar
Version:Semi Little Girl!
Source:Lowすぺっく!? ~オレと年下妹とせいきょーいく!~
Tags:xr eroge visual novel loli hentai 下地和彦 新井健史 Low Spec!? ~Ore to Toshishita Imouto to Seikyouiku!~ SLG Semi Little Girl akitoshi corinn
BeatmapID:1351956
BeatmapSetID:637224

[Difficulty]
HPDrainRate:5
CircleSize:5
OverallDifficulty:9
ApproachRate:9.3
SliderMultiplier:1.4
SliderTickRate:1

[Events]
//Background and Video events
0,0,"slg.png",0,0
//Break Periods
2,77620,79134
2,154364,155878
2,185062,189890
2,257620,259134
//Storyboard Layer 0 (Background)
//Storyboard Layer 1 (Fail)
//Storyboard Layer 2 (Pass)
//Storyboard Layer 3 (Foreground)
//Storyboard Sound Samples

[TimingPoints]
677,348.837209302326,4,2,2,30,1,0
20909,-100,4,2,0,5,0,0
21607,-100,4,2,5,50,0,0
25793,-90.9090909090909,4,2,5,50,0,0
27188,-90.9090909090909,4,2,5,60,0,0
31374,-76.9230769230769,4,2,0,60,0,0
32420,-66.6666666666667,4,2,0,60,0,0
32769,-71.4285714285714,4,2,5,60,0,0
43932,-83.3333333333333,4,2,5,60,0,0
66083,-71.4285714285714,4,2,0,60,0,0
66258,-83.3333333333333,4,2,5,50,0,0
77333,-83.3333333333333,4,2,0,5,0,0
77420,-83.3333333333333,4,2,5,60,0,0
82304,-83.3333333333333,4,2,2,40,0,0
82653,-83.3333333333333,4,2,2,70,0,0
83002,-71.4285714285714,4,2,5,75,0,1
93816,-71.4285714285714,4,2,2,75,0,0
94165,-71.4285714285714,4,2,5,75,0,1
102711,-71.4285714285714,4,2,6,75,0,1
103758,-71.4285714285714,4,2,5,75,0,1
106723,-71.4285714285714,4,2,5,75,0,0
107421,-71.4285714285714,4,2,5,60,0,0
118932,-71.4285714285714,4,2,2,60,0,0
119281,-71.4285714285714,4,2,8,60,0,0
130444,-71.4285714285714,4,2,6,60,0,0
131839,-83.3333333333333,4,2,5,60,0,0
142828,-71.4285714285714,4,2,2,60,0,0
143002,-83.3333333333333,4,2,5,50,0,0
154077,-83.3333333333333,4,2,5,5,0,0
154165,-83.3333333333333,4,2,5,60,0,0
159049,-83.3333333333333,4,2,2,40,0,0
159397,-83.3333333333333,4,2,2,70,0,0
159746,-71.4285714285714,4,2,5,75,0,1
170560,-71.4285714285714,4,2,5,75,0,0
170735,-71.4285714285714,4,2,2,75,0,0
170909,-71.4285714285714,4,2,5,75,0,1
179456,-71.4285714285714,4,2,6,75,0,1
180502,-71.4285714285714,4,2,5,75,0,1
183467,-71.4285714285714,4,2,5,60,0,0
190444,-90.9090909090909,4,2,5,60,0,0
194630,-76.9230769230769,4,2,5,60,0,0
195676,-66.6666666666667,4,2,5,60,0,0
196025,-71.4285714285714,4,2,5,60,0,0
204397,-68.4931506849315,4,2,5,60,0,0
207188,-71.4285714285714,4,2,5,75,0,1
218002,-71.4285714285714,4,2,5,75,0,0
218351,-71.4285714285714,4,2,5,75,0,1
229339,-71.4285714285714,4,2,5,75,0,0
229514,-71.4285714285714,4,2,5,75,0,1
232130,-71.4285714285714,4,2,5,75,0,0
232304,-71.4285714285714,4,2,5,75,0,1
234921,-71.4285714285714,4,2,5,75,0,0
235095,-55.5555555555556,4,2,5,75,0,1
237711,-55.5555555555556,4,2,5,75,0,0
237886,-55.5555555555556,4,2,5,75,0,1
240153,-58.8235294117647,4,2,5,75,0,1
240327,-55.5555555555556,4,2,5,75,0,1
240502,-55.5555555555556,4,2,5,75,0,0
240677,-100,4,2,5,75,0,1
244863,-71.4285714285714,4,2,5,5,0,0
246258,-71.4285714285714,4,2,5,50,0,0
257421,-71.4285714285714,4,2,5,60,0,0
264397,-71.4285714285714,4,2,5,75,0,1
275211,-71.4285714285714,4,2,5,75,0,0
275386,-71.4285714285714,4,2,2,75,0,0
275560,-71.4285714285714,4,2,5,75,0,1
284107,-71.4285714285714,4,2,6,75,0,1
285153,-71.4285714285714,4,2,5,75,0,1
288118,-71.4285714285714,4,2,5,75,0,0
300677,-71.4285714285714,4,2,5,75,0,1
309049,-71.4285714285714,4,2,5,75,0,0
311142,-71.4285714285714,4,2,5,75,0,1
311229,-71.4285714285714,4,2,5,75,0,0

[Colours]
Combo1 : 153,247,125
Combo2 : 119,187,255
Combo3 : 239,157,133
Combo4 : 255,176,98

[HitObjects]
230,33,328,5,0,0:0:0:0:
155,33,502,1,0,0:0:0:0:
96,80,677,6,0,L|96:224,1,140,2|8,0:0|0:0,0:0:0:0:
151,273,1200,1,2,0:0:0:0:
151,273,1549,1,2,0:0:0:0:
227,273,1723,1,8,0:0:0:0:
290,228,1897,1,0,0:0:0:0:
367,228,2072,6,0,B|386:161|386:161|359:66,1,140,2|8,0:0|0:0,0:0:0:0:
343,19,2595,1,2,0:0:0:0:
195,145,2944,1,2,0:0:0:0:
195,145,3031,1,0,0:0:0:0:
195,145,3118,1,8,0:0:0:0:
246,202,3293,1,0,0:0:0:0:
270,129,3467,5,2,0:0:0:0:
195,145,3642,1,0,0:0:0:0:
169,217,3816,1,8,0:0:0:0:
220,274,3990,1,0,0:0:0:0:
246,202,4165,1,2,0:0:0:0:
195,145,4339,1,0,0:0:0:0:
195,145,4427,1,0,0:0:0:0:
195,145,4514,1,8,0:0:0:0:
169,217,4688,5,0,0:0:0:0:
148,291,4863,1,2,0:0:0:0:
220,274,5037,1,0,0:0:0:0:
199,347,5211,1,8,0:0:0:0:
148,291,5386,1,0,0:0:0:0:
95,234,5560,1,2,0:0:0:0:
169,217,5735,1,0,0:0:0:0:
246,202,5909,1,8,0:0:0:0:
195,145,6083,1,0,0:0:0:0:
270,130,6258,6,0,B|339:117|339:117|424:130,1,140,2|8,0:0|0:0,0:0:0:0:
483,143,6781,1,2,0:0:0:0:
483,143,7130,1,2,0:0:0:0:
433,201,7304,1,8,0:0:0:0:
433,278,7479,1,0,0:0:0:0:
383,336,7653,6,0,B|316:351|316:351|242:336,1,140,2|8,0:0|0:0,0:0:0:0:
171,316,8177,1,2,0:0:0:0:
225,172,8525,1,2,0:0:0:0:
225,172,8613,1,0,0:0:0:0:
225,172,8700,1,8,0:0:0:0:
161,214,8874,1,0,0:0:0:0:
229,249,9049,5,2,0:0:0:0:
216,95,9397,1,8,0:0:0:0:
90,183,9746,1,2,0:0:0:0:
229,249,10095,1,8,0:0:0:0:
216,95,10444,5,2,0:0:0:0:
152,138,10618,1,0,0:0:0:0:
222,169,10793,1,8,0:0:0:0:
287,129,10967,1,0,0:0:0:0:
283,51,11142,1,2,0:0:0:0:
212,20,11316,1,0,0:0:0:0:
216,95,11490,1,8,0:0:0:0:
287,129,11665,1,0,0:0:0:0:
222,169,11839,6,0,B|154:185|154:185|67:166,1,140,2|8,0:0|0:0,0:0:0:0:
9,154,12363,1,2,0:0:0:0:
9,154,12711,1,2,0:0:0:0:
32,227,12886,1,8,0:0:0:0:
106,247,13060,1,0,0:0:0:0:
157,191,13235,6,0,B|175:125|175:125|148:32,1,140,2|8,0:0|0:0,0:0:0:0:
83,26,13758,1,2,0:0:0:0:
234,52,14107,1,2,0:0:0:0:
310,46,14281,1,8,0:0:0:0:
387,40,14456,1,0,0:0:0:0:
354,109,14630,5,2,0:0:0:0:
430,103,14804,1,0,0:0:0:0:
397,173,14979,1,8,0:0:0:0:
473,166,15153,1,0,0:0:0:0:
441,235,15328,2,0,L|440:273,12,23.3333333333333
256,192,16083,12,0,20909,0:0:0:0:
93,55,21607,5,6,0:0:0:0:
419,55,23002,5,6,0:0:0:0:
67,214,24397,5,12,0:0:0:0:
445,214,25793,5,4,0:0:0:0:
320,239,25967,1,0,0:0:0:0:
390,263,26141,1,0,0:0:0:0:
307,165,26316,1,0,0:0:0:0:
335,313,26490,1,0,0:0:0:0:
376,190,26665,1,0,0:0:0:0:
320,239,26839,1,0,0:0:0:0:
390,263,27013,1,0,0:0:0:0:
185,192,27188,5,6,0:0:0:0:
185,192,27275,1,0,0:0:0:0:
185,192,27362,1,0,0:0:0:0:
192,317,27537,1,6,0:0:0:0:
292,240,27711,2,0,L|287:132,1,77.0000023498536,0|6,0:0|0:0,0:0:0:0:
181,56,28060,1,0,0:0:0:0:
185,192,28234,1,6,0:0:0:0:
296,75,28409,1,0,0:0:0:0:
83,254,28583,5,6,0:0:0:0:
83,254,28670,1,0,0:0:0:0:
83,254,28757,1,0,0:0:0:0:
192,317,28932,1,6,0:0:0:0:
185,192,29106,2,0,L|181:90,1,77.0000023498536,0|6,0:0|0:0,0:0:0:0:
83,254,29455,1,0,0:0:0:0:
192,317,29630,1,6,0:0:0:0:
92,159,29804,1,0,0:0:0:0:
304,280,29979,5,6,0:0:0:0:
304,280,30066,1,0,0:0:0:0:
304,280,30153,1,0,0:0:0:0:
444,359,30328,1,6,0:0:0:0:
439,199,30502,2,0,L|435:97,1,77.0000023498536,0|6,0:0|0:0,0:0:0:0:
219,174,30851,1,0,0:0:0:0:
412,274,31026,1,6,0:0:0:0:
407,51,31200,1,0,0:0:0:0:
263,117,31374,6,0,P|240:107|208:100,1,45.4999979171754,4|0,3:0|0:0,0:0:0:0:
268,303,31548,2,0,P|291:299|322:289,1,45.4999979171754,8|8,3:0|3:0,0:0:0:0:
337,23,31723,2,0,P|320:8|286:-3,1,45.4999979171754,8|8,3:0|3:0,0:0:0:0:
254,227,31897,2,0,P|276:227|308:213,1,45.4999979171754,8|0,3:0|3:0,0:0:0:0:
368,158,32071,2,0,P|374:138|375:112,1,45.4999979171754,8|0,3:0|0:0,0:0:0:0:
218,295,32246,2,0,P|235:301|263:302,1,45.4999979171754,8|8,3:0|3:0,0:0:0:0:
178,149,32420,6,0,P|151:146|125:148,3,52.5000020027161,8|8|8|8,3:0|3:0|3:0|3:0,0:0:0:0:
70,51,32769,5,14,0:0:0:0:
89,79,32857,1,2,0:0:0:0:
98,111,32944,1,2,0:0:0:0:
99,145,33031,1,2,0:0:0:0:
92,178,33118,1,6,0:0:0:0:
79,209,33205,1,2,0:0:0:0:
59,237,33293,5,10,0:0:0:0:
76,282,33380,1,2,0:0:0:0:
119,304,33467,1,6,0:0:0:0:
167,300,33554,1,2,0:0:0:0:
206,271,33641,5,10,0:0:0:0:
209,261,33729,1,2,0:0:0:0:
210,251,33816,1,6,0:0:0:0:
210,241,33903,1,2,0:0:0:0:
209,231,33990,1,10,0:0:0:0:
206,221,34077,1,2,0:0:0:0:
202,211,34165,5,14,0:0:0:0:
183,182,34252,1,2,0:0:0:0:
172,149,34339,1,2,0:0:0:0:
172,114,34426,1,2,0:0:0:0:
186,83,34513,1,6,0:0:0:0:
211,59,34601,1,2,0:0:0:0:
244,50,34688,5,10,0:0:0:0:
290,70,34775,1,2,0:0:0:0:
340,72,34862,1,6,0:0:0:0:
388,57,34950,1,2,0:0:0:0:
428,26,35037,5,10,0:0:0:0:
430,35,35124,1,2,0:0:0:0:
431,44,35211,1,6,0:0:0:0:
430,53,35298,1,2,0:0:0:0:
429,62,35386,1,10,0:0:0:0:
428,71,35473,1,2,0:0:0:0:
424,80,35560,5,14,0:0:0:0:
408,115,35647,1,2,0:0:0:0:
405,154,35734,1,2,0:0:0:0:
416,191,35822,1,2,0:0:0:0:
433,225,35909,1,6,0:0:0:0:
442,262,35996,1,2,0:0:0:0:
435,300,36083,5,10,0:0:0:0:
384,281,36170,1,2,0:0:0:0:
329,281,36258,1,6,0:0:0:0:
284,311,36345,1,2,0:0:0:0:
266,361,36432,5,10,0:0:0:0:
262,351,36519,1,2,0:0:0:0:
259,341,36607,1,6,0:0:0:0:
258,331,36694,1,2,0:0:0:0:
258,321,36781,1,10,0:0:0:0:
259,311,36868,1,2,0:0:0:0:
261,301,36956,6,0,P|265:274|256:214,1,48.9999985046387,12|2,0:0|0:0,0:0:0:0:
224,101,37130,2,0,P|196:98|131:107,1,48.9999985046387,2|2,0:0|0:0,0:0:0:0:
131,215,37304,2,0,P|153:231|214:256,1,48.9999985046387,10|2,0:0|0:0,0:0:0:0:
343,206,37479,2,0,P|359:185|371:156,1,48.9999985046387,2|2,0:0|0:0,0:0:0:0:
295,23,37653,2,0,P|303:47|322:72,1,48.9999985046387,10|2,0:0|0:0,0:0:0:0:
475,84,37827,2,0,P|448:80|417:84,1,48.9999985046387,2|2,0:0|0:0,0:0:0:0:
340,276,38002,2,0,P|340:302|349:332,1,48.9999985046387,8|2,0:0|0:0,0:0:0:0:
512,340,38176,2,0,P|502:315|483:290,1,48.9999985046387,10|2,0:0|0:0,0:0:0:0:
382,177,38351,5,14,0:0:0:0:
347,175,38438,1,2,0:0:0:0:
312,174,38525,1,2,0:0:0:0:
277,173,38612,1,2,0:0:0:0:
242,173,38700,1,6,0:0:0:0:
207,172,38787,1,2,0:0:0:0:
172,173,38874,5,10,0:0:0:0:
145,213,38961,1,2,0:0:0:0:
140,261,39048,1,6,0:0:0:0:
155,308,39136,1,2,0:0:0:0:
192,339,39223,5,10,0:0:0:0:
201,342,39310,1,2,0:0:0:0:
210,343,39397,1,6,0:0:0:0:
219,343,39484,1,2,0:0:0:0:
228,342,39572,1,10,0:0:0:0:
237,340,39659,1,2,0:0:0:0:
246,338,39746,5,14,0:0:0:0:
261,307,39833,1,2,0:0:0:0:
265,273,39920,1,2,0:0:0:0:
254,240,40008,1,2,0:0:0:0:
237,209,40095,1,6,0:0:0:0:
232,175,40182,1,2,0:0:0:0:
238,141,40269,5,10,0:0:0:0:
260,97,40357,1,2,0:0:0:0:
298,67,40444,1,6,0:0:0:0:
345,57,40531,1,2,0:0:0:0:
392,67,40618,1,10,0:0:0:0:
430,97,40705,1,2,0:0:0:0:
451,141,40793,5,6,0:0:0:0:
387,145,40880,1,2,0:0:0:0:
329,118,40967,1,10,0:0:0:0:
288,69,41054,1,2,0:0:0:0:
276,6,41141,1,14,0:0:0:0:
276,6,41665,5,2,0:0:0:0:
270,230,41839,1,14,0:0:0:0:
270,230,42362,5,2,0:0:0:0:
401,141,42537,1,14,0:0:0:0:
260,65,42711,1,2,0:0:0:0:
327,274,42886,5,8,0:0:0:0:
412,72,43060,1,2,0:0:0:0:
188,105,43234,1,14,0:0:0:0:
54,324,43932,5,6,0:0:0:0:
78,322,44019,1,2,0:0:0:0:
102,320,44107,1,2,0:0:0:0:
126,317,44194,1,2,0:0:0:0:
150,314,44281,1,10,0:0:0:0:
164,294,44368,1,2,0:0:0:0:
166,269,44455,1,2,0:0:0:0:
160,244,44543,1,2,0:0:0:0:
147,222,44630,5,6,0:0:0:0:
132,201,44717,1,2,0:0:0:0:
125,177,44804,1,2,0:0:0:0:
126,152,44891,1,2,0:0:0:0:
136,129,44979,1,10,0:0:0:0:
160,126,45066,1,2,0:0:0:0:
184,123,45153,1,2,0:0:0:0:
208,120,45240,1,2,0:0:0:0:
232,118,45327,5,6,0:0:0:0:
250,102,45415,1,2,0:0:0:0:
261,80,45502,1,2,0:0:0:0:
262,55,45589,1,2,0:0:0:0:
256,31,45676,1,10,0:0:0:0:
236,46,45763,1,2,0:0:0:0:
227,69,45851,1,2,0:0:0:0:
227,93,45938,1,2,0:0:0:0:
232,118,46025,6,0,P|241:147|240:184,1,41.9999987182618,6|2,0:0|0:0,0:0:0:0:
208,240,46200,2,0,P|191:262|162:280,1,41.9999987182618,2|2,0:0|0:0,0:0:0:0:
295,230,46374,2,0,P|322:232|357:248,1,41.9999987182618,10|2,0:0|0:0,0:0:0:0:
260,353,46548,2,0,P|234:364|191:368,1,41.9999987182618,2|2,0:0|0:0,0:0:0:0:
74,331,46723,6,0,L|68:275,7,41.9999987182618,6|2|2|2|10|2|2|2,0:0|0:0|0:0|0:0|0:0|0:0|0:0|0:0,0:0:0:0:
114,226,47420,5,6,0:0:0:0:
135,198,47508,1,2,0:0:0:0:
145,165,47595,1,2,0:0:0:0:
145,130,47682,1,2,0:0:0:0:
135,97,47769,1,10,0:0:0:0:
133,62,47857,1,2,0:0:0:0:
147,30,47944,1,2,0:0:0:0:
176,12,48031,1,2,0:0:0:0:
210,10,48118,6,0,L|287:14,3,41.9999987182618,6|2|2|2,0:0|0:0|0:0|0:0,0:0:0:0:
48,71,48467,2,0,L|-31:67,3,41.9999987182618,10|2|2|2,0:0|0:0|0:0|0:0,0:0:0:0:
145,130,48816,5,6,0:0:0:0:
176,167,48903,1,2,0:0:0:0:
197,211,48990,1,2,0:0:0:0:
198,259,49077,1,2,0:0:0:0:
186,307,49165,1,10,0:0:0:0:
198,354,49252,1,2,0:0:0:0:
240,378,49339,1,2,0:0:0:0:
288,371,49426,1,2,0:0:0:0:
323,337,49513,5,6,0:0:0:0:
323,312,49601,1,2,0:0:0:0:
324,287,49688,1,2,0:0:0:0:
325,262,49775,1,2,0:0:0:0:
326,237,49862,1,10,0:0:0:0:
327,212,49950,1,2,0:0:0:0:
328,187,50037,1,2,0:0:0:0:
329,162,50124,1,2,0:0:0:0:
330,137,50211,5,6,0:0:0:0:
350,124,50298,1,2,0:0:0:0:
373,117,50386,1,2,0:0:0:0:
397,119,50473,1,2,0:0:0:0:
419,128,50560,1,10,0:0:0:0:
437,143,50647,1,2,0:0:0:0:
450,163,50734,1,2,0:0:0:0:
456,186,50822,1,2,0:0:0:0:
455,210,50909,5,6,0:0:0:0:
430,212,50996,1,2,0:0:0:0:
405,214,51083,1,2,0:0:0:0:
380,216,51170,1,2,0:0:0:0:
357,217,51258,1,10,0:0:0:0:
332,219,51345,1,2,0:0:0:0:
307,221,51432,1,2,0:0:0:0:
282,223,51519,1,2,0:0:0:0:
257,226,51607,6,0,L|199:229,1,41.9999987182618,6|2,0:0|0:0,0:0:0:0:
71,284,51781,2,0,L|133:280,1,41.9999987182618,2|2,0:0|0:0,0:0:0:0:
203,157,51955,2,0,P|209:121|198:84,1,41.9999987182618,10|2,0:0|0:0,0:0:0:0:
72,167,52130,2,0,P|84:201|113:230,1,41.9999987182618,2|2,0:0|0:0,0:0:0:0:
220,303,52304,6,0,L|292:297,7,41.9999987182618,6|2|2|2|10|2|2|2,0:0|0:0|0:0|0:0|0:0|0:0|0:0|0:0,0:0:0:0:
363,351,53002,2,2,L|429:346,1,41.9999987182618
354,242,53176,1,2,0:0:0:0:
341,210,53263,1,2,0:0:0:0:
338,175,53351,1,10,0:0:0:0:
346,141,53438,1,2,0:0:0:0:
366,113,53525,1,2,0:0:0:0:
396,97,53612,1,2,0:0:0:0:
430,98,53700,6,0,L|499:96,3,41.9999987182618,6|2|2|2,0:0|0:0|0:0|0:0,0:0:0:0:
286,66,54049,1,10,0:0:0:0:
286,66,54136,1,2,0:0:0:0:
286,66,54223,2,2,L|210:70,1,41.9999987182618
355,124,54397,6,2,P|358:162|347:184,1,41.9999987182618,6|2,0:0|0:0,0:0:0:0:
290,247,54572,1,2,0:0:0:0:
315,288,54659,1,2,0:0:0:0:
360,305,54746,1,10,0:0:0:0:
407,292,54833,1,2,0:0:0:0:
435,252,54920,1,2,0:0:0:0:
434,202,55008,1,2,0:0:0:0:
403,164,55095,5,6,0:0:0:0:
375,184,55182,1,2,0:0:0:0:
341,191,55269,1,2,0:0:0:0:
306,189,55357,1,2,0:0:0:0:
273,179,55444,1,10,0:0:0:0:
247,156,55531,1,2,0:0:0:0:
232,125,55618,1,2,0:0:0:0:
227,91,55705,1,2,0:0:0:0:
237,57,55793,5,6,0:0:0:0:
239,91,55880,1,2,0:0:0:0:
241,125,55967,1,2,0:0:0:0:
243,159,56054,1,2,0:0:0:0:
245,193,56141,1,10,0:0:0:0:
247,227,56229,1,2,0:0:0:0:
249,261,56316,1,2,0:0:0:0:
251,295,56403,1,2,0:0:0:0:
253,329,56490,5,6,0:0:0:0:
276,303,56577,1,2,0:0:0:0:
290,271,56665,1,2,0:0:0:0:
290,236,56752,1,2,0:0:0:0:
277,204,56839,1,10,0:0:0:0:
252,179,56926,1,2,0:0:0:0:
220,165,57013,1,2,0:0:0:0:
185,165,57101,1,2,0:0:0:0:
148,178,57188,5,6,0:0:0:0:
178,203,57275,1,2,0:0:0:0:
210,217,57363,1,2,0:0:0:0:
245,217,57450,1,2,0:0:0:0:
277,204,57537,1,10,0:0:0:0:
302,179,57624,1,2,0:0:0:0:
316,147,57711,1,2,0:0:0:0:
316,112,57799,1,2,0:0:0:0:
303,79,57886,6,0,P|298:51|303:18,7,41.9999987182618,6|2|2|2|10|2|2|2,0:0|0:0|0:0|0:0|0:0|0:0|0:0|0:0,0:0:0:0:
396,130,58583,5,6,0:0:0:0:
415,164,58670,1,2,0:0:0:0:
426,201,58758,1,2,0:0:0:0:
426,240,58845,1,2,0:0:0:0:
420,278,58932,1,10,0:0:0:0:
405,314,59019,1,2,0:0:0:0:
379,343,59107,1,2,0:0:0:0:
345,363,59194,1,2,0:0:0:0:
302,376,59281,6,0,P|280:380|227:369,3,41.9999987182618,6|2|2|2,0:0|0:0|0:0|0:0,0:0:0:0:
449,360,59630,2,0,P|474:355|519:358,3,41.9999987182618,10|2|2|2,0:0|0:0|0:0|0:0,0:0:0:0:
323,268,59979,5,6,0:0:0:0:
278,237,60066,1,2,0:0:0:0:
259,186,60153,1,2,0:0:0:0:
272,134,60240,1,2,0:0:0:0:
312,98,60327,1,10,0:0:0:0:
365,91,60415,1,2,0:0:0:0:
412,115,60502,1,2,0:0:0:0:
437,162,60589,1,2,0:0:0:0:
432,215,60676,5,6,0:0:0:0:
397,213,60763,1,2,0:0:0:0:
362,211,60851,1,2,0:0:0:0:
327,209,60938,1,2,0:0:0:0:
292,207,61025,1,10,0:0:0:0:
257,205,61112,1,2,0:0:0:0:
222,203,61200,1,2,0:0:0:0:
187,201,61287,1,2,0:0:0:0:
152,199,61374,5,6,0:0:0:0:
175,224,61461,1,2,0:0:0:0:
206,237,61548,1,2,0:0:0:0:
240,234,61636,1,2,0:0:0:0:
269,217,61723,1,10,0:0:0:0:
289,189,61810,1,2,0:0:0:0:
294,155,61897,1,2,0:0:0:0:
284,122,61984,1,2,0:0:0:0:
259,97,62072,5,6,0:0:0:0:
260,145,62159,1,2,0:0:0:0:
261,193,62246,1,2,0:0:0:0:
262,241,62333,1,2,0:0:0:0:
263,289,62420,5,10,0:0:0:0:
305,263,62508,1,2,0:0:0:0:
346,237,62595,1,2,0:0:0:0:
388,212,62682,1,2,0:0:0:0:
430,187,62769,5,8,0:0:0:0:
387,152,62857,1,8,0:0:0:0:
336,132,62944,1,8,0:0:0:0:
282,128,63031,1,8,0:0:0:0:
231,146,63118,5,8,3:0:0:0:
183,180,63205,1,8,3:0:0:0:
126,199,63293,1,8,3:0:0:0:
67,197,63380,1,8,3:0:0:0:
11,179,63467,1,14,0:0:0:0:
11,179,63990,5,2,0:0:0:0:
181,323,64165,1,14,0:0:0:0:
181,323,64688,5,2,0:0:0:0:
189,136,64862,1,14,0:0:0:0:
24,226,65037,1,2,0:0:0:0:
245,185,65211,5,12,0:0:0:0:
26,151,65386,1,2,0:0:0:0:
95,362,65560,1,14,0:0:0:0:
95,362,66083,5,2,0:0:0:0:
88,338,66170,1,2,0:0:0:0:
81,317,66258,2,0,B|61:239|61:239|76:140,1,167.999994873047,6|8,0:0|0:0,0:0:0:0:
102,34,66781,1,2,0:0:0:0:
191,117,66955,2,0,L|300:116,1,83.9999974365235,0|2,0:0|0:0,0:0:0:0:
437,212,67304,1,8,0:0:0:0:
437,212,67653,6,0,L|340:213,1,83.9999974365235,2|2,0:0|0:0,0:0:0:0:
274,116,68002,1,8,0:0:0:0:
208,234,68177,1,2,0:0:0:0:
208,234,68264,1,0,0:0:0:0:
208,234,68351,1,0,0:0:0:0:
50,238,68525,1,2,0:0:0:0:
127,190,68700,1,8,0:0:0:0:
45,146,68874,1,0,0:0:0:0:
131,281,69048,5,2,0:0:0:0:
208,234,69223,1,0,0:0:0:0:
50,238,69397,1,8,0:0:0:0:
56,330,69572,1,2,0:0:0:0:
127,190,69746,1,0,0:0:0:0:
45,146,69920,1,2,0:0:0:0:
208,234,70095,1,8,0:0:0:0:
205,141,70269,1,0,0:0:0:0:
131,281,70444,6,0,L|133:374,1,83.9999974365235,2|2,0:0|0:0,0:0:0:0:
205,141,70793,1,8,0:0:0:0:
50,238,70967,1,0,0:0:0:0:
50,238,71054,1,0,0:0:0:0:
50,238,71141,1,0,0:0:0:0:
131,281,71316,1,2,0:0:0:0:
205,141,71490,1,4,0:0:0:0:
45,146,71665,1,0,0:0:0:0:
208,234,71839,6,0,L|303:231,1,83.9999974365235,6|0,0:0|0:0,0:0:0:0:
441,175,72188,1,8,0:0:0:0:
372,113,72362,2,0,L|369:21,1,83.9999974365235,2|0,0:0|0:0,0:0:0:0:
460,83,72711,1,2,0:0:0:0:
441,175,72886,1,8,0:0:0:0:
372,113,73060,1,0,0:0:0:0:
510,240,73234,6,0,L|513:335,1,83.9999974365235,2|2,0:0|0:0,0:0:0:0:
398,380,73583,1,8,0:0:0:0:
238,314,73758,2,0,L|234:202,1,83.9999974365235,2|0,0:0|0:0,0:0:0:0:
319,127,74107,1,2,0:0:0:0:
148,214,74281,1,8,0:0:0:0:
317,270,74456,1,0,0:0:0:0:
389,159,74630,5,2,0:0:0:0:
396,316,74804,1,0,0:0:0:0:
462,185,74979,1,8,0:0:0:0:
469,341,75153,1,2,0:0:0:0:
389,159,75327,1,0,0:0:0:0:
396,316,75502,1,2,0:0:0:0:
207,322,75676,1,8,0:0:0:0:
284,256,75851,6,0,L|280:145,1,83.9999974365235,0|2,0:0|0:0,0:0:0:0:
446,108,76200,1,2,0:0:0:0:
303,61,76374,1,8,0:0:0:0:
391,182,76549,1,2,0:0:0:0:
391,33,76723,1,8,3:0:0:0:
303,154,76897,1,2,0:0:0:0:
455,285,77072,6,0,P|490:256|436:251,1,125.999996154785,12|0,0:0|0:0,0:0:0:0:
278,348,77420,1,6,0:0:0:0:
66,125,79688,5,2,0:0:0:0:
169,204,79862,1,8,0:0:0:0:
291,170,80037,1,8,0:0:0:0:
349,59,80211,5,6,0:0:0:0:
340,251,80386,1,0,0:0:0:0:
420,115,80560,1,8,0:0:0:0:
270,63,80734,1,0,0:0:0:0:
257,249,80909,5,2,0:0:0:0:
409,201,81083,1,2,0:0:0:0:
341,25,81258,1,8,0:0:0:0:
215,164,81432,1,2,0:0:0:0:
373,318,81607,5,6,0:0:0:0:
119,330,81781,1,6,0:0:0:0:
409,201,81955,5,6,0:0:0:0:
74,216,82130,1,6,0:0:0:0:
313,181,82304,5,2,0:0:0:0:
313,189,82391,1,2,0:0:0:0:
313,197,82479,1,2,0:0:0:0:
313,205,82566,1,2,0:0:0:0:
313,213,82653,2,0,L|314:264,1,41.9999987182618,2|2,0:0|0:0,0:0:0:0:
234,364,82827,2,0,L|233:313,1,41.9999987182618,2|2,0:0|0:0,0:0:0:0:
153,223,83002,6,0,B|138:176|138:176|154:101,1,97.9999970092774,6|8,0:0|0:0,0:0:0:0:
302,76,83351,1,2,0:0:0:0:
229,170,83525,1,8,0:0:0:0:
226,12,83700,1,2,0:0:0:0:
226,12,83787,1,0,0:0:0:0:
226,12,83874,1,8,0:0:0:0:
313,181,84048,1,2,0:0:0:0:
372,4,84223,1,8,0:0:0:0:
194,90,84397,6,0,B|145:100|145:100|86:90,1,97.9999970092774,2|8,0:0|0:0,0:0:0:0:
5,20,84746,1,2,0:0:0:0:
104,190,84920,1,8,0:0:0:0:
176,14,85095,1,2,0:0:0:0:
176,14,85182,1,0,0:0:0:0:
176,14,85269,1,8,0:0:0:0:
18,114,85444,1,2,0:0:0:0:
189,194,85618,1,8,0:0:0:0:
58,282,85793,5,6,0:0:0:0:
238,271,85967,1,8,0:0:0:0:
96,197,86142,1,2,0:0:0:0:
198,351,86316,1,8,0:0:0:0:
189,194,86491,1,2,0:0:0:0:
108,354,86665,1,8,0:0:0:0:
281,250,86839,1,2,0:0:0:0:
281,250,86926,1,0,0:0:0:0:
281,250,87013,1,8,0:0:0:0:
186,105,87188,5,6,0:0:0:0:
142,107,87275,1,2,0:0:0:0:
98,109,87362,1,2,0:0:0:0:
53,111,87450,1,2,0:0:0:0:
9,114,87537,1,6,0:0:0:0:
47,122,87624,1,2,0:0:0:0:
85,130,87711,1,2,0:0:0:0:
123,138,87798,1,2,0:0:0:0:
161,146,87886,1,8,3:0:0:0:
128,157,87973,1,8,3:0:0:0:
95,168,88060,1,8,3:0:0:0:
63,180,88147,1,8,3:0:0:0:
31,192,88234,6,0,L|-43:215,1,48.9999985046387,8|8,3:0|3:0,0:0:0:0:
151,73,88409,2,0,P|154:45|148:15,1,48.9999985046387,8|8,3:0|3:0,0:0:0:0:
107,238,88583,6,0,B|95:283|95:283|111:341,1,97.9999970092774,6|8,0:0|0:0,0:0:0:0:
263,378,88932,1,2,0:0:0:0:
328,236,89107,1,8,0:0:0:0:
184,291,89281,1,2,0:0:0:0:
184,291,89368,1,0,0:0:0:0:
184,291,89455,1,8,0:0:0:0:
286,136,89630,1,2,0:0:0:0:
339,316,89804,1,8,0:0:0:0:
190,186,89979,6,0,B|143:180|143:180|69:197,1,97.9999970092774,2|8,0:0|0:0,0:0:0:0:
34,305,90327,1,2,0:0:0:0:
30,119,90502,1,8,0:0:0:0:
152,271,90676,1,2,0:0:0:0:
152,271,90763,1,0,0:0:0:0:
152,271,90851,1,8,0:0:0:0:
4,214,91025,1,2,0:0:0:0:
123,107,91200,1,8,0:0:0:0:
271,171,91374,5,2,0:0:0:0:
321,189,91461,1,2,0:0:0:0:
374,186,91548,1,2,0:0:0:0:
425,169,91636,1,2,0:0:0:0:
467,136,91723,1,6,0:0:0:0:
467,136,92072,5,2,0:0:0:0:
425,169,92159,1,2,0:0:0:0:
403,218,92246,1,2,0:0:0:0:
392,271,92334,1,2,0:0:0:0:
401,323,92421,1,6,0:0:0:0:
401,323,92769,5,2,0:0:0:0:
371,318,92857,1,2,0:0:0:0:
342,312,92944,1,2,0:0:0:0:
313,306,93031,1,2,0:0:0:0:
284,300,93118,1,10,0:0:0:0:
326,289,93205,1,2,0:0:0:0:
369,280,93293,1,2,0:0:0:0:
411,270,93380,1,2,0:0:0:0:
453,258,93467,1,8,3:0:0:0:
402,240,93554,1,8,3:0:0:0:
350,223,93641,1,8,3:0:0:0:
298,205,93729,1,8,3:0:0:0:
246,189,93816,6,0,L|185:192,1,48.9999985046387,8|8,3:0|3:0,0:0:0:0:
453,258,93990,2,0,L|534:256,1,48.9999985046387,2|2,0:0|0:0,0:0:0:0:
321,133,94165,6,0,B|307:86|307:86|320:31,1,97.9999970092774,6|8,0:0|0:0,0:0:0:0:
450,176,94513,1,2,0:0:0:0:
317,256,94688,1,8,0:0:0:0:
394,90,94862,1,2,0:0:0:0:
394,90,94950,1,0,0:0:0:0:
394,90,95037,1,8,0:0:0:0:
222,176,95211,1,2,0:0:0:0:
400,236,95386,1,8,0:0:0:0:
265,101,95560,6,0,B|215:93|215:93|170:108,1,97.9999970092774,2|8,0:0|0:0,0:0:0:0:
89,242,95909,1,2,0:0:0:0:
85,55,96083,1,8,0:0:0:0:
227,182,96258,1,2,0:0:0:0:
227,182,96345,1,0,0:0:0:0:
227,182,96432,1,8,0:0:0:0:
316,7,96607,1,2,0:0:0:0:
473,114,96781,1,8,0:0:0:0:
300,161,96955,5,6,0:0:0:0:
423,291,97129,1,8,0:0:0:0:
388,135,97304,1,2,0:0:0:0:
336,311,97478,1,8,0:0:0:0:
450,204,97653,1,2,0:0:0:0:
276,245,97827,1,8,0:0:0:0:
511,278,98001,1,2,0:0:0:0:
511,278,98088,1,0,0:0:0:0:
511,278,98177,1,8,0:0:0:0:
336,311,98351,5,6,0:0:0:0:
288,320,98438,1,2,0:0:0:0:
240,329,98525,1,2,0:0:0:0:
191,336,98612,1,2,0:0:0:0:
142,342,98700,1,6,0:0:0:0:
161,307,98787,1,2,0:0:0:0:
180,273,98874,1,2,0:0:0:0:
199,238,98961,1,2,0:0:0:0:
218,204,99048,1,8,3:0:0:0:
188,208,99136,1,8,3:0:0:0:
159,212,99223,1,8,3:0:0:0:
130,216,99310,1,8,3:0:0:0:
100,219,99397,6,0,L|23:230,1,48.9999985046387,8|8,3:0|3:0,0:0:0:0:
264,281,99572,2,0,L|338:271,1,48.9999985046387,8|8,3:0|3:0,0:0:0:0:
136,136,99746,6,0,B|121:90|121:90|136:21,1,97.9999970092774,6|8,0:0|0:0,0:0:0:0:
218,204,100095,1,2,0:0:0:0:
34,157,100269,1,8,0:0:0:0:
213,91,100444,1,2,0:0:0:0:
213,91,100531,1,0,0:0:0:0:
213,91,100618,1,8,0:0:0:0:
264,266,100793,1,2,0:0:0:0:
384,126,100967,1,8,0:0:0:0:
185,220,101141,6,0,B|175:269|175:269|188:315,1,97.9999970092774,2|8,0:0|0:0,0:0:0:0:
335,355,101490,1,2,0:0:0:0:
423,226,101665,1,8,0:0:0:0:
271,273,101839,1,2,0:0:0:0:
271,273,101926,1,0,0:0:0:0:
271,273,102013,1,8,0:0:0:0:
397,123,102188,1,2,0:0:0:0:
400,313,102362,1,8,0:0:0:0:
281,166,102537,5,2,0:0:0:0:
275,119,102624,1,2,0:0:0:0:
285,72,102711,1,10,0:0:0:0:
312,31,102798,1,10,0:0:0:0:
356,8,102886,1,10,0:0:0:0:
405,3,102973,1,10,0:0:0:0:
452,18,103060,1,10,0:0:0:0:
323,134,103235,1,10,0:0:0:0:
281,166,103322,1,10,0:0:0:0:
229,174,103409,1,10,0:0:0:0:
175,168,103496,1,10,0:0:0:0:
129,142,103583,1,10,0:0:0:0:
92,102,103670,1,10,0:0:0:0:
76,49,103758,1,6,0:0:0:0:
76,49,104107,5,2,0:0:0:0:
164,139,104281,1,8,0:0:0:0:
40,172,104455,1,0,0:0:0:0:
180,43,104630,5,8,0:0:0:0:
215,45,104717,1,2,0:0:0:0:
250,46,104804,1,8,3:0:0:0:
285,48,104891,1,8,3:0:0:0:
320,49,104979,1,8,3:0:0:0:
355,52,105066,1,2,0:0:0:0:
390,55,105153,1,2,0:0:0:0:
425,57,105240,1,2,0:0:0:0:
460,59,105327,5,6,0:0:0:0:
429,90,105415,1,2,0:0:0:0:
414,131,105502,1,2,0:0:0:0:
418,174,105589,1,2,0:0:0:0:
440,212,105676,1,10,0:0:0:0:
449,255,105763,1,2,0:0:0:0:
438,298,105851,1,2,0:0:0:0:
409,330,105938,1,2,0:0:0:0:
366,334,106025,5,6,0:0:0:0:
325,320,106112,1,2,0:0:0:0:
292,290,106200,1,2,0:0:0:0:
258,262,106287,1,2,0:0:0:0:
216,250,106374,1,10,0:0:0:0:
173,252,106461,1,2,0:0:0:0:
134,270,106548,1,2,0:0:0:0:
108,305,106636,1,2,0:0:0:0:
98,347,106723,1,6,0:0:0:0:
78,66,107420,5,6,0:0:0:0:
243,251,107682,5,6,0:0:0:0:
0,300,107944,5,6,0:0:0:0:
126,190,108118,5,14,0:0:0:0:
159,170,108205,1,2,0:0:0:0:
197,159,108293,1,2,0:0:0:0:
236,161,108380,1,2,0:0:0:0:
274,169,108467,1,6,0:0:0:0:
312,166,108554,1,2,0:0:0:0:
348,153,108641,5,10,0:0:0:0:
401,161,108729,1,2,0:0:0:0:
438,199,108816,1,6,0:0:0:0:
442,252,108903,1,2,0:0:0:0:
419,300,108990,5,10,0:0:0:0:
410,303,109077,1,2,0:0:0:0:
400,305,109165,1,6,0:0:0:0:
390,307,109252,1,2,0:0:0:0:
380,308,109339,1,10,0:0:0:0:
370,308,109426,1,2,0:0:0:0:
360,308,109513,5,14,0:0:0:0:
364,268,109601,1,2,0:0:0:0:
366,228,109688,1,2,0:0:0:0:
359,189,109775,1,2,0:0:0:0:
340,154,109862,1,6,0:0:0:0:
317,121,109950,1,2,0:0:0:0:
284,99,110037,5,10,0:0:0:0:
259,150,110124,1,2,0:0:0:0:
273,205,110211,1,6,0:0:0:0:
309,249,110298,1,2,0:0:0:0:
366,254,110386,5,10,0:0:0:0:
375,253,110473,1,2,0:0:0:0:
384,250,110560,1,6,0:0:0:0:
393,246,110647,1,2,0:0:0:0:
401,241,110734,1,10,0:0:0:0:
409,235,110822,1,2,0:0:0:0:
416,228,110909,5,14,0:0:0:0:
377,231,110996,1,2,0:0:0:0:
337,233,111083,1,2,0:0:0:0:
299,237,111170,1,2,0:0:0:0:
259,240,111258,1,6,0:0:0:0:
220,243,111345,1,2,0:0:0:0:
181,247,111432,5,10,0:0:0:0:
139,205,111519,1,2,0:0:0:0:
123,147,111607,1,6,0:0:0:0:
140,90,111694,1,2,0:0:0:0:
181,48,111781,5,10,0:0:0:0:
186,56,111868,1,2,0:0:0:0:
189,65,111955,1,6,0:0:0:0:
191,74,112043,1,2,0:0:0:0:
192,83,112130,1,10,0:0:0:0:
191,92,112217,1,2,0:0:0:0:
190,101,112304,6,0,P|186:134|192:160,1,48.9999985046387,12|2,0:0|0:0,0:0:0:0:
259,253,112479,2,0,P|285:270|309:276,1,48.9999985046387,2|2,0:0|0:0,0:0:0:0:
345,117,112653,2,0,P|312:114|286:118,1,48.9999985046387,10|2,0:0|0:0,0:0:0:0:
180,232,112827,2,0,P|177:264|184:290,1,48.9999985046387,2|2,0:0|0:0,0:0:0:0:
382,239,113002,2,0,P|392:206|393:180,1,48.9999985046387,10|2,0:0|0:0,0:0:0:0:
193,34,113176,2,0,P|190:67|193:93,1,48.9999985046387,2|2,0:0|0:0,0:0:0:0:
378,48,113351,2,0,P|364:17|347:-3,1,48.9999985046387,10|2,0:0|0:0,0:0:0:0:
243,182,113525,2,0,P|270:201|294:210,1,48.9999985046387,10|2,0:0|0:0,0:0:0:0:
131,143,113700,5,14,0:0:0:0:
87,141,113787,1,2,0:0:0:0:
47,160,113874,1,2,0:0:0:0:
19,194,113961,1,2,0:0:0:0:
11,237,114048,1,6,0:0:0:0:
24,279,114136,1,2,0:0:0:0:
56,308,114223,5,10,0:0:0:0:
93,262,114310,1,2,0:0:0:0:
101,203,114397,1,6,0:0:0:0:
90,145,114484,1,2,0:0:0:0:
57,95,114572,5,10,0:0:0:0:
64,88,114659,1,2,0:0:0:0:
72,83,114746,1,6,0:0:0:0:
81,79,114833,1,2,0:0:0:0:
90,76,114920,1,10,0:0:0:0:
99,76,115008,1,2,0:0:0:0:
108,75,115095,5,14,0:0:0:0:
156,75,115182,1,2,0:0:0:0:
202,88,115269,1,2,0:0:0:0:
251,93,115357,1,2,0:0:0:0:
299,90,115444,1,6,0:0:0:0:
346,76,115531,1,2,0:0:0:0:
389,54,115618,5,10,0:0:0:0:
436,91,115705,1,2,0:0:0:0:
464,144,115793,1,6,0:0:0:0:
470,204,115880,1,2,0:0:0:0:
452,261,115967,1,10,0:0:0:0:
415,308,116054,1,2,0:0:0:0:
363,337,116141,5,6,0:0:0:0:
348,274,116229,1,2,0:0:0:0:
363,212,116316,1,10,0:0:0:0:
403,163,116403,1,2,0:0:0:0:
464,144,116490,1,14,0:0:0:0:
464,144,117013,5,2,0:0:0:0:
239,255,117188,1,14,0:0:0:0:
239,255,117711,5,2,0:0:0:0:
385,314,117886,1,14,0:0:0:0:
364,158,118060,1,2,0:0:0:0:
294,332,118234,5,14,0:0:0:0:
443,210,118409,1,2,0:0:0:0:
264,139,118583,2,0,P|238:134|201:140,3,48.9999985046387,14|0|0|0,0:0|3:0|3:0|3:0,0:0:0:0:
397,88,118932,2,0,P|422:79|451:55,3,48.9999985046387,2|2|2|2,0:0|0:0|0:0|0:0,0:0:0:0:
368,232,119281,5,4,3:0:0:0:
207,362,119979,1,8,0:0:0:0:
192,139,120676,1,2,0:0:0:0:
136,346,121200,1,2,0:0:0:0:
221,247,121374,5,8,0:0:0:0:
32,258,122072,1,2,0:0:0:0:
215,366,122595,1,2,0:0:0:0:
278,258,122769,5,8,0:0:0:0:
143,79,123293,1,2,0:0:0:0:
156,200,123467,5,2,0:0:0:0:
204,252,123729,5,2,0:0:0:0:
252,304,123990,5,2,0:0:0:0:
296,168,124165,5,8,0:0:0:0:
156,200,124339,1,2,0:0:0:0:
252,304,124513,1,2,0:0:0:0:
461,377,124862,5,2,0:0:0:0:
414,155,125386,1,2,0:0:0:0:
315,235,125560,5,8,0:0:0:0:
475,304,126258,5,2,0:0:0:0:
486,229,126519,5,2,0:0:0:0:
498,154,126781,5,2,0:0:0:0:
317,28,126955,5,8,0:0:0:0:
289,246,127653,1,2,0:0:0:0:
365,112,128176,1,2,0:0:0:0:
214,112,128351,5,8,0:0:0:0:
374,215,128700,5,2,0:0:0:0:
413,213,128816,5,2,0:0:0:0:
452,211,128932,5,2,0:0:0:0:
491,210,129048,5,4,0:1:0:0:
303,329,129746,5,0,3:0:0:0:
273,329,129833,1,0,1:0:0:0:
243,329,129920,1,0,1:0:0:0:
213,329,130008,1,0,1:0:0:0:
183,329,130095,1,0,3:0:0:0:
153,329,130182,1,0,1:0:0:0:
123,329,130269,1,0,1:0:0:0:
93,329,130357,1,0,0:0:0:0:
63,330,130444,6,0,L|6:331,1,48.9999985046387,4|0,3:0|0:0,0:0:0:0:
180,245,130618,2,0,P|194:194|192:179,1,48.9999985046387,8|0,3:0|0:0,0:0:0:0:
72,153,130793,2,0,P|63:175|61:200,1,48.9999985046387,8|0,3:0|0:0,0:0:0:0:
213,329,130967,2,0,P|235:337|260:339,1,48.9999985046387,8|0,3:0|0:0,0:0:0:0:
358,215,131141,2,0,P|333:218|311:229,1,48.9999985046387,4|0,3:0|0:0,0:0:0:0:
437,344,131316,2,0,P|445:321|447:296,1,48.9999985046387,8|8,3:0|3:0,0:0:0:0:
238,188,131490,2,0,P|229:210|227:235,1,48.9999985046387,8|0,3:0|0:0,0:0:0:0:
438,159,131665,2,0,P|440:134|436:110,1,48.9999985046387,8|8,3:0|3:0,0:0:0:0:
307,16,131839,5,6,0:0:0:0:
273,20,131926,1,2,0:0:0:0:
239,24,132013,1,2,0:0:0:0:
204,28,132101,1,2,0:0:0:0:
170,32,132188,1,10,0:0:0:0:
136,36,132275,1,2,0:0:0:0:
102,40,132362,1,2,0:0:0:0:
67,45,132450,1,2,0:0:0:0:
33,50,132537,5,6,0:0:0:0:
64,62,132624,1,2,0:0:0:0:
89,84,132711,1,2,0:0:0:0:
104,114,132798,1,2,0:0:0:0:
107,148,132886,1,10,0:0:0:0:
98,181,132973,1,2,0:0:0:0:
78,208,133060,1,2,0:0:0:0:
48,225,133147,1,2,0:0:0:0:
14,231,133234,5,6,0:0:0:0:
37,205,133322,1,2,0:0:0:0:
67,189,133409,1,2,0:0:0:0:
100,182,133496,1,2,0:0:0:0:
134,185,133583,1,10,0:0:0:0:
166,195,133670,1,2,0:0:0:0:
196,211,133758,1,2,0:0:0:0:
221,234,133845,1,2,0:0:0:0:
238,263,133932,5,6,0:0:0:0:
272,259,134019,1,2,0:0:0:0:
306,255,134107,1,2,0:0:0:0:
340,251,134194,1,2,0:0:0:0:
374,247,134281,1,10,0:0:0:0:
339,243,134368,1,2,0:0:0:0:
305,239,134455,1,2,0:0:0:0:
270,234,134543,1,2,0:0:0:0:
235,230,134630,6,0,L|179:232,7,41.9999987182618,6|2|2|2|10|2|2|2,0:0|0:0|0:0|0:0|0:0|0:0|0:0|0:0,0:0:0:0:
303,172,135327,5,6,0:0:0:0:
341,150,135415,1,2,0:0:0:0:
384,148,135502,1,2,0:0:0:0:
423,167,135589,1,2,0:0:0:0:
449,202,135676,1,10,0:0:0:0:
456,245,135763,1,2,0:0:0:0:
442,287,135851,1,2,0:0:0:0:
410,318,135938,1,2,0:0:0:0:
367,329,136025,6,0,L|300:333,3,41.9999987182618,6|2|2|2,0:0|0:0|0:0|0:0,0:0:0:0:
441,215,136374,1,10,0:0:0:0:
441,215,136461,1,2,0:0:0:0:
441,215,136549,2,2,L|505:221,1,41.9999987182618
348,108,136723,5,6,0:0:0:0:
305,83,136810,1,2,0:0:0:0:
256,86,136897,1,2,0:0:0:0:
219,118,136984,1,2,0:0:0:0:
207,166,137072,1,10,0:0:0:0:
180,207,137159,1,2,0:0:0:0:
137,230,137246,1,2,0:0:0:0:
88,227,137333,1,2,0:0:0:0:
51,194,137420,5,6,0:0:0:0:
85,192,137508,1,2,0:0:0:0:
119,190,137595,1,2,0:0:0:0:
153,187,137682,1,2,0:0:0:0:
187,185,137769,1,10,0:0:0:0:
221,183,137857,1,2,0:0:0:0:
255,182,137944,1,2,0:0:0:0:
289,180,138031,1,2,0:0:0:0:
323,178,138118,5,6,0:0:0:0:
293,160,138205,1,2,0:0:0:0:
258,156,138293,1,2,0:0:0:0:
226,168,138380,1,2,0:0:0:0:
204,194,138467,1,10,0:0:0:0:
194,226,138554,1,2,0:0:0:0:
199,259,138641,1,2,0:0:0:0:
218,287,138729,1,2,0:0:0:0:
247,304,138816,5,6,0:0:0:0:
290,301,138903,1,2,0:0:0:0:
333,297,138990,1,2,0:0:0:0:
376,291,139077,1,2,0:0:0:0:
420,286,139165,5,14,0:0:0:0:
395,249,139252,1,2,0:0:0:0:
370,212,139339,1,2,0:0:0:0:
345,175,139426,1,2,0:0:0:0:
321,137,139513,5,14,0:0:0:0:
293,189,139601,1,2,0:0:0:0:
242,219,139688,1,2,0:0:0:0:
183,216,139775,1,2,0:0:0:0:
135,181,139862,1,8,3:0:0:0:
114,125,139950,1,8,3:0:0:0:
127,67,140037,1,8,3:0:0:0:
167,24,140124,1,8,3:0:0:0:
224,10,140211,1,6,0:0:0:0:
224,10,140734,5,2,0:0:0:0:
231,200,140909,1,14,0:0:0:0:
231,200,141432,5,2,0:0:0:0:
299,59,141607,1,14,0:0:0:0:
139,66,141781,1,2,0:0:0:0:
330,131,141955,5,14,0:0:0:0:
188,4,142130,1,2,0:0:0:0:
152,190,142304,1,14,0:0:0:0:
152,190,142827,5,2,0:0:0:0:
182,199,142915,1,2,0:0:0:0:
212,207,143002,2,0,B|291:222|291:222|402:198,1,167.999994873047,6|8,0:0|0:0,0:0:0:0:
338,83,143525,1,2,0:0:0:0:
216,125,143700,2,0,P|205:176|220:223,1,83.9999974365235,0|2,0:0|0:0,0:0:0:0:
316,340,144049,1,8,0:0:0:0:
316,340,144397,6,0,L|414:338,1,83.9999974365235,2|2,0:0|0:0,0:0:0:0:
462,199,144746,1,8,0:0:0:0:
383,98,144920,1,2,0:0:0:0:
383,98,145008,1,0,0:0:0:0:
383,98,145095,1,0,0:0:0:0:
386,226,145269,1,2,0:0:0:0:
227,227,145444,1,8,0:0:0:0:
305,177,145618,1,0,0:0:0:0:
229,318,145792,5,2,0:0:0:0:
149,276,145967,1,0,0:0:0:0:
307,269,146141,1,8,0:0:0:0:
307,361,146316,1,2,0:0:0:0:
227,227,146490,1,0,0:0:0:0:
305,177,146664,1,2,0:0:0:0:
149,276,146839,1,8,0:0:0:0:
145,183,147013,1,0,0:0:0:0:
307,269,147188,6,0,L|309:383,1,83.9999974365235,2|2,0:0|0:0,0:0:0:0:
227,227,147537,1,8,0:0:0:0:
391,230,147711,1,2,0:0:0:0:
391,230,147799,1,0,0:0:0:0:
391,230,147886,1,0,0:0:0:0:
421,113,148060,1,2,0:0:0:0:
302,51,148234,1,12,0:0:0:0:
305,177,148409,1,0,0:0:0:0:
190,129,148583,6,0,L|99:131,1,83.9999974365235,6|0,0:0|0:0,0:0:0:0:
7,210,148932,1,8,0:0:0:0:
46,94,149107,2,0,P|54:52|37:0,1,83.9999974365235,2|0,0:0|0:0,0:0:0:0:
113,139,149455,1,2,0:0:0:0:
197,138,149630,2,0,L|294:136,1,83.9999974365235,8|0,0:0|0:0,0:0:0:0:
158,216,149979,6,0,P|149:260|164:308,1,83.9999974365235,2|2,0:0|0:0,0:0:0:0:
290,265,150327,1,8,0:0:0:0:
287,144,150502,2,0,L|285:57,1,83.9999974365235,2|0,0:0|0:0,0:0:0:0:
123,1,150851,1,2,0:0:0:0:
197,139,151025,1,12,0:0:0:0:
59,221,151200,1,0,0:0:0:0:
242,274,151374,6,0,L|360:270,1,83.9999974365235,6|0,0:0|0:0,0:0:0:0:
436,190,151723,2,0,P|444:143|433:103,1,83.9999974365235,8|2,0:0|0:0,0:0:0:0:
317,168,152072,1,0,0:0:0:0:
439,295,152246,1,2,0:0:0:0:
326,351,152420,1,8,0:0:0:0:
194,296,152595,6,0,L|94:300,1,83.9999974365235,2|8,0:0|0:0,0:0:0:0:
28,96,152944,1,8,3:0:0:0:
149,184,153118,1,8,3:0:0:0:
0,184,153292,1,8,0:0:0:0:
121,96,153467,1,2,0:0:0:0:
74,239,153641,1,8,3:0:0:0:
7,82,153816,6,0,P|6:37|44:75,1,125.999996154785,4|0,0:0|0:0,0:0:0:0:
0,254,154164,1,6,0:0:0:0:
440,111,156432,5,2,0:0:0:0:
343,197,156606,1,8,0:0:0:0:
219,172,156781,1,8,0:0:0:0:
153,65,156955,5,6,0:0:0:0:
315,44,157130,1,2,0:0:0:0:
219,172,157304,1,8,0:0:0:0:
115,7,157478,1,2,0:0:0:0:
307,181,157653,5,2,0:0:0:0:
127,251,157827,1,2,0:0:0:0:
153,65,158002,1,8,0:0:0:0:
239,270,158176,1,2,0:0:0:0:
68,138,158351,5,6,0:0:0:0:
354,116,158525,1,6,0:0:0:0:
123,316,158699,5,6,0:0:0:0:
107,0,158874,1,6,0:0:0:0:
243,129,159048,5,2,0:0:0:0:
243,136,159135,1,2,0:0:0:0:
244,144,159223,1,2,0:0:0:0:
245,152,159310,1,2,0:0:0:0:
245,160,159397,2,0,L|248:211,1,41.9999987182618,2|2,0:0|0:0,0:0:0:0:
177,348,159571,2,0,L|175:297,1,41.9999987182618,2|2,0:0|0:0,0:0:0:0:
355,210,159746,6,0,B|367:162|367:162|346:89,1,97.9999970092774,6|8,0:0|0:0,0:0:0:0:
182,36,160095,1,2,0:0:0:0:
282,164,160269,1,8,0:0:0:0:
334,16,160444,1,2,0:0:0:0:
334,16,160531,1,0,0:0:0:0:
334,16,160618,1,8,0:0:0:0:
473,147,160792,1,2,0:0:0:0:
282,164,160967,1,8,0:0:0:0:
435,245,161141,6,0,B|445:295|445:295|428:353,1,97.9999970092774,2|8,0:0|0:0,0:0:0:0:
224,384,161490,1,2,0:0:0:0:
366,293,161664,1,8,0:0:0:0:
204,209,161839,1,2,0:0:0:0:
204,209,161926,1,0,0:0:0:0:
204,209,162013,1,8,0:0:0:0:
390,130,162188,1,2,0:0:0:0:
285,47,162362,1,8,0:0:0:0:
294,210,162537,5,6,0:0:0:0:
114,212,162711,1,8,0:0:0:0:
250,128,162886,1,2,0:0:0:0:
159,289,163060,1,8,0:0:0:0:
157,132,163235,1,2,0:0:0:0:
249,286,163409,1,8,0:0:0:0:
67,291,163583,1,2,0:0:0:0:
67,291,163670,1,0,0:0:0:0:
67,291,163757,1,8,0:0:0:0:
231,211,163932,5,6,0:0:0:0:
275,210,164019,1,2,0:0:0:0:
319,209,164106,1,2,0:0:0:0:
364,208,164194,1,2,0:0:0:0:
408,207,164281,1,14,0:0:0:0:
371,218,164368,1,2,0:0:0:0:
334,229,164455,1,2,0:0:0:0:
296,239,164542,1,2,0:0:0:0:
259,250,164630,1,8,3:0:0:0:
293,259,164717,1,8,3:0:0:0:
326,267,164804,1,8,3:0:0:0:
359,277,164891,1,8,3:0:0:0:
392,287,164978,6,0,L|470:308,1,48.9999985046387,8|8,3:0|3:0,0:0:0:0:
264,176,165153,2,0,P|259:149|263:118,1,48.9999985046387,8|8,3:0|3:0,0:0:0:0:
507,250,165327,6,0,B|522:294|522:294|511:353,1,97.9999970092774,6|8,0:0|0:0,0:0:0:0:
354,379,165676,1,2,0:0:0:0:
242,272,165851,1,8,0:0:0:0:
398,236,166025,1,2,0:0:0:0:
398,236,166112,1,0,0:0:0:0:
398,236,166199,1,8,0:0:0:0:
239,139,166374,1,2,0:0:0:0:
334,302,166548,1,8,0:0:0:0:
395,131,166723,6,0,B|404:83|404:83|393:34,1,97.9999970092774,2|8,0:0|0:0,0:0:0:0:
240,0,167071,1,2,0:0:0:0:
160,131,167246,1,8,0:0:0:0:
318,84,167420,1,2,0:0:0:0:
318,84,167507,1,0,0:0:0:0:
318,84,167595,1,8,0:0:0:0:
221,252,167769,1,2,0:0:0:0:
195,65,167944,1,8,0:0:0:0:
337,206,168118,5,2,0:0:0:0:
379,173,168205,1,2,0:0:0:0:
407,128,168292,1,2,0:0:0:0:
421,75,168380,1,2,0:0:0:0:
416,22,168467,1,6,0:0:0:0:
416,22,168816,5,2,0:0:0:0:
393,70,168903,1,2,0:0:0:0:
394,125,168990,1,2,0:0:0:0:
408,177,169078,1,2,0:0:0:0:
439,220,169165,1,6,0:0:0:0:
439,220,169513,5,2,0:0:0:0:
409,227,169601,1,2,0:0:0:0:
381,235,169688,1,2,0:0:0:0:
352,243,169775,1,2,0:0:0:0:
324,251,169862,1,10,0:0:0:0:
367,259,169949,1,2,0:0:0:0:
410,265,170037,1,2,0:0:0:0:
453,272,170124,1,2,0:0:0:0:
495,281,170211,1,8,3:0:0:0:
446,302,170298,1,8,3:0:0:0:
395,323,170385,1,8,3:0:0:0:
344,345,170473,1,8,3:0:0:0:
294,364,170560,6,0,L|236:384,1,48.9999985046387,8|8,3:0|3:0,0:0:0:0:
119,283,170734,2,0,L|189:257,1,48.9999985046387,2|2,0:0|0:0,0:0:0:0:
316,150,170909,6,0,B|326:102|326:102|309:48,1,97.9999970092774,6|8,0:0|0:0,0:0:0:0:
187,198,171257,1,2,0:0:0:0:
325,269,171432,1,8,0:0:0:0:
237,108,171606,1,2,0:0:0:0:
237,108,171694,1,0,0:0:0:0:
237,108,171781,1,8,0:0:0:0:
246,266,171955,1,2,0:0:0:0:
107,193,172130,1,8,0:0:0:0:
237,108,172304,6,0,B|285:95|285:95|331:105,1,97.9999970092774,2|8,0:0|0:0,0:0:0:0:
426,230,172653,1,2,0:0:0:0:
417,43,172827,1,8,0:0:0:0:
286,184,173002,1,2,0:0:0:0:
286,184,173089,1,0,0:0:0:0:
286,184,173176,1,8,0:0:0:0:
474,162,173351,1,2,0:0:0:0:
318,269,173525,1,8,0:0:0:0:
343,117,173699,5,6,0:0:0:0:
230,255,173873,1,8,0:0:0:0:
254,97,174048,1,2,0:0:0:0:
318,269,174222,1,8,0:0:0:0:
197,170,174397,1,2,0:0:0:0:
373,199,174571,1,8,0:0:0:0:
322,35,174745,1,2,0:0:0:0:
322,35,174832,1,0,0:0:0:0:
322,35,174921,1,8,0:0:0:0:
286,184,175095,5,6,0:0:0:0:
290,213,175182,1,2,0:0:0:0:
294,242,175269,1,2,0:0:0:0:
298,271,175357,1,2,0:0:0:0:
303,299,175444,1,14,0:0:0:0:
312,255,175531,1,2,0:0:0:0:
321,212,175618,1,2,0:0:0:0:
330,169,175705,1,2,0:0:0:0:
339,125,175793,1,8,3:0:0:0:
288,143,175880,1,8,3:0:0:0:
237,162,175967,1,8,3:0:0:0:
186,181,176054,1,8,3:0:0:0:
136,200,176141,6,0,L|76:222,1,48.9999985046387,8|8,3:0|3:0,0:0:0:0:
312,255,176316,2,0,L|371:231,1,48.9999985046387,10|8,3:0|3:0,0:0:0:0:
158,103,176490,6,0,B|142:56|142:56|158:-11,1,97.9999970092774,6|8,0:0|0:0,0:0:0:0:
309,58,176839,1,2,0:0:0:0:
207,179,177013,1,8,0:0:0:0:
70,93,177188,1,2,0:0:0:0:
70,93,177275,1,0,0:0:0:0:
70,93,177362,1,8,0:0:0:0:
92,281,177537,1,2,0:0:0:0:
158,103,177711,1,8,0:0:0:0:
277,256,177885,6,0,B|323:266|323:266|372:252,1,97.9999970092774,2|8,0:0|0:0,0:0:0:0:
193,200,178234,1,2,0:0:0:0:
294,363,178409,1,8,0:0:0:0:
321,177,178583,1,2,0:0:0:0:
321,177,178670,1,0,0:0:0:0:
321,177,178757,1,8,0:0:0:0:
158,281,178932,2,0,L|49:285,1,97.9999970092774,2|8,0:0|0:0,0:0:0:0:
344,281,179281,5,2,0:0:0:0:
392,257,179368,1,2,0:0:0:0:
421,212,179455,1,10,0:0:0:0:
424,158,179542,1,10,0:0:0:0:
400,109,179630,1,10,0:0:0:0:
357,76,179717,1,10,0:0:0:0:
303,72,179804,1,10,0:0:0:0:
193,178,179978,1,10,0:0:0:0:
237,207,180066,1,10,0:0:0:0:
289,211,180153,1,10,0:0:0:0:
343,201,180240,1,10,0:0:0:0:
387,172,180327,1,10,0:0:0:0:
421,130,180414,1,10,0:0:0:0:
433,76,180502,1,6,0:0:0:0:
433,76,180851,5,2,0:0:0:0:
393,125,180938,1,2,0:0:0:0:
352,172,181025,1,10,0:0:0:0:
478,196,181199,1,0,0:0:0:0:
337,26,181374,5,8,0:0:0:0:
302,29,181461,1,2,0:0:0:0:
267,32,181548,1,8,3:0:0:0:
232,35,181636,1,8,3:0:0:0:
197,38,181723,1,8,3:0:0:0:
162,41,181810,1,2,0:0:0:0:
127,44,181897,1,2,0:0:0:0:
93,47,181984,1,2,0:0:0:0:
58,50,182072,5,6,0:0:0:0:
88,65,182159,1,2,0:0:0:0:
111,90,182246,1,2,0:0:0:0:
124,121,182333,1,2,0:0:0:0:
126,155,182420,1,10,0:0:0:0:
105,182,182508,1,2,0:0:0:0:
73,196,182595,1,2,0:0:0:0:
40,185,182682,1,2,0:0:0:0:
19,157,182769,5,6,0:0:0:0:
15,122,182857,1,2,0:0:0:0:
33,94,182944,1,2,0:0:0:0:
64,81,183031,1,2,0:0:0:0:
97,85,183118,1,10,0:0:0:0:
129,97,183205,1,2,0:0:0:0:
163,100,183293,1,2,0:0:0:0:
196,93,183380,1,2,0:0:0:0:
226,78,183467,1,6,0:0:0:0:
412,72,184164,5,6,0:0:0:0:
261,268,184426,5,6,0:0:0:0:
500,300,184688,5,6,0:0:0:0:
391,204,184862,5,12,0:0:0:0:
459,144,190444,5,6,0:0:0:0:
459,144,190531,1,0,0:0:0:0:
459,144,190618,1,0,0:0:0:0:
459,269,190793,1,6,0:0:0:0:
355,197,190967,2,0,L|352:89,1,77.0000023498536,0|6,0:0|0:0,0:0:0:0:
456,8,191316,1,0,0:0:0:0:
459,144,191490,1,6,0:0:0:0:
342,33,191665,1,0,0:0:0:0:
349,292,191839,5,6,0:0:0:0:
349,292,191926,1,0,0:0:0:0:
349,292,192013,1,0,0:0:0:0:
247,359,192188,1,6,0:0:0:0:
245,231,192362,2,0,L|243:129,1,77.0000023498536,0|6,0:0|0:0,0:0:0:0:
349,292,192711,1,0,0:0:0:0:
247,359,192886,1,6,0:0:0:0:
335,197,193060,1,0,0:0:0:0:
167,295,193235,5,6,0:0:0:0:
167,295,193322,1,0,0:0:0:0:
167,295,193409,1,0,0:0:0:0:
33,384,193584,1,6,0:0:0:0:
27,224,193758,2,0,L|23:121,1,77.0000023498536,0|6,0:0|0:0,0:0:0:0:
244,184,194107,1,0,0:0:0:0:
59,297,194282,1,6,0:0:0:0:
48,74,194456,1,0,0:0:0:0:
194,262,194630,6,0,P|174:276|144:290,1,45.4999979171754,4|2,3:0|0:0,0:0:0:0:
221,113,194804,2,0,P|244:111|277:114,1,45.4999979171754,8|8,3:0|3:0,0:0:0:0:
124,181,194979,2,0,P|102:175|74:153,1,45.4999979171754,8|0,3:0|0:0,0:0:0:0:
349,128,195153,2,0,P|343:149|321:176,1,45.4999979171754,8|0,3:0|0:0,0:0:0:0:
135,98,195327,2,0,P|129:78|130:51,1,45.4999979171754,8|0,3:0|3:0,0:0:0:0:
319,3,195502,2,0,P|324:31|321:49,1,45.4999979171754,8|8,3:0|3:0,0:0:0:0:
173,253,195676,6,0,P|171:279|177:304,3,52.5000020027161,10|10|10|10,0:0|0:0|0:0|0:0,0:0:0:0:
265,220,196025,5,14,0:0:0:0:
239,197,196112,1,2,0:0:0:0:
206,185,196200,1,2,0:0:0:0:
171,183,196287,1,2,0:0:0:0:
138,194,196374,1,6,0:0:0:0:
110,214,196461,1,2,0:0:0:0:
90,242,196548,1,2,0:0:0:0:
81,275,196636,1,2,0:0:0:0:
83,309,196723,5,14,0:0:0:0:
113,294,196810,1,2,0:0:0:0:
140,272,196898,1,2,0:0:0:0:
159,242,196985,1,2,0:0:0:0:
166,208,197072,1,6,0:0:0:0:
163,174,197159,1,2,0:0:0:0:
149,143,197246,1,2,0:0:0:0:
125,118,197334,1,2,0:0:0:0:
93,104,197421,5,14,0:0:0:0:
113,131,197508,1,2,0:0:0:0:
129,160,197595,1,2,0:0:0:0:
146,189,197682,1,2,0:0:0:0:
165,216,197769,5,14,0:0:0:0:
189,180,197857,1,2,0:0:0:0:
208,151,197944,1,2,0:0:0:0:
233,126,198031,1,2,0:0:0:0:
253,98,198118,5,14,0:0:0:0:
269,128,198205,1,2,0:0:0:0:
270,162,198293,1,2,0:0:0:0:
263,195,198380,1,2,0:0:0:0:
249,226,198467,1,6,0:0:0:0:
242,259,198554,1,2,0:0:0:0:
249,292,198641,1,2,0:0:0:0:
269,320,198729,1,2,0:0:0:0:
302,331,198816,5,14,0:0:0:0:
303,296,198903,1,2,0:0:0:0:
306,261,198990,1,2,0:0:0:0:
308,226,199077,1,2,0:0:0:0:
310,191,199165,1,6,0:0:0:0:
312,156,199252,1,2,0:0:0:0:
314,121,199339,1,2,0:0:0:0:
317,86,199426,1,2,0:0:0:0:
319,52,199513,5,14,0:0:0:0:
338,80,199601,1,2,0:0:0:0:
345,113,199688,1,2,0:0:0:0:
341,147,199775,1,2,0:0:0:0:
323,176,199862,1,6,0:0:0:0:
296,197,199950,1,2,0:0:0:0:
263,208,200037,1,2,0:0:0:0:
228,204,200124,1,2,0:0:0:0:
198,187,200211,5,14,0:0:0:0:
232,186,200298,1,2,0:0:0:0:
266,185,200386,1,2,0:0:0:0:
300,184,200473,1,2,0:0:0:0:
334,181,200560,5,14,0:0:0:0:
317,210,200647,1,2,0:0:0:0:
300,240,200734,1,2,0:0:0:0:
281,269,200822,1,2,0:0:0:0:
261,297,200909,5,14,0:0:0:0:
245,266,200996,1,2,0:0:0:0:
229,235,201083,1,2,0:0:0:0:
213,204,201170,1,2,0:0:0:0:
197,173,201258,1,6,0:0:0:0:
181,142,201345,1,2,0:0:0:0:
165,111,201432,1,2,0:0:0:0:
149,80,201519,1,2,0:0:0:0:
132,49,201607,5,14,0:0:0:0:
115,89,201694,1,2,0:0:0:0:
114,132,201781,1,2,0:0:0:0:
130,172,201868,1,2,0:0:0:0:
161,203,201955,1,6,0:0:0:0:
203,217,202043,1,2,0:0:0:0:
246,215,202130,1,2,0:0:0:0:
284,194,202217,1,2,0:0:0:0:
310,158,202304,5,14,0:0:0:0:
271,137,202391,1,2,0:0:0:0:
226,133,202479,1,2,0:0:0:0:
183,145,202566,1,2,0:0:0:0:
148,171,202653,1,6,0:0:0:0:
126,209,202740,1,2,0:0:0:0:
117,252,202827,1,2,0:0:0:0:
126,295,202915,1,2,0:0:0:0:
148,332,203002,5,14,0:0:0:0:
171,289,203089,1,2,0:0:0:0:
194,246,203176,1,2,0:0:0:0:
217,203,203263,1,2,0:0:0:0:
240,159,203351,5,14,0:0:0:0:
191,162,203438,1,2,0:0:0:0:
142,165,203525,1,2,0:0:0:0:
93,168,203612,1,2,0:0:0:0:
43,171,203700,5,14,0:0:0:0:
78,204,203787,1,2,0:0:0:0:
124,217,203874,1,2,0:0:0:0:
172,208,203961,1,2,0:0:0:0:
211,178,204048,1,6,0:0:0:0:
233,133,204136,1,2,0:0:0:0:
231,84,204223,1,2,0:0:0:0:
207,41,204310,1,2,0:0:0:0:
165,11,204397,5,14,0:0:0:0:
150,65,204484,1,2,0:0:0:0:
153,121,204572,1,2,0:0:0:0:
174,172,204659,1,2,0:0:0:0:
203,219,204746,1,6,0:0:0:0:
212,274,204833,1,2,0:0:0:0:
203,329,204920,1,2,0:0:0:0:
168,373,205008,1,2,0:0:0:0:
112,383,205095,5,14,0:0:0:0:
80,336,205182,1,2,0:0:0:0:
76,279,205269,1,2,0:0:0:0:
96,226,205357,1,2,0:0:0:0:
136,187,205444,1,6,0:0:0:0:
189,168,205531,1,2,0:0:0:0:
244,171,205618,1,2,0:0:0:0:
293,197,205705,1,2,0:0:0:0:
328,241,205793,5,10,0:0:0:0:
267,233,205880,1,8,3:0:0:0:
225,188,205967,1,8,3:0:0:0:
210,128,206054,1,8,3:0:0:0:
240,75,206141,5,10,0:0:0:0:
231,136,206229,1,8,3:0:0:0:
195,185,206316,1,8,3:0:0:0:
138,208,206403,1,8,3:0:0:0:
80,188,206490,5,10,0:0:0:0:
105,126,206577,1,8,3:0:0:0:
161,90,206665,1,8,3:0:0:0:
227,94,206752,1,8,3:0:0:0:
277,136,206839,1,10,0:0:0:0:
295,199,206926,1,10,0:0:0:0:
274,262,207013,1,10,0:0:0:0:
220,300,207101,1,10,0:0:0:0:
154,300,207188,6,0,B|111:275|111:275|77:219|77:219,1,97.9999970092774,6|8,0:0|0:0,0:0:0:0:
237,275,207450,2,0,B|237:323|237:323|204:380|204:380,1,97.9999970092774,0|0,0:0|0:0,0:0:0:0:
175,213,207711,2,0,B|216:187|216:187|281:186|281:186,1,97.9999970092774,8|2,0:0|0:0,0:0:0:0:
66,322,208060,1,8,0:0:0:0:
223,111,208234,1,2,0:0:0:0:
223,111,208322,1,0,0:0:0:0:
223,111,208409,1,8,0:0:0:0:
0,120,208583,5,2,0:0:0:0:
201,227,208758,1,8,0:0:0:0:
106,39,208932,1,2,0:0:0:0:
106,39,209019,1,0,0:0:0:0:
106,39,209107,1,8,0:0:0:0:
201,227,209281,2,0,L|322:223,1,97.9999970092774,2|8,0:0|0:0,0:0:0:0:
147,133,209630,1,2,0:0:0:0:
113,136,209717,1,0,0:0:0:0:
79,137,209804,1,8,0:0:0:0:
340,137,209979,6,0,B|354:89|354:89|342:34,1,97.9999970092774,6|8,0:0|0:0,0:0:0:0:
298,223,210240,2,0,B|344:233|344:233|392:219,1,97.9999970092774,0|0,0:0|0:0,0:0:0:0:
243,142,210502,1,8,0:0:0:0:
443,143,210676,1,2,0:0:0:0:
254,34,210851,1,8,0:0:0:0:
254,34,210938,1,0,0:0:0:0:
254,34,211025,1,0,0:0:0:0:
439,34,211200,1,8,0:0:0:0:
298,223,211374,6,0,L|159:228,1,97.9999970092774,2|8,0:0|0:0,0:0:0:0:
340,135,211636,2,0,L|413:252,1,97.9999970092774,0|0,0:0|0:0,0:0:0:0:
243,139,211897,2,0,L|308:16,1,97.9999970092774,8|2,0:0|0:0,0:0:0:0:
431,126,212246,1,8,0:0:0:0:
298,223,212420,2,0,L|225:225,3,48.9999985046387,6|0|8|0,0:0|0:0|0:0|0:0,0:0:0:0:
375,292,212769,5,6,0:0:0:0:
335,321,212857,1,0,0:0:0:0:
286,329,212944,1,8,0:0:0:0:
237,327,213031,1,0,0:0:0:0:
190,311,213118,5,2,0:0:0:0:
169,277,213205,1,0,0:0:0:0:
158,238,213293,1,8,0:0:0:0:
158,198,213380,1,0,0:0:0:0:
167,160,213467,1,2,0:0:0:0:
180,123,213554,1,0,0:0:0:0:
184,84,213641,1,8,0:0:0:0:
176,45,213729,1,0,0:0:0:0:
148,16,213816,5,2,0:0:0:0:
129,21,213903,1,0,0:0:0:0:
110,26,213990,1,8,0:0:0:0:
91,32,214077,1,0,0:0:0:0:
72,38,214165,5,2,0:0:0:0:
106,56,214252,1,0,0:0:0:0:
143,67,214339,1,8,0:0:0:0:
182,64,214426,1,0,0:0:0:0:
219,51,214513,1,2,0:0:0:0:
254,33,214601,1,0,0:0:0:0:
293,30,214688,1,8,0:0:0:0:
330,41,214775,1,0,0:0:0:0:
357,69,214862,5,2,0:0:0:0:
372,116,214950,1,0,0:0:0:0:
359,163,215037,1,8,0:0:0:0:
325,198,215124,1,0,0:0:0:0:
276,206,215211,1,2,0:0:0:0:
228,192,215298,1,0,0:0:0:0:
178,189,215386,1,8,0:0:0:0:
131,205,215473,1,0,0:0:0:0:
102,244,215560,6,0,B|121:149|121:149|84:46,1,195.999994018555,2|2,0:0|0:0,0:0:0:0:
11,219,216083,1,8,0:0:0:0:
235,257,216258,1,2,0:0:0:0:
182,77,216432,1,8,0:0:0:0:
141,296,216607,1,2,0:0:0:0:
305,160,216781,1,8,0:0:0:0:
89,227,216955,1,6,0:0:0:0:
298,300,217130,5,2,0:0:0:0:
346,303,217217,1,2,0:0:0:0:
394,306,217304,1,2,0:0:0:0:
442,309,217391,1,2,0:0:0:0:
491,312,217479,1,4,0:0:0:0:
385,127,217653,1,8,3:0:0:0:
363,170,217740,1,0,3:0:0:0:
342,213,217827,1,8,3:0:0:0:
320,256,217914,1,0,3:0:0:0:
298,300,218002,6,0,B|406:307|406:307|363:246,1,146.999995513916,12|0,3:2|0:0,0:0:0:0:
275,182,218351,5,6,0:0:0:0:
221,173,218438,1,0,0:0:0:0:
168,183,218525,1,8,0:0:0:0:
128,219,218612,1,0,0:0:0:0:
106,268,218700,1,2,0:0:0:0:
111,321,218787,1,0,0:0:0:0:
145,362,218874,1,8,0:0:0:0:
197,371,218961,1,0,0:0:0:0:
240,339,219048,1,2,0:0:0:0:
251,285,219136,1,0,0:0:0:0:
224,237,219223,1,8,0:0:0:0:
204,187,219310,1,0,0:0:0:0:
203,133,219397,1,2,0:0:0:0:
224,83,219484,1,0,0:0:0:0:
265,47,219572,1,8,0:0:0:0:
318,40,219659,1,0,0:0:0:0:
365,64,219746,5,2,0:0:0:0:
376,116,219833,1,0,0:0:0:0:
351,163,219920,1,8,0:0:0:0:
299,180,220008,1,0,0:0:0:0:
251,155,220095,1,2,0:0:0:0:
200,136,220182,1,0,0:0:0:0:
146,139,220269,1,8,0:0:0:0:
101,170,220357,1,0,0:0:0:0:
80,219,220444,1,2,0:0:0:0:
95,270,220531,1,0,0:0:0:0:
141,296,220618,1,8,0:0:0:0:
193,286,220705,1,0,0:0:0:0:
228,244,220793,1,2,0:0:0:0:
226,190,220880,1,0,0:0:0:0:
186,153,220967,1,8,0:0:0:0:
132,161,221054,1,0,0:0:0:0:
98,203,221141,5,6,0:0:0:0:
109,256,221229,1,0,0:0:0:0:
150,289,221316,1,8,0:0:0:0:
203,282,221403,1,0,0:0:0:0:
240,243,221490,1,2,0:0:0:0:
278,204,221577,1,0,0:0:0:0:
328,183,221665,1,8,0:0:0:0:
382,194,221752,1,0,0:0:0:0:
417,234,221839,1,2,0:0:0:0:
428,286,221926,1,0,0:0:0:0:
407,335,222013,1,8,0:0:0:0:
361,364,222101,1,0,0:0:0:0:
307,364,222188,1,2,0:0:0:0:
262,333,222275,1,0,0:0:0:0:
246,277,222362,1,8,0:0:0:0:
265,226,222450,1,0,0:0:0:0:
305,190,222537,5,2,0:0:0:0:
335,145,222624,1,0,0:0:0:0:
341,91,222711,1,8,0:0:0:0:
317,42,222798,1,0,0:0:0:0:
270,14,222886,1,2,0:0:0:0:
216,14,222973,1,0,0:0:0:0:
170,41,223060,1,8,0:0:0:0:
145,89,223147,1,0,0:0:0:0:
148,142,223234,5,8,3:0:0:0:
157,159,223322,1,8,3:0:0:0:
162,177,223409,1,8,3:0:0:0:
164,196,223496,1,8,3:0:0:0:
166,215,223583,1,4,3:0:0:0:
161,234,223670,1,4,3:0:0:0:
153,252,223758,1,4,3:0:0:0:
143,268,223845,1,4,3:0:0:0:
128,281,223932,5,6,0:0:0:0:
154,303,224019,1,0,0:0:0:0:
186,313,224107,1,8,0:0:0:0:
222,310,224194,1,0,0:0:0:0:
252,294,224281,1,2,0:0:0:0:
279,273,224368,1,0,0:0:0:0:
297,243,224455,5,8,0:0:0:0:
298,188,224543,1,0,0:0:0:0:
279,137,224630,1,2,0:0:0:0:
288,84,224717,1,0,0:0:0:0:
324,44,224804,1,8,0:0:0:0:
376,31,224891,1,0,0:0:0:0:
429,42,224979,1,2,0:0:0:0:
403,94,225066,1,0,0:0:0:0:
350,120,225153,1,8,0:0:0:0:
291,120,225240,1,0,0:0:0:0:
243,85,225327,5,2,0:0:0:0:
191,55,225415,1,0,0:0:0:0:
132,56,225502,1,8,0:0:0:0:
87,94,225589,1,0,0:0:0:0:
76,151,225676,1,2,0:0:0:0:
103,202,225763,1,0,0:0:0:0:
155,230,225851,1,8,0:0:0:0:
212,216,225938,1,0,0:0:0:0:
255,176,226025,5,2,0:0:0:0:
192,165,226112,1,0,0:0:0:0:
137,198,226200,1,8,0:0:0:0:
118,258,226287,1,0,0:0:0:0:
142,316,226374,1,2,0:0:0:0:
198,344,226461,1,0,0:0:0:0:
259,329,226548,1,8,0:0:0:0:
294,275,226636,1,0,0:0:0:0:
288,211,226723,6,0,B|251:125|251:125|285:12,1,195.999994018555,6|2,0:0|0:0,0:0:0:0:
442,127,227246,1,8,0:0:0:0:
210,254,227420,1,2,0:0:0:0:
210,254,227508,1,0,0:0:0:0:
210,254,227595,1,8,0:0:0:0:
343,118,227769,1,2,0:0:0:0:
384,293,227944,1,8,0:0:0:0:
137,152,228118,5,6,0:0:0:0:
426,211,228293,1,8,0:0:0:0:
228,33,228467,5,2,0:0:0:0:
330,334,228642,1,8,0:0:0:0:
384,62,228816,5,2,0:0:0:0:
174,300,228991,1,8,0:0:0:0:
453,219,229165,5,2,0:0:0:0:
111,145,229339,1,8,0:0:0:0:
402,307,229513,6,0,L|514:310,1,97.9999970092774,6|0,0:0|0:0,0:0:0:0:
298,139,229862,2,0,B|292:186|292:186|315:249,1,97.9999970092774,6|0,0:0|0:0,0:0:0:0:
451,36,230211,2,0,L|354:33,1,97.9999970092774,6|0,0:0|0:0,0:0:0:0:
202,233,230560,2,0,B|220:186|220:186|214:139,1,97.9999970092774,6|0,0:0|0:0,0:0:0:0:
23,31,230909,5,6,0:0:0:0:
35,317,231083,1,6,0:0:0:0:
362,226,231432,5,6,0:0:0:0:
208,2,231781,5,6,0:0:0:0:
87,253,232130,5,6,0:0:0:0:
402,307,232304,6,0,L|514:310,1,97.9999970092774,6|0,0:0|0:0,0:0:0:0:
298,139,232653,2,0,B|292:186|292:186|315:249,1,97.9999970092774,6|0,0:0|0:0,0:0:0:0:
451,36,233002,2,0,L|354:33,1,97.9999970092774,6|0,0:0|0:0,0:0:0:0:
202,233,233351,2,0,B|220:186|220:186|214:139,1,97.9999970092774,6|0,0:0|0:0,0:0:0:0:
23,31,233700,5,6,0:0:0:0:
35,317,233874,1,6,0:0:0:0:
351,187,234223,5,6,0:0:0:0:
36,102,234572,5,6,0:0:0:0:
236,308,234746,5,8,3:0:0:0:
274,311,234833,1,8,3:0:0:0:
312,314,234920,1,2,0:0:0:0:
351,317,235008,1,2,0:0:0:0:
389,320,235095,6,0,L|490:326,1,62.9999980773926,6|0,0:0|0:0,0:0:0:0:
289,179,235269,5,2,0:0:0:0:
225,171,235357,1,0,0:0:0:0:
162,164,235444,2,0,L|55:155,1,62.9999980773926,6|0,0:0|0:0,0:0:0:0:
250,231,235618,5,2,0:0:0:0:
289,179,235706,1,0,0:0:0:0:
327,128,235793,2,0,L|388:39,1,62.9999980773926,6|0,0:0|0:0,0:0:0:0:
225,171,235967,5,2,0:0:0:0:
250,230,236055,1,0,0:0:0:0:
275,289,236142,2,0,L|320:386,1,62.9999980773926,6|0,0:0|0:0,0:0:0:0:
289,179,236316,5,2,0:0:0:0:
225,171,236404,1,0,0:0:0:0:
162,164,236491,2,0,L|55:155,1,62.9999980773926,6|0,0:0|0:0,0:0:0:0:
313,238,236665,6,0,L|462:251,1,125.999996154785,6|0,0:0|0:0,0:0:0:0:
338,15,237013,2,0,L|252:137,1,125.999996154785,6|0,0:0|0:0,0:0:0:0:
474,99,237362,1,6,0:0:0:0:
271,296,237537,5,0,0:0:0:0:
308,300,237624,1,0,0:0:0:0:
346,305,237711,1,6,0:0:0:0:
383,309,237799,1,0,0:0:0:0:
420,313,237886,6,0,L|520:324,1,62.9999980773926,6|0,0:0|0:0,0:0:0:0:
289,179,238060,5,2,0:0:0:0:
225,171,238148,1,0,0:0:0:0:
162,164,238235,2,0,L|55:155,1,62.9999980773926,6|0,0:0|0:0,0:0:0:0:
250,231,238409,5,2,0:0:0:0:
289,179,238497,1,0,0:0:0:0:
327,128,238584,2,0,L|388:39,1,62.9999980773926,6|0,0:0|0:0,0:0:0:0:
225,171,238758,5,2,0:0:0:0:
250,230,238846,1,0,0:0:0:0:
275,289,238933,2,0,L|320:386,1,62.9999980773926,6|0,0:0|0:0,0:0:0:0:
289,179,239107,5,2,0:0:0:0:
225,171,239195,1,0,0:0:0:0:
162,164,239282,2,0,L|55:155,1,62.9999980773926,6|0,0:0|0:0,0:0:0:0:
313,238,239456,6,0,L|462:251,1,125.999996154785,6|0,0:0|0:0,0:0:0:0:
338,15,239804,1,6,0:0:0:0:
265,118,239979,1,0,0:0:0:0:
391,131,240153,2,0,P|425:129|469:105,1,59.5000011348725,8|8,3:0|3:0,0:0:0:0:
232,198,240327,5,2,0:0:0:0:
223,260,240415,1,2,0:0:0:0:
254,314,240502,1,8,3:0:0:0:
311,339,240589,1,8,3:0:0:0:
375,326,240677,6,0,B|396:293|431:260|425:117|326:77|326:77|181:125|13:95|13:95|100:122|152:164|152:164|123:190|66:184|66:184|88:247|160:260|160:260|139:300|78:330|78:330|195:307|310:306|310:306|341:271|374:227|333:150|314:146|314:146|274:157|228:163|228:163|270:215|235:250|235:250,1,1680,6|0,0:0|0:0,0:0:0:0:
241,243,246258,5,2,0:0:0:0:
241,243,246781,1,2,0:0:0:0:
321,297,246955,1,0,1:0:0:0:
312,65,247653,5,2,0:0:0:0:
243,101,247915,5,2,0:0:0:0:
175,137,248176,5,2,0:0:0:0:
309,226,248351,5,0,1:0:0:0:
309,226,248700,1,2,0:0:0:0:
211,224,248874,1,2,0:0:0:0:
257,309,249048,5,2,0:0:0:0:
309,226,249572,1,2,0:0:0:0:
211,224,249746,1,0,1:0:0:0:
453,247,250444,5,2,0:0:0:0:
450,170,250705,5,2,0:0:0:0:
447,93,250967,5,2,0:0:0:0:
384,211,251142,5,0,1:0:0:0:
384,211,251490,1,2,0:0:0:0:
453,247,251665,1,2,0:0:0:0:
450,170,251839,5,2,0:0:0:0:
384,211,252362,1,2,0:0:0:0:
453,247,252537,1,0,1:0:0:0:
233,164,253234,5,2,0:0:0:0:
164,200,253496,5,2,0:0:0:0:
96,236,253757,5,2,0:0:0:0:
230,325,253932,5,0,1:0:0:0:
230,325,254281,1,2,0:0:0:0:
230,245,254455,1,2,0:0:0:0:
161,284,254630,5,2,0:0:0:0:
230,325,255153,1,2,0:0:0:0:
230,245,255327,1,0,1:0:0:0:
161,284,255502,1,2,0:0:0:0:
230,245,255851,5,2,0:0:0:0:
231,165,256200,5,2,0:0:0:0:
162,126,256374,1,0,1:0:0:0:
161,205,256548,1,2,0:0:0:0:
300,128,256723,5,0,1:0:0:0:
83,203,256897,1,0,3:0:0:0:
90,237,256984,1,0,1:0:0:0:
109,266,257071,1,0,1:0:0:0:
139,283,257158,1,0,0:0:0:0:
174,283,257245,1,2,0:0:0:0:
207,271,257333,1,0,0:0:0:0:
230,245,257420,1,6,0:0:0:0:
230,245,259688,5,2,0:0:0:0:
280,161,259862,1,8,0:0:0:0:
239,71,260037,1,8,0:0:0:0:
146,39,260211,5,6,0:0:0:0:
230,245,260386,1,0,0:0:0:0:
338,80,260560,1,8,0:0:0:0:
70,168,260734,1,0,0:0:0:0:
328,253,260909,5,2,0:0:0:0:
239,71,261083,1,2,0:0:0:0:
275,331,261258,1,12,0:0:0:0:
338,80,261432,1,2,0:0:0:0:
70,168,261607,5,6,0:0:0:0:
385,150,261781,1,6,0:0:0:0:
45,270,261955,5,6,0:0:0:0:
421,251,262130,1,6,0:0:0:0:
342,135,264048,5,0,0:0:0:0:
344,293,264223,1,0,0:0:0:0:
212,112,264397,6,0,B|198:66|198:66|214:7,1,97.9999970092774,6|8,0:0|0:0,0:0:0:0:
401,18,264746,1,2,0:0:0:0:
400,206,264920,1,8,0:0:0:0:
289,64,265095,1,2,0:0:0:0:
289,64,265182,1,0,0:0:0:0:
289,64,265269,1,8,0:0:0:0:
292,253,265444,1,2,0:0:0:0:
405,99,265618,1,8,0:0:0:0:
214,206,265793,6,0,B|203:253|203:253|224:329,1,97.9999970092774,2|8,0:0|0:0,0:0:0:0:
386,335,266141,1,2,0:0:0:0:
442,152,266316,1,8,0:0:0:0:
292,253,266490,1,2,0:0:0:0:
292,253,266577,1,0,0:0:0:0:
292,253,266665,1,8,0:0:0:0:
333,68,266839,1,2,0:0:0:0:
398,247,267013,1,8,0:0:0:0:
159,136,267188,5,6,0:0:0:0:
356,135,267362,1,8,0:0:0:0:
195,244,267537,1,2,0:0:0:0:
255,67,267711,1,8,0:0:0:0:
316,247,267886,1,2,0:0:0:0:
159,136,268060,1,8,0:0:0:0:
363,142,268234,1,2,0:0:0:0:
363,142,268322,1,0,0:0:0:0:
363,142,268409,1,8,0:0:0:0:
196,244,268583,5,6,0:0:0:0:
147,251,268670,1,2,0:0:0:0:
98,259,268758,1,2,0:0:0:0:
49,267,268845,1,2,0:0:0:0:
0,275,268932,1,6,0:0:0:0:
37,284,269019,1,2,0:0:0:0:
75,294,269107,1,2,0:0:0:0:
112,304,269194,1,2,0:0:0:0:
149,313,269281,1,8,3:0:0:0:
141,283,269368,1,8,3:0:0:0:
134,254,269455,1,8,3:0:0:0:
127,225,269543,1,8,3:0:0:0:
120,196,269630,6,0,P|116:167|119:133,1,48.9999985046387,8|8,3:0|3:0,0:0:0:0:
215,330,269804,2,0,P|218:358|216:393,1,48.9999985046387,8|8,3:0|3:0,0:0:0:0:
264,162,269979,6,0,B|311:148|311:148|366:162,1,97.9999970092774,6|8,0:0|0:0,0:0:0:0:
429,310,270327,1,2,0:0:0:0:
425,120,270502,1,8,0:0:0:0:
321,264,270676,1,2,0:0:0:0:
321,264,270763,1,0,0:0:0:0:
321,264,270851,1,8,0:0:0:0:
512,258,271025,1,2,0:0:0:0:
348,346,271200,1,8,0:0:0:0:
498,171,271374,6,0,B|510:124|510:124|487:38,1,97.9999970092774,2|8,0:0|0:0,0:0:0:0:
358,0,271723,1,2,0:0:0:0:
228,143,271897,1,8,0:0:0:0:
420,123,272072,1,2,0:0:0:0:
420,123,272159,1,0,0:0:0:0:
420,123,272246,1,8,0:0:0:0:
259,226,272420,1,2,0:0:0:0:
251,38,272595,1,8,0:0:0:0:
358,200,272769,5,2,0:0:0:0:
358,253,272857,1,2,0:0:0:0:
331,299,272944,1,2,0:0:0:0:
284,327,273031,1,2,0:0:0:0:
231,327,273118,1,6,0:0:0:0:
231,327,273467,5,2,0:0:0:0:
183,299,273555,1,2,0:0:0:0:
158,252,273642,1,2,0:0:0:0:
158,198,273729,1,2,0:0:0:0:
186,151,273816,1,6,0:0:0:0:
186,151,274165,5,2,0:0:0:0:
229,121,274253,1,2,0:0:0:0:
283,121,274340,1,2,0:0:0:0:
331,148,274427,1,2,0:0:0:0:
357,195,274514,1,6,0:0:0:0:
357,251,274601,1,2,0:0:0:0:
331,296,274688,1,2,0:0:0:0:
284,324,274775,1,2,0:0:0:0:
231,324,274862,1,8,0:0:0:0:
181,300,274950,1,8,3:0:0:0:
156,253,275037,1,8,3:0:0:0:
158,198,275124,1,8,3:0:0:0:
186,151,275211,6,0,P|206:132|240:118,1,48.9999985046387,8|8,3:0|3:0,0:0:0:0:
331,296,275386,2,0,P|311:315|277:329,1,48.9999985046387,2|2,0:0|0:0,0:0:0:0:
57,277,275560,6,0,B|44:232|44:232|65:148,1,97.9999970092774,6|8,0:0|0:0,0:0:0:0:
247,234,275909,1,2,0:0:0:0:
110,337,276083,1,8,0:0:0:0:
115,120,276258,1,2,0:0:0:0:
115,120,276345,1,0,0:0:0:0:
115,120,276432,1,8,0:0:0:0:
302,157,276607,1,2,0:0:0:0:
128,232,276781,1,8,0:0:0:0:
303,313,276955,6,0,B|351:323|351:323|420:302,1,97.9999970092774,2|8,0:0|0:0,0:0:0:0:
489,179,277304,1,2,0:0:0:0:
364,68,277479,1,8,0:0:0:0:
348,234,277653,1,2,0:0:0:0:
348,234,277740,1,0,0:0:0:0:
348,234,277827,1,8,0:0:0:0:
507,277,278002,1,2,0:0:0:0:
460,116,278176,1,8,0:0:0:0:
248,71,278351,5,6,0:0:0:0:
226,258,278525,1,8,0:0:0:0:
357,119,278700,1,2,0:0:0:0:
171,160,278874,1,8,0:0:0:0:
348,234,279049,1,2,0:0:0:0:
248,71,279223,1,8,0:0:0:0:
235,267,279397,1,2,0:0:0:0:
235,267,279485,1,0,0:0:0:0:
235,267,279572,1,8,0:0:0:0:
137,99,279746,5,6,0:0:0:0:
124,149,279833,1,2,0:0:0:0:
110,199,279920,1,2,0:0:0:0:
98,250,280008,1,2,0:0:0:0:
86,300,280095,1,10,0:0:0:0:
79,261,280182,1,2,0:0:0:0:
72,222,280269,1,2,0:0:0:0:
65,182,280357,1,2,0:0:0:0:
59,143,280444,1,8,3:0:0:0:
53,171,280531,1,8,3:0:0:0:
48,199,280618,1,8,3:0:0:0:
43,227,280705,1,8,3:0:0:0:
38,256,280793,6,0,L|28:324,1,48.9999985046387,8|8,3:0|3:0,0:0:0:0:
216,352,280967,2,0,L|227:282,1,48.9999985046387,8|8,3:0|3:0,0:0:0:0:
137,146,281141,6,0,B|123:97|123:97|133:50,1,97.9999970092774,6|8,0:0|0:0,0:0:0:0:
234,34,281490,1,2,0:0:0:0:
175,214,281665,1,8,0:0:0:0:
40,80,281839,1,2,0:0:0:0:
40,80,281926,1,0,0:0:0:0:
40,80,282013,1,8,0:0:0:0:
101,255,282188,1,2,0:0:0:0:
211,100,282362,1,8,0:0:0:0:
269,278,282537,6,0,B|318:284|318:284|366:273,1,97.9999970092774,6|8,0:0|0:0,0:0:0:0:
194,196,282886,1,2,0:0:0:0:
259,375,283060,1,8,0:0:0:0:
313,199,283234,1,2,0:0:0:0:
313,199,283322,1,0,0:0:0:0:
313,199,283409,1,8,0:0:0:0:
164,323,283583,2,0,L|56:329,1,97.9999970092774,6|8,0:0|0:0,0:0:0:0:
248,134,283932,5,6,0:0:0:0:
290,110,284019,1,2,0:0:0:0:
339,109,284107,1,10,0:0:0:0:
379,135,284194,1,10,0:0:0:0:
402,177,284281,1,10,0:0:0:0:
399,226,284368,1,10,0:0:0:0:
374,268,284455,1,10,0:0:0:0:
198,227,284630,1,10,0:0:0:0:
160,188,284717,1,10,0:0:0:0:
144,136,284804,1,10,0:0:0:0:
156,83,284891,1,10,0:0:0:0:
194,44,284979,1,10,0:0:0:0:
245,29,285066,1,10,0:0:0:0:
297,39,285153,1,6,0:0:0:0:
37,274,285502,5,2,0:0:0:0:
37,274,285589,1,2,0:0:0:0:
37,274,285676,1,6,0:0:0:0:
28,83,285851,1,0,0:0:0:0:
122,229,286025,5,8,0:0:0:0:
159,224,286112,1,0,0:0:0:0:
198,220,286200,1,8,3:0:0:0:
236,216,286287,1,8,3:0:0:0:
274,213,286374,1,8,3:0:0:0:
312,209,286461,1,2,0:0:0:0:
350,205,286548,1,2,0:0:0:0:
389,202,286636,1,2,0:0:0:0:
427,198,286723,5,6,0:0:0:0:
401,161,286810,1,2,0:0:0:0:
362,139,286897,1,2,0:0:0:0:
318,137,286984,1,2,0:0:0:0:
276,153,287072,1,10,0:0:0:0:
245,185,287159,1,2,0:0:0:0:
230,226,287246,1,2,0:0:0:0:
233,269,287333,1,2,0:0:0:0:
251,309,287420,5,6,0:0:0:0:
286,336,287508,1,2,0:0:0:0:
328,347,287595,1,2,0:0:0:0:
371,341,287682,1,2,0:0:0:0:
407,316,287769,1,10,0:0:0:0:
363,283,287857,1,2,0:0:0:0:
310,272,287944,1,2,0:0:0:0:
257,284,288031,1,2,0:0:0:0:
220,323,288118,1,6,0:0:0:0:
104,48,288816,5,6,0:0:0:0:
255,244,289078,5,6,0:0:0:0:
16,276,289340,5,6,0:0:0:0:
180,145,289514,5,14,0:0:0:0:
211,130,289601,1,2,0:0:0:0:
244,122,289688,1,2,0:0:0:0:
278,124,289775,1,2,0:0:0:0:
311,134,289863,1,6,0:0:0:0:
339,153,289950,1,2,0:0:0:0:
361,178,290037,5,10,0:0:0:0:
403,153,290124,1,2,0:0:0:0:
426,110,290211,1,6,0:0:0:0:
423,60,290299,1,2,0:0:0:0:
397,18,290386,5,10,0:0:0:0:
387,19,290473,1,2,0:0:0:0:
377,20,290560,1,6,0:0:0:0:
367,22,290647,1,2,0:0:0:0:
357,25,290735,1,10,0:0:0:0:
347,28,290822,1,2,0:0:0:0:
338,32,290909,5,14,0:0:0:0:
348,64,290996,1,2,0:0:0:0:
355,97,291083,1,2,0:0:0:0:
351,131,291171,1,2,0:0:0:0:
339,163,291258,1,6,0:0:0:0:
331,196,291345,1,2,0:0:0:0:
335,229,291432,5,10,0:0:0:0:
347,276,291520,1,2,0:0:0:0:
328,321,291607,1,6,0:0:0:0:
283,341,291694,1,2,0:0:0:0:
234,338,291781,5,10,0:0:0:0:
224,335,291868,1,2,0:0:0:0:
214,332,291956,1,6,0:0:0:0:
204,331,292043,1,2,0:0:0:0:
194,331,292130,1,10,0:0:0:0:
184,333,292217,1,2,0:0:0:0:
174,335,292304,5,14,0:0:0:0:
159,303,292392,1,2,0:0:0:0:
153,269,292479,1,2,0:0:0:0:
155,234,292566,1,2,0:0:0:0:
169,202,292653,1,6,0:0:0:0:
195,180,292740,1,2,0:0:0:0:
228,169,292828,5,10,0:0:0:0:
255,122,292915,1,2,0:0:0:0:
244,69,293002,1,6,0:0:0:0:
201,35,293089,1,2,0:0:0:0:
147,42,293177,5,10,0:0:0:0:
145,56,293264,1,2,0:0:0:0:
143,70,293351,1,6,0:0:0:0:
142,84,293438,1,2,0:0:0:0:
142,98,293525,1,10,0:0:0:0:
143,112,293613,1,2,0:0:0:0:
144,126,293700,6,0,P|149:160|151:189,1,48.9999985046387,12|2,0:0|0:0,0:0:0:0:
117,301,293874,2,0,P|93:318|53:340,1,48.9999985046387,2|2,0:0|0:0,0:0:0:0:
13,184,294049,2,0,P|42:180|88:182,1,48.9999985046387,10|2,0:0|0:0,0:0:0:0:
196,266,294223,2,0,P|202:297|199:337,1,48.9999985046387,2|2,0:0|0:0,0:0:0:0:
150,174,294397,2,8,P|148:139|158:109,1,48.9999985046387,8|2,0:0|0:0,0:0:0:0:
332,237,294572,2,0,P|353:261|360:294,1,48.9999985046387,2|2,0:0|0:0,0:0:0:0:
250,149,294746,2,0,P|243:125|246:101,1,48.9999985046387,10|2,0:0|0:0,0:0:0:0:
287,330,294921,2,0,P|280:352|266:372,1,48.9999985046387,10|2,0:0|0:0,0:0:0:0:
326,118,295095,5,14,0:0:0:0:
352,95,295182,1,2,0:0:0:0:
363,62,295270,1,2,0:0:0:0:
353,29,295357,1,2,0:0:0:0:
325,8,295444,1,6,0:0:0:0:
290,5,295531,1,2,0:0:0:0:
260,22,295618,5,10,0:0:0:0:
240,67,295706,1,2,0:0:0:0:
243,115,295793,1,6,0:0:0:0:
261,160,295880,1,2,0:0:0:0:
264,208,295967,5,10,0:0:0:0:
262,217,296054,1,2,0:0:0:0:
258,226,296142,1,6,0:0:0:0:
253,234,296229,1,2,0:0:0:0:
247,242,296316,1,10,0:0:0:0:
240,249,296403,1,2,0:0:0:0:
232,255,296490,5,14,0:0:0:0:
199,266,296578,1,2,0:0:0:0:
164,263,296665,1,2,0:0:0:0:
134,245,296752,1,2,0:0:0:0:
113,217,296839,1,6,0:0:0:0:
110,182,296927,1,2,0:0:0:0:
124,151,297014,5,10,0:0:0:0:
144,106,297101,1,2,0:0:0:0:
142,57,297188,1,6,0:0:0:0:
110,19,297275,1,2,0:0:0:0:
61,10,297363,5,10,0:0:0:0:
56,18,297450,1,2,0:0:0:0:
53,27,297537,1,6,0:0:0:0:
51,36,297624,1,2,0:0:0:0:
51,45,297711,1,10,0:0:0:0:
52,54,297799,1,2,0:0:0:0:
53,63,297886,5,14,0:0:0:0:
87,64,297973,1,2,0:0:0:0:
121,65,298060,1,2,0:0:0:0:
155,67,298147,1,2,0:0:0:0:
189,69,298235,1,6,0:0:0:0:
223,71,298322,1,2,0:0:0:0:
257,73,298409,5,10,0:0:0:0:
309,60,298496,1,2,0:0:0:0:
360,75,298583,1,6,0:0:0:0:
392,118,298671,1,2,0:0:0:0:
391,171,298758,5,10,0:0:0:0:
389,185,298845,1,2,0:0:0:0:
387,199,298932,1,6,0:0:0:0:
386,213,299020,1,2,0:0:0:0:
386,227,299107,1,10,0:0:0:0:
386,241,299194,1,2,0:0:0:0:
388,255,299281,6,0,P|392:283|401:312,1,48.9999985046387,6|2,0:0|0:0,0:0:0:0:
458,124,299456,2,0,P|456:96|445:67,1,48.9999985046387,2|2,0:0|0:0,0:0:0:0:
255,222,299630,2,0,P|276:234|298:243,1,48.9999985046387,10|2,0:0|0:0,0:0:0:0:
261,69,299804,2,0,P|236:68|212:72,1,48.9999985046387,2|2,0:0|0:0,0:0:0:0:
118,252,299979,2,0,P|135:234|149:215,1,48.9999985046387,10|2,0:0|0:0,0:0:0:0:
5,146,300153,2,0,P|4:170|8:194,1,48.9999985046387,10|2,0:0|0:0,0:0:0:0:
153,334,300328,5,8,0:0:0:0:
204,361,300415,1,8,3:0:0:0:
262,358,300502,1,8,3:0:0:0:
318,341,300589,1,8,3:0:0:0:
356,296,300677,5,14,0:0:0:0:
363,257,300764,1,2,0:0:0:0:
355,218,300851,1,2,0:0:0:0:
339,182,300938,1,2,0:0:0:0:
335,143,301025,1,6,0:0:0:0:
347,105,301113,1,2,0:0:0:0:
354,66,301200,5,10,0:0:0:0:
318,25,301287,1,2,0:0:0:0:
266,39,301374,1,6,0:0:0:0:
259,92,301461,1,2,0:0:0:0:
303,123,301549,5,10,0:0:0:0:
312,123,301636,1,2,0:0:0:0:
321,123,301723,1,6,0:0:0:0:
330,123,301810,1,2,0:0:0:0:
339,123,301897,1,10,0:0:0:0:
348,123,301985,1,2,0:0:0:0:
357,123,302072,5,14,0:0:0:0:
376,162,302159,1,2,0:0:0:0:
383,205,302246,1,2,0:0:0:0:
374,248,302333,1,2,0:0:0:0:
359,290,302421,1,6,0:0:0:0:
333,325,302508,1,2,0:0:0:0:
297,350,302595,5,10,0:0:0:0:
251,318,302682,1,2,0:0:0:0:
195,308,302770,1,6,0:0:0:0:
143,329,302857,1,2,0:0:0:0:
108,373,302944,5,10,0:0:0:0:
98,371,303031,1,2,0:0:0:0:
88,368,303118,1,6,0:0:0:0:
78,364,303206,1,2,0:0:0:0:
69,359,303293,1,10,0:0:0:0:
61,352,303380,1,2,0:0:0:0:
55,344,303467,5,14,0:0:0:0:
45,301,303554,1,2,0:0:0:0:
48,256,303642,1,2,0:0:0:0:
71,218,303729,1,2,0:0:0:0:
81,175,303816,1,6,0:0:0:0:
79,131,303903,1,2,0:0:0:0:
56,93,303990,5,10,0:0:0:0:
82,40,304078,1,2,0:0:0:0:
133,11,304165,1,6,0:0:0:0:
191,14,304252,1,2,0:0:0:0:
242,42,304339,5,10,0:0:0:0:
255,48,304427,1,2,0:0:0:0:
269,52,304514,1,6,0:0:0:0:
283,54,304601,1,2,0:0:0:0:
297,55,304688,1,10,0:0:0:0:
311,54,304775,1,2,0:0:0:0:
326,51,304863,6,0,P|352:44|383:46,1,48.9999985046387,12|2,0:0|0:0,0:0:0:0:
490,100,305037,2,0,P|493:136|485:172,1,48.9999985046387,2|2,0:0|0:0,0:0:0:0:
387,215,305211,2,8,P|350:211|317:196,1,48.9999985046387,10|2,0:0|0:0,0:0:0:0:
260,91,305386,2,0,P|250:54|253:18,1,48.9999985046387,2|2,0:0|0:0,0:0:0:0:
304,280,305560,2,0,P|287:312|262:338,1,48.9999985046387,10|2,0:0|0:0,0:0:0:0:
128,264,305735,2,0,P|131:226|146:194,1,48.9999985046387,2|2,0:0|0:0,0:0:0:0:
339,208,305909,2,0,P|367:232|385:263,1,48.9999985046387,10|2,0:0|0:0,0:0:0:0:
260,91,306083,2,0,P|250:62|254:16,1,48.9999985046387,10|2,0:0|0:0,0:0:0:0:
450,152,306258,5,14,0:0:0:0:
468,197,306345,1,2,0:0:0:0:
470,245,306432,1,2,0:0:0:0:
455,290,306519,1,2,0:0:0:0:
422,326,306606,1,6,0:0:0:0:
374,339,306694,1,2,0:0:0:0:
325,334,306781,5,10,0:0:0:0:
279,297,306868,1,2,0:0:0:0:
220,288,306955,1,6,0:0:0:0:
166,312,307042,1,2,0:0:0:0:
137,364,307130,5,10,0:0:0:0:
138,339,307217,1,2,0:0:0:0:
129,316,307304,1,6,0:0:0:0:
112,298,307391,1,2,0:0:0:0:
90,287,307478,1,10,0:0:0:0:
75,267,307566,1,2,0:0:0:0:
75,242,307653,5,14,0:0:0:0:
106,204,307740,1,8,3:0:0:0:
153,191,307828,1,8,3:0:0:0:
201,198,307915,1,8,3:0:0:0:
244,219,308002,1,8,3:0:0:0:
292,222,308089,1,8,3:0:0:0:
339,209,308177,5,2,0:0:0:0:
312,151,308264,1,2,0:0:0:0:
254,124,308351,1,2,0:0:0:0:
192,139,308438,1,2,0:0:0:0:
153,191,308525,1,2,0:0:0:0:
156,255,308613,1,2,0:0:0:0:
197,302,308700,5,10,0:0:0:0:
227,240,308787,1,10,0:0:0:0:
231,171,308874,1,10,0:0:0:0:
211,105,308961,1,10,0:0:0:0:
166,52,309049,1,14,0:0:0:0:
166,52,309572,5,2,0:0:0:0:
294,303,309746,1,14,0:0:0:0:
294,303,310270,5,2,0:0:0:0:
326,111,310444,1,14,0:0:0:0:
141,171,310618,1,2,0:0:0:0:
388,168,310793,5,14,0:0:0:0:
149,77,310967,1,2,0:0:0:0:
189,331,311142,1,14,0:0:0:0:
