osu file format v14

[General]
AudioFilename: audio.mp3
AudioLeadIn: 0
PreviewTime: 61535
Countdown: 0
SampleSet: Normal
StackLeniency: 0.7
Mode: 1
LetterboxInBreaks: 0
WidescreenStoryboard: 1

[Editor]
Bookmarks: 6244,22988
DistanceSpacing: 1.1
BeatDivisor: 2
GridSize: 32
TimelineZoom: 2.1

[Metadata]
Title:Junpaku*study time
TitleUnicode:純白☆study time
Artist:Casandra
ArtistUnicode:カサンドラ
Creator:[-E S I A-]
Version:Kantan
Source:Lowすぺっく!?~オレと年下妹とせいきょーいく!~
Tags:[R] Ron Faputa japanese videogame video game metal j-metal jmetal eroge visual novel vn 下地和彦 新井健史 Low Spec!? ~Ore to Toshishita Imouto to Seikyouiku!~ SLG Semi Little Girl もっとずっとすたでぃ! E_S_I_A [-E_S_I_A-] ESIA [-ESIA-]
BeatmapID:3919309
BeatmapSetID:1900683

[Difficulty]
HPDrainRate:8
CircleSize:2
OverallDifficulty:3
ApproachRate:10
SliderMultiplier:1.4
SliderTickRate:1

[Events]
//Background and Video events
0,0,"peodbg.jpg",0,-40
//Break Periods
//Storyboard Layer 0 (Background)
//Storyboard Layer 1 (Fail)
//Storyboard Layer 2 (Pass)
//Storyboard Layer 3 (Foreground)
//Storyboard Layer 4 (Overlay)
//Storyboard Sound Samples

[TimingPoints]
663,348.837209302326,4,1,0,80,1,0
6244,-100,4,1,0,85,0,0
11782,-100,4,1,0,90,0,0
16142,-100,4,1,0,80,0,0
17319,-100,4,1,0,90,0,0
22901,-100,4,1,0,80,0,0
45226,-100,4,1,0,70,0,0
62058,-100,4,1,0,80,0,1
84383,-100,4,1,0,80,0,0
87164,348.837209302326,4,1,0,90,1,0
87164,-100,4,1,0,90,0,0
91491,-100,4,1,0,80,0,0
92668,-100,4,1,0,90,0,0
97072,-100,4,1,0,80,0,0
98293,-100,4,1,0,90,0,0
102654,-100,4,1,0,80,0,0
103831,-100,4,1,0,90,0,0

[HitObjects]
341,205,663,5,12,0:0:0:0:
341,205,2058,1,12,0:0:0:0:
311,219,3453,1,12,0:0:0:0:
311,219,4849,1,12,0:0:0:0:
204,251,6244,1,8,0:0:0:0:
204,251,6942,1,0,0:0:0:0:
204,251,7639,1,8,0:0:0:0:
449,92,8337,1,0,0:0:0:0:
204,251,9035,1,8,0:0:0:0:
204,251,9732,1,0,0:0:0:0:
204,251,10430,1,12,0:0:0:0:
307,204,11825,1,4,0:0:0:0:
380,180,12349,1,0,0:0:0:0:
242,249,12697,1,0,0:0:0:0:
259,150,13221,1,8,0:0:0:0:
170,257,13744,1,8,0:0:0:0:
251,228,14093,1,8,0:0:0:0:
174,188,14616,1,0,0:0:0:0:
395,123,15139,1,8,0:0:0:0:
247,166,15488,1,0,0:0:0:0:
314,206,16011,1,8,0:0:0:0:
194,209,17407,1,4,0:0:0:0:
390,88,17930,1,8,0:0:0:0:
258,169,18279,1,8,0:0:0:0:
258,169,18802,1,0,0:0:0:0:
31,183,19325,1,0,0:0:0:0:
184,188,19674,1,0,0:0:0:0:
343,231,20197,1,12,0:0:0:0:
48,301,20895,1,12,0:0:0:0:
343,231,21593,1,12,0:0:0:0:
269,188,21942,1,12,0:0:0:0:
322,132,22290,1,4,0:0:0:0:
334,230,22988,1,0,0:0:0:0:
262,198,24035,1,0,0:0:0:0:
393,157,24383,1,8,0:0:0:0:
349,237,25081,1,0,0:0:0:0:
249,275,25430,1,0,0:0:0:0:
287,138,25779,1,8,0:0:0:0:
384,191,26476,1,0,0:0:0:0:
367,177,27174,1,8,0:0:0:0:
236,239,27523,1,8,0:0:0:0:
112,302,27872,1,0,0:0:0:0:
215,291,28221,1,8,0:0:0:0:
303,192,28569,1,0,0:0:0:0:
344,197,29616,1,8,0:0:0:0:
344,197,29965,1,0,0:0:0:0:
344,197,30663,1,0,0:0:0:0:
344,197,31011,1,8,0:0:0:0:
287,138,31360,1,8,0:0:0:0:
384,191,32058,1,0,0:0:0:0:
336,199,32756,1,8,0:0:0:0:
183,214,33104,1,0,0:0:0:0:
327,159,33453,1,8,0:0:0:0:
228,203,33802,1,8,0:0:0:0:
329,171,34151,1,0,0:0:0:0:
289,228,35197,1,8,0:0:0:0:
449,187,35546,1,0,0:0:0:0:
335,172,36244,1,0,0:0:0:0:
299,191,36593,1,0,0:0:0:0:
287,138,36942,1,8,0:0:0:0:
221,215,37639,1,0,0:0:0:0:
261,195,38337,1,8,0:0:0:0:
261,195,38686,1,8,0:0:0:0:
261,195,39035,1,0,0:0:0:0:
157,220,39383,1,8,0:0:0:0:
349,177,39732,1,0,0:0:0:0:
222,182,40779,1,8,0:0:0:0:
412,186,41128,1,0,0:0:0:0:
188,91,41825,1,8,0:0:0:0:
306,189,42174,1,0,0:0:0:0:
413,244,42523,1,12,0:0:0:0:
397,177,43221,1,12,0:0:0:0:
339,183,43918,1,12,0:0:0:0:
489,214,44267,1,12,0:0:0:0:
264,168,44616,1,4,0:0:0:0:
270,227,45314,1,4,0:0:0:0:
290,138,46360,1,0,0:0:0:0:
136,191,46709,1,8,0:0:0:0:
140,213,47232,1,8,0:0:0:0:
322,314,48104,1,0,0:0:0:0:
142,174,48453,1,0,0:0:0:0:
296,161,48802,1,8,0:0:0:0:
278,195,49500,1,0,0:0:0:0:
278,195,49849,1,8,0:0:0:0:
264,194,50546,1,8,0:0:0:0:
336,151,50895,1,4,0:0:0:0:
474,289,51942,1,8,0:0:0:0:
224,128,52290,1,0,0:0:0:0:
180,191,52814,1,8,0:0:0:0:
276,315,53686,1,0,0:0:0:0:
470,311,54035,1,8,0:0:0:0:
215,174,54383,1,0,0:0:0:0:
357,205,54907,1,8,0:0:0:0:
333,181,55430,1,8,0:0:0:0:
140,125,55779,1,0,0:0:0:0:
333,181,56128,1,8,0:0:0:0:
311,212,56476,5,4,0:0:0:0:
377,173,58918,1,0,0:0:0:0:
236,192,59267,1,12,0:0:0:0:
272,181,59965,1,8,0:0:0:0:
241,302,60314,1,8,0:0:0:0:
272,181,60663,1,4,0:0:0:0:
199,205,61011,1,12,0:0:0:0:
507,213,62058,1,4,0:0:0:0:
392,200,62581,1,8,0:0:0:0:
252,211,63104,1,0,0:0:0:0:
286,194,63453,1,0,0:0:0:0:
196,173,63976,1,8,0:0:0:0:
348,148,64500,1,8,0:0:0:0:
338,185,64849,1,0,0:0:0:0:
338,185,65197,1,0,0:0:0:0:
338,185,65546,1,8,0:0:0:0:
218,199,66244,1,0,0:0:0:0:
215,226,66593,1,8,0:0:0:0:
255,179,67639,1,4,0:0:0:0:
313,235,68163,1,8,0:0:0:0:
331,183,68686,1,8,0:0:0:0:
387,214,69035,1,0,0:0:0:0:
276,256,69558,1,8,0:0:0:0:
342,185,70081,1,0,0:0:0:0:
254,203,70430,1,0,0:0:0:0:
328,186,70779,1,12,0:0:0:0:
328,186,71476,1,12,0:0:0:0:
328,186,72174,1,8,0:0:0:0:
444,250,72523,1,0,0:0:0:0:
404,174,73221,1,12,0:0:0:0:
404,174,73744,1,0,0:0:0:0:
325,181,74267,1,8,0:0:0:0:
325,181,74616,1,8,0:0:0:0:
321,195,75139,1,0,0:0:0:0:
251,156,75663,1,0,0:0:0:0:
201,198,76011,1,8,0:0:0:0:
397,156,76360,1,8,0:0:0:0:
290,168,76709,1,0,0:0:0:0:
212,153,77232,1,0,0:0:0:0:
249,167,77581,1,8,0:0:0:0:
286,173,78802,1,12,0:0:0:0:
346,126,79325,1,0,0:0:0:0:
383,149,79849,1,8,0:0:0:0:
312,179,80197,1,8,0:0:0:0:
312,179,80721,1,0,0:0:0:0:
355,176,81244,1,0,0:0:0:0:
355,176,81593,1,8,0:0:0:0:
309,185,81942,1,8,0:0:0:0:
192,186,82290,1,0,0:0:0:0:
355,173,82814,1,8,0:0:0:0:
308,184,83337,1,8,0:0:0:0:
308,184,83686,1,0,0:0:0:0:
308,184,84383,1,4,0:0:0:0:
1,155,85081,1,8,0:0:0:0:
294,173,85430,1,0,0:0:0:0:
294,173,85779,1,12,0:0:0:0:
307,204,87164,1,4,0:0:0:0:
307,204,87687,1,8,0:0:0:0:
307,204,88035,1,8,0:0:0:0:
259,150,88559,1,0,0:0:0:0:
128,321,89082,1,0,0:0:0:0:
251,228,89431,1,0,0:0:0:0:
174,188,89954,1,8,0:0:0:0:
395,123,90477,1,8,0:0:0:0:
247,166,90826,1,0,0:0:0:0:
314,206,91349,1,8,0:0:0:0:
194,209,92745,1,4,0:0:0:0:
390,88,93268,1,8,0:0:0:0:
258,169,93617,1,8,0:0:0:0:
258,169,94140,1,0,0:0:0:0:
31,183,94663,1,0,0:0:0:0:
184,188,95012,1,0,0:0:0:0:
260,180,95535,1,8,0:0:0:0:
47,90,96058,1,8,0:0:0:0:
260,180,96407,1,0,0:0:0:0:
197,179,96931,1,8,0:0:0:0:
273,182,98326,1,4,0:0:0:0:
197,198,98849,1,8,0:0:0:0:
273,182,99198,1,0,0:0:0:0:
197,198,99721,1,0,0:0:0:0:
162,180,100245,1,8,0:0:0:0:
197,198,100593,1,8,0:0:0:0:
236,197,101117,1,0,0:0:0:0:
445,99,101640,1,0,0:0:0:0:
349,203,101989,1,8,0:0:0:0:
121,161,102512,1,0,0:0:0:0:
347,200,103907,1,4,0:0:0:0:
123,257,104431,1,8,0:0:0:0:
258,192,104779,1,0,0:0:0:0:
188,229,105303,1,0,0:0:0:0:
278,193,105826,1,8,0:0:0:0:
278,193,106175,5,8,0:0:0:0:
306,219,106698,5,12,0:0:0:0:
218,80,107396,1,12,0:0:0:0:
322,369,108093,1,12,0:0:0:0:
269,224,108442,1,12,0:0:0:0:
369,107,108791,1,4,0:0:0:0:
