osu file format v14

[General]
AudioFilename: audio.mp3
AudioLeadIn: 0
PreviewTime: 61535
Countdown: 0
SampleSet: Normal
StackLeniency: 0.7
Mode: 1
LetterboxInBreaks: 0
WidescreenStoryboard: 1

[Editor]
Bookmarks: 6244,22988
DistanceSpacing: 1.1
BeatDivisor: 4
GridSize: 16
TimelineZoom: 2.1

[Metadata]
Title:Junpaku*study time
TitleUnicode:純白☆study time
Artist:Casandra
ArtistUnicode:カサンドラ
Creator:[-E S I A-]
Version:Futsuu
Source:Lowすぺっく!?~オレと年下妹とせいきょーいく!~
Tags:[R] Ron Faputa japanese videogame video game metal j-metal jmetal eroge visual novel vn 下地和彦 新井健史 Low Spec!? ~Ore to Toshishita Imouto to Seikyouiku!~ SLG Semi Little Girl もっとずっとすたでぃ! E_S_I_A [-E_S_I_A-] ESIA [-ESIA-]
BeatmapID:3919235
BeatmapSetID:1900683

[Difficulty]
HPDrainRate:7
CircleSize:2
OverallDifficulty:4
ApproachRate:10
SliderMultiplier:1.4
SliderTickRate:1

[Events]
//Background and Video events
0,0,"peodbg.jpg",0,-40
//Break Periods
//Storyboard Layer 0 (Background)
//Storyboard Layer 1 (Fail)
//Storyboard Layer 2 (Pass)
//Storyboard Layer 3 (Foreground)
//Storyboard Layer 4 (Overlay)
//Storyboard Sound Samples

[TimingPoints]
663,348.837209302326,4,1,0,80,1,0
6244,-100,4,1,0,85,0,0
11782,-100,4,1,0,90,0,0
16142,-100,4,1,0,80,0,0
17319,-100,4,1,0,90,0,0
22901,-100,4,1,0,80,0,0
45226,-100,4,1,0,70,0,0
62058,-100,4,1,0,80,0,1
84383,-100,4,1,0,80,0,0
87164,348.837209302326,4,1,0,90,1,0
87164,-100,4,1,0,90,0,0
91491,-100,4,1,0,80,0,0
92668,-100,4,1,0,90,0,0
97072,-100,4,1,0,80,0,0
98293,-100,4,1,0,90,0,0
102654,-100,4,1,0,80,0,0
103831,-100,4,1,0,90,0,0

[HitObjects]
341,205,663,5,12,0:0:0:0:
341,205,2058,1,12,0:0:0:0:
311,219,3453,1,12,0:0:0:0:
311,219,4849,1,12,0:0:0:0:
204,251,6244,1,8,0:0:0:0:
204,251,6942,1,0,0:0:0:0:
204,251,7290,1,0,0:0:0:0:
204,251,7639,1,8,0:0:0:0:
204,251,8337,1,0,0:0:0:0:
341,224,8686,1,0,0:0:0:0:
491,141,9035,1,8,0:0:0:0:
204,251,9732,1,0,0:0:0:0:
204,251,10081,1,0,0:0:0:0:
204,251,10430,1,12,0:0:0:0:
237,231,11128,1,0,0:0:0:0:
307,204,11476,1,8,0:0:0:0:
204,251,11651,1,8,0:0:0:0:
307,204,11825,1,4,0:0:0:0:
175,205,12174,1,0,0:0:0:0:
307,204,12349,1,8,0:0:0:0:
307,204,12697,1,8,0:0:0:0:
380,180,12872,1,0,0:0:0:0:
186,127,13046,1,8,0:0:0:0:
259,150,13221,1,0,0:0:0:0:
249,267,13569,1,0,0:0:0:0:
128,321,13744,1,8,0:0:0:0:
170,257,14093,1,8,0:0:0:0:
251,228,14267,1,0,0:0:0:0:
99,201,14442,1,0,0:0:0:0:
174,188,14616,1,8,0:0:0:0:
192,211,14965,1,0,0:0:0:0:
395,123,15139,1,8,0:0:0:0:
247,166,15488,1,0,0:0:0:0:
247,166,15663,1,0,0:0:0:0:
396,127,15837,1,8,0:0:0:0:
314,206,16011,1,0,0:0:0:0:
244,206,16360,1,0,0:0:0:0:
307,162,16709,1,8,0:0:0:0:
194,209,17407,1,4,0:0:0:0:
283,244,17756,1,0,0:0:0:0:
390,88,17930,1,8,0:0:0:0:
258,169,18279,1,8,0:0:0:0:
258,169,18453,1,0,0:0:0:0:
128,251,18628,1,8,0:0:0:0:
258,169,18802,1,0,0:0:0:0:
288,239,19151,1,0,0:0:0:0:
258,169,19325,1,8,0:0:0:0:
184,188,19674,1,8,0:0:0:0:
31,183,19849,1,0,0:0:0:0:
184,188,20023,1,0,0:0:0:0:
343,231,20197,1,12,0:0:0:0:
369,209,20721,1,0,0:0:0:0:
369,132,20895,1,12,0:0:0:0:
305,225,21418,1,0,0:0:0:0:
343,231,21593,1,12,0:0:0:0:
269,188,21942,1,12,0:0:0:0:
322,132,22290,1,4,0:0:0:0:
334,230,22988,1,0,0:0:0:0:
182,202,23337,1,0,0:0:0:0:
310,201,23686,1,8,0:0:0:0:
282,232,24035,1,0,0:0:0:0:
209,257,24209,1,0,0:0:0:0:
262,198,24383,1,8,0:0:0:0:
371,166,24732,1,0,0:0:0:0:
333,171,25081,1,8,0:0:0:0:
333,171,25256,1,8,0:0:0:0:
371,169,25430,1,0,0:0:0:0:
311,212,25604,1,0,0:0:0:0:
287,138,25779,1,8,0:0:0:0:
384,191,26476,1,0,0:0:0:0:
384,191,26825,1,8,0:0:0:0:
367,177,27174,1,0,0:0:0:0:
310,230,27349,1,0,0:0:0:0:
384,191,27523,1,0,0:0:0:0:
247,245,27872,1,8,0:0:0:0:
303,192,28569,1,0,0:0:0:0:
443,127,28918,1,8,0:0:0:0:
344,197,29267,1,0,0:0:0:0:
362,264,29442,1,0,0:0:0:0:
338,176,29616,1,8,0:0:0:0:
344,197,29965,1,8,0:0:0:0:
344,197,30314,1,0,0:0:0:0:
260,216,30663,1,8,0:0:0:0:
298,211,30837,1,0,0:0:0:0:
260,216,31011,1,8,0:0:0:0:
287,138,31360,1,8,0:0:0:0:
311,212,32058,1,8,0:0:0:0:
367,177,32407,1,0,0:0:0:0:
336,199,32756,1,8,0:0:0:0:
367,177,32930,1,8,0:0:0:0:
261,195,33104,1,8,0:0:0:0:
259,207,33453,1,0,0:0:0:0:
329,171,34151,1,0,0:0:0:0:
198,89,34500,1,0,0:0:0:0:
289,228,34849,1,8,0:0:0:0:
299,191,35197,1,8,0:0:0:0:
449,187,35546,1,0,0:0:0:0:
373,204,35721,1,0,0:0:0:0:
373,204,35895,1,8,0:0:0:0:
299,191,36244,1,0,0:0:0:0:
259,189,36418,1,8,0:0:0:0:
335,172,36593,1,0,0:0:0:0:
297,187,36767,1,0,0:0:0:0:
287,138,36942,1,8,0:0:0:0:
297,187,37639,1,0,0:0:0:0:
221,215,37988,1,8,0:0:0:0:
261,195,38337,1,0,0:0:0:0:
261,195,38511,1,0,0:0:0:0:
261,195,38686,1,8,0:0:0:0:
296,232,39035,1,0,0:0:0:0:
349,177,39732,1,0,0:0:0:0:
349,177,40081,1,8,0:0:0:0:
412,186,40430,1,0,0:0:0:0:
374,199,40779,1,8,0:0:0:0:
259,191,40953,1,0,0:0:0:0:
222,182,41128,1,8,0:0:0:0:
297,201,41476,1,0,0:0:0:0:
188,91,41825,1,8,0:0:0:0:
172,178,42000,1,8,0:0:0:0:
242,145,42174,1,0,0:0:0:0:
174,283,42349,1,0,0:0:0:0:
413,244,42523,1,12,0:0:0:0:
264,168,43046,5,0,0:0:0:0:
264,168,43221,1,12,0:0:0:0:
264,168,43744,1,0,0:0:0:0:
339,183,43918,1,12,0:0:0:0:
489,214,44267,1,12,0:0:0:0:
264,168,44616,1,4,0:0:0:0:
270,227,45314,1,4,0:0:0:0:
378,118,45663,1,8,0:0:0:0:
279,198,46011,1,0,0:0:0:0:
290,138,46186,1,0,0:0:0:0:
270,227,46360,1,8,0:0:0:0:
285,164,46709,1,0,0:0:0:0:
136,191,47058,1,8,0:0:0:0:
362,166,47756,1,8,0:0:0:0:
322,314,48104,1,0,0:0:0:0:
260,229,48279,1,0,0:0:0:0:
296,161,48453,1,8,0:0:0:0:
142,174,48802,1,0,0:0:0:0:
278,195,48976,1,0,0:0:0:0:
278,195,49151,1,8,0:0:0:0:
352,176,49325,1,8,0:0:0:0:
278,195,49500,1,0,0:0:0:0:
278,195,49849,1,8,0:0:0:0:
159,159,50546,1,12,0:0:0:0:
336,151,50895,1,4,0:0:0:0:
202,227,51244,1,8,0:0:0:0:
264,194,51418,1,0,0:0:0:0:
202,227,51767,1,0,0:0:0:0:
264,194,51942,1,8,0:0:0:0:
184,62,52116,1,8,0:0:0:0:
224,128,52290,1,0,0:0:0:0:
180,191,52639,1,8,0:0:0:0:
215,174,53337,1,8,0:0:0:0:
276,315,53686,1,0,0:0:0:0:
248,186,53860,1,0,0:0:0:0:
184,198,54035,1,8,0:0:0:0:
470,311,54383,1,8,0:0:0:0:
412,165,54558,1,0,0:0:0:0:
357,205,54907,1,8,0:0:0:0:
371,176,55256,1,0,0:0:0:0:
299,152,55430,1,8,0:0:0:0:
333,181,55779,1,8,0:0:0:0:
333,181,55953,1,0,0:0:0:0:
333,181,56128,1,12,0:0:0:0:
311,212,56476,5,4,0:0:0:0:
311,212,58744,1,0,0:0:0:0:
377,173,58918,1,0,0:0:0:0:
214,221,59093,1,0,0:0:0:0:
236,192,59267,1,12,0:0:0:0:
272,181,59616,1,0,0:0:0:0:
272,181,59965,1,8,0:0:0:0:
272,181,60139,1,0,0:0:0:0:
241,302,60314,1,8,0:0:0:0:
272,181,60663,1,0,0:0:0:0:
239,161,60837,1,0,0:0:0:0:
199,205,61011,1,8,0:0:0:0:
126,230,61186,1,8,0:0:0:0:
507,213,62058,1,4,0:0:0:0:
392,200,62407,1,8,0:0:0:0:
317,204,62581,1,8,0:0:0:0:
252,211,63104,1,0,0:0:0:0:
286,194,63279,1,8,0:0:0:0:
286,194,63453,1,0,0:0:0:0:
272,160,63802,1,0,0:0:0:0:
196,173,63976,1,8,0:0:0:0:
348,148,64500,1,8,0:0:0:0:
184,178,64674,1,8,0:0:0:0:
338,185,64849,1,0,0:0:0:0:
338,185,65197,1,8,0:0:0:0:
338,185,65372,1,0,0:0:0:0:
338,185,65546,1,0,0:0:0:0:
338,185,65721,1,8,0:0:0:0:
314,166,66069,1,8,0:0:0:0:
326,242,66244,1,0,0:0:0:0:
207,138,66593,1,0,0:0:0:0:
377,221,66942,1,8,0:0:0:0:
255,179,67639,1,4,0:0:0:0:
313,235,67988,1,8,0:0:0:0:
393,240,68163,1,8,0:0:0:0:
465,211,68511,1,0,0:0:0:0:
387,214,68686,1,0,0:0:0:0:
379,178,68860,1,0,0:0:0:0:
331,183,69035,1,8,0:0:0:0:
342,185,69383,1,8,0:0:0:0:
342,185,69558,1,0,0:0:0:0:
329,183,70081,1,8,0:0:0:0:
254,203,70430,1,0,0:0:0:0:
291,193,70604,1,0,0:0:0:0:
328,186,70779,1,12,0:0:0:0:
366,124,71128,1,8,0:0:0:0:
366,124,71302,1,0,0:0:0:0:
328,186,71476,1,12,0:0:0:0:
325,206,71825,1,0,0:0:0:0:
249,188,72000,1,0,0:0:0:0:
328,186,72174,1,12,0:0:0:0:
327,181,72523,1,0,0:0:0:0:
404,174,73221,1,12,0:0:0:0:
404,174,73569,1,0,0:0:0:0:
346,225,73744,1,0,0:0:0:0:
257,150,74093,1,0,0:0:0:0:
325,181,74267,1,8,0:0:0:0:
321,195,74442,1,8,0:0:0:0:
321,195,74616,1,0,0:0:0:0:
325,181,74965,1,8,0:0:0:0:
325,181,75139,1,8,0:0:0:0:
251,156,75663,1,0,0:0:0:0:
320,247,75837,1,8,0:0:0:0:
228,191,76011,1,0,0:0:0:0:
397,156,76360,1,8,0:0:0:0:
325,181,76535,1,0,0:0:0:0:
290,168,76709,1,0,0:0:0:0:
397,156,76883,1,8,0:0:0:0:
325,181,77232,1,0,0:0:0:0:
287,296,77581,1,8,0:0:0:0:
209,203,77756,1,8,0:0:0:0:
200,49,78104,1,0,0:0:0:0:
286,173,78802,1,12,0:0:0:0:
346,126,79151,1,0,0:0:0:0:
209,180,79325,1,8,0:0:0:0:
383,149,79674,1,0,0:0:0:0:
312,179,79849,1,0,0:0:0:0:
247,176,80023,1,0,0:0:0:0:
383,149,80197,1,8,0:0:0:0:
312,179,80546,1,8,0:0:0:0:
257,185,80721,1,0,0:0:0:0:
355,176,81244,1,0,0:0:0:0:
232,185,81418,1,0,0:0:0:0:
355,176,81593,1,8,0:0:0:0:
309,185,81942,1,8,0:0:0:0:
232,185,82116,1,8,0:0:0:0:
192,186,82290,1,0,0:0:0:0:
355,173,82814,1,8,0:0:0:0:
263,207,83163,1,0,0:0:0:0:
232,185,83337,1,8,0:0:0:0:
355,173,83686,1,8,0:0:0:0:
308,184,83860,1,0,0:0:0:0:
308,184,84035,1,8,0:0:0:0:
308,184,84383,1,4,0:0:0:0:
1,155,85081,1,8,0:0:0:0:
294,173,85430,1,0,0:0:0:0:
308,184,85604,1,0,0:0:0:0:
294,173,85779,1,12,0:0:0:0:
40,88,86476,1,8,0:0:0:0:
329,194,86738,1,8,0:0:0:0:
329,194,87000,1,8,0:0:0:0:
307,204,87164,1,4,0:0:0:0:
233,198,87512,1,0,0:0:0:0:
307,204,87687,1,8,0:0:0:0:
307,204,88035,1,8,0:0:0:0:
380,180,88210,1,0,0:0:0:0:
186,127,88384,1,8,0:0:0:0:
259,150,88559,1,0,0:0:0:0:
128,321,88908,1,0,0:0:0:0:
170,257,89082,1,8,0:0:0:0:
190,176,89431,1,8,0:0:0:0:
180,220,89605,1,0,0:0:0:0:
99,201,89780,1,0,0:0:0:0:
174,188,89954,1,8,0:0:0:0:
314,259,90303,1,0,0:0:0:0:
395,123,90477,1,8,0:0:0:0:
247,166,90826,1,0,0:0:0:0:
247,166,91001,1,0,0:0:0:0:
396,127,91175,1,8,0:0:0:0:
314,206,91349,1,0,0:0:0:0:
244,206,91698,1,0,0:0:0:0:
307,162,92047,1,8,0:0:0:0:
194,209,92745,1,4,0:0:0:0:
172,201,93094,1,0,0:0:0:0:
390,88,93268,1,8,0:0:0:0:
258,169,93617,1,8,0:0:0:0:
258,169,93791,1,0,0:0:0:0:
128,251,93966,1,8,0:0:0:0:
258,169,94140,1,0,0:0:0:0:
236,264,94489,1,0,0:0:0:0:
258,169,94664,1,8,0:0:0:0:
184,188,95012,1,8,0:0:0:0:
31,183,95187,1,0,0:0:0:0:
184,188,95361,1,0,0:0:0:0:
260,180,95535,1,8,0:0:0:0:
302,155,95884,1,0,0:0:0:0:
47,90,96058,1,8,0:0:0:0:
260,180,96407,1,0,0:0:0:0:
396,152,96582,1,0,0:0:0:0:
407,135,96756,1,8,0:0:0:0:
197,179,96931,1,0,0:0:0:0:
350,170,97279,1,8,0:0:0:0:
197,194,97628,1,0,0:0:0:0:
273,182,98326,1,4,0:0:0:0:
273,182,98675,1,0,0:0:0:0:
234,171,98849,1,8,0:0:0:0:
197,198,99198,1,0,0:0:0:0:
273,182,99373,1,8,0:0:0:0:
197,198,99547,1,8,0:0:0:0:
197,198,99721,1,0,0:0:0:0:
352,234,100070,1,0,0:0:0:0:
162,180,100245,1,8,0:0:0:0:
197,198,100593,1,8,0:0:0:0:
236,197,100768,1,0,0:0:0:0:
197,198,100942,1,8,0:0:0:0:
236,197,101117,1,8,0:0:0:0:
346,255,101466,1,0,0:0:0:0:
445,99,101640,1,8,0:0:0:0:
375,131,101989,1,0,0:0:0:0:
349,203,102164,1,0,0:0:0:0:
201,157,102338,1,0,0:0:0:0:
121,161,102512,1,8,0:0:0:0:
349,203,102861,1,0,0:0:0:0:
195,213,103210,1,8,0:0:0:0:
347,200,103907,1,4,0:0:0:0:
236,280,104257,1,0,0:0:0:0:
123,257,104431,1,8,0:0:0:0:
258,192,104779,1,0,0:0:0:0:
197,238,104954,1,8,0:0:0:0:
188,229,105128,1,8,0:0:0:0:
114,249,105303,1,0,0:0:0:0:
260,223,105652,1,0,0:0:0:0:
201,184,105826,1,8,0:0:0:0:
278,193,106175,5,8,0:0:0:0:
278,193,106350,1,0,0:0:0:0:
278,193,106524,5,0,0:0:0:0:
306,219,106698,5,12,0:0:0:0:
222,3,107221,1,0,0:0:0:0:
218,80,107396,1,12,0:0:0:0:
365,257,107919,1,0,0:0:0:0:
322,369,108093,1,12,0:0:0:0:
269,224,108442,1,12,0:0:0:0:
369,107,108791,1,4,0:0:0:0:
