osu file format v14

[General]
AudioFilename: audio.mp3
AudioLeadIn: 0
PreviewTime: 64004
Countdown: 0
SampleSet: Soft
StackLeniency: 0.6
Mode: 0
LetterboxInBreaks: 0
WidescreenStoryboard: 1

[Editor]
Bookmarks: 10880,26420,33326,47139,64405,78218
DistanceSpacing: 1
BeatDivisor: 1
GridSize: 8
TimelineZoom: 1.7

[Metadata]
Title:Freaks Romanticism
TitleUnicode:フリークス・ロマンチシズム
Artist:Casandra
ArtistUnicode:カサンドラ
Creator:kwk
Version:Normal
Source:純情化憐フリークス!
Tags:Lafayla Catshy rvmathew karen eroge waltz visual novel vn opening wonder fools junjou
BeatmapID:1525903
BeatmapSetID:722312

[Difficulty]
HPDrainRate:4
CircleSize:3
OverallDifficulty:4
ApproachRate:5
SliderMultiplier:1.3
SliderTickRate:1

[Events]
//Background and Video events
0,0,"freaks.jpg",0,0
//Break Periods
//Storyboard Layer 0 (Background)
//Storyboard Layer 1 (Fail)
//Storyboard Layer 2 (Pass)
//Storyboard Layer 3 (Foreground)
//Storyboard Sound Samples

[TimingPoints]
551,431.654676258993,4,2,0,70,1,0
12637,-100,4,2,0,80,0,0
26420,-100,4,2,0,80,0,0
26450,-100,4,2,0,70,0,0
33356,-100,4,2,0,50,0,0
47139,-100,4,2,0,50,0,0
47169,-100,4,2,0,70,0,0
64435,-90.9090909090909,4,2,0,85,0,1
92061,-100,4,2,0,70,0,0
114477,-100,4,2,0,70,0,0
114507,-100,4,2,0,25,0,0

[Colours]
Combo1 : 255,255,166
Combo2 : 255,128,128
Combo3 : 0,255,255
Combo4 : 0,255,128

[HitObjects]
245,150,10910,6,0,P|345:89|269:251,1,476.666666666667,2|0,0:2|3:2,0:0:0:0:
231,238,12637,6,0,P|168:224|107:245,1,130,4|8,0:2|1:2,0:0:0:0:
46,360,13500,2,0,L|185:335,1,130,0|8,1:2|1:2,0:0:0:0:
303,321,14363,2,0,P|352:318|409:343,1,86.6666666666667,0|0,1:2|0:2,0:0:0:0:
497,260,15083,2,0,L|477:65,1,173.333333333333,0|8,0:2|1:2,0:0:0:0:
404,43,15946,1,0,0:2:0:0:
375,75,16090,6,0,P|311:92|229:64,1,130,0|8,1:2|1:2,0:0:0:0:
170,43,16809,1,0,0:2:0:0:
127,53,16953,2,0,P|105:101|115:159,1,86.6666666666667,0|0,1:2|0:2,0:0:0:0:
192,236,17673,2,0,L|404:207,1,173.333333333333,0|8,0:2|1:2,0:0:0:0:
439,106,18680,2,0,P|481:148|447:316,1,216.666666666667,0|0,1:2|0:2,0:0:0:0:
427,304,19543,6,0,L|266:331,1,130,4|8,1:2|1:2,0:0:0:0:
178,376,20407,2,0,L|49:354,1,130,0|8,1:2|1:2,0:0:0:0:
12,229,21270,2,0,P|7:172|27:117,1,86.6666666666667,0|0,1:2|0:2,0:0:0:0:
85,50,21989,2,0,P|192:122|182:139,1,173.333333333333,0|8,0:2|1:2,0:0:0:0:
169,200,22853,1,0,0:2:0:0:
185,239,22997,6,0,P|263:250|336:201,1,130,0|8,1:2|1:2,0:0:0:0:
360,110,23860,2,0,P|420:87|470:97,1,86.6666666666667,0|0,1:2|0:2,0:0:0:0:
512,197,24579,1,0,0:2:0:0:
504,239,24723,2,0,L|430:368,1,130,0|8,1:2|1:2,0:0:0:0:
364,306,25443,2,0,B|290:264|238:301|234:301|229:302|155:324|103:293,1,260,0|0,0:2|3:2,0:0:0:0:
72,276,26450,6,0,P|60:202|96:122,1,130,0|8,1:2|1:2,0:0:0:0:
81,20,27313,2,0,P|151:46|202:117,1,130,0|8,1:2|1:2,0:0:0:0:
298,155,28176,2,0,P|239:202|152:211,1,130,0|8,1:2|1:2,0:0:0:0:
70,271,29040,1,4,1:2:0:0:
178,342,29471,1,12,1:2:0:0:
307,326,29903,6,0,L|472:298,1,130,0|8,1:2|1:2,0:0:0:0:
496,189,30766,2,0,L|331:161,1,130,0|8,1:2|1:2,0:0:0:0:
284,67,31630,2,0,L|449:39,1,130,0|8,1:2|1:2,0:0:0:0:
370,167,32493,2,0,P|293:159|245:181,1,130,4|4,3:2|3:2,0:0:0:0:
120,147,33356,6,0,P|62:174|-22:152,1,130,2|10,1:2|1:2,0:0:0:0:
44,42,34220,1,2,1:2:0:0:
172,60,34651,1,8,1:2:0:0:
295,25,35083,2,0,P|299:98|258:162,1,130,2|10,1:2|1:2,0:0:0:0:
155,194,35946,2,0,P|142:242|149:293,1,86.6666666666667,2|2,1:2|0:2,0:0:0:0:
163,318,36378,1,10,1:2:0:0:
277,253,36809,6,0,P|404:234|483:348,1,260,2|0,1:2|1:2,0:0:0:0:
355,365,38104,1,8,1:2:0:0:
226,344,38536,2,0,B|126:249,1,130,0|8,1:2|1:2,0:0:0:0:
1,260,39399,2,0,P|1:208|34:165,1,86.6666666666667,0|8,1:2|0:2,0:0:0:0:
52,152,39831,1,8,1:2:0:0:
182,150,40263,6,0,P|254:160|336:131,1,130,2|10,1:2|1:2,0:0:0:0:
305,16,41126,2,0,P|233:6|151:35,1,130,2|10,1:2|1:2,0:0:0:0:
74,97,41989,1,2,1:2:0:0:
38,222,42421,1,10,1:2:0:0:
144,296,42853,2,0,L|239:258,1,86.6666666666667,2|10,1:2|0:2,0:0:0:0:
266,251,43284,1,10,1:2:0:0:
374,323,43716,6,0,P|398:228|275:114,1,260,2|0,1:2|1:2,0:0:0:0:
189,190,45011,1,8,1:2:0:0:
59,178,45443,2,0,P|22:98|41:34,1,130,0|8,1:2|1:2,0:0:0:0:
155,87,46306,2,0,B|215:93|215:93|288:56|288:56|367:71,1,216.666666666667,0|2,3:2|3:2,0:0:0:0:
403,60,47169,6,0,P|430:111|283:181,1,260,6|2,1:2|1:2,0:0:0:0:
167,160,48464,1,10,1:2:0:0:
46,210,48896,2,0,P|33:273|48:318,1,86.6666666666667,2|2,1:2|0:0,0:0:0:0:
133,381,49615,2,0,L|307:331,1,173.333333333333,2|8,0:2|1:2,0:0:0:0:
422,374,50622,6,0,P|430:325|407:271,1,86.6666666666667,2|2,1:2|0:2,0:0:0:0:
382,267,51054,1,10,1:2:0:0:
298,168,51486,2,0,P|294:120|311:76,1,86.6666666666667,2|2,1:2|0:2,0:0:0:0:
436,80,52205,1,2,0:2:0:0:
452,120,52349,2,0,L|432:269,1,130,4|12,1:2|1:2,0:0:0:0:
321,313,53212,2,0,P|271:307|210:324,1,86.6666666666667,4|0,1:2|0:2,0:0:0:0:
199,338,53644,1,12,1:2:0:0:
72,367,54076,6,0,P|100:242|233:208,1,260,6|2,1:2|1:2,0:0:0:0:
338,240,55371,1,10,1:2:0:0:
453,179,55802,2,0,L|466:55,1,86.6666666666667,2|2,1:2|0:2,0:0:0:0:
356,16,56522,2,0,P|272:-5|158:36,1,173.333333333333,2|8,0:0|1:2,0:0:0:0:
111,52,57385,1,0,0:0:0:0:
115,95,57529,6,0,P|174:133|254:102,1,130,2|10,1:2|1:2,0:0:0:0:
315,109,58248,1,0,0:2:0:0:
355,126,58392,2,0,P|371:194|316:259,1,130,2|10,1:2|1:2,0:0:0:0:
285,308,59112,1,2,0:2:0:0:
244,324,59256,2,0,L|90:285,1,130,2|10,1:2|1:2,0:0:0:0:
26,199,60119,2,0,L|22:99,1,86.6666666666667,2|8,1:2|0:2,0:0:0:0:
20,68,60551,1,10,1:2:0:0:
256,192,60982,12,2,62709,3:2:0:0:
336,217,63572,5,2,3:2:0:0:
336,217,64435,6,0,P|263:256|184:230,1,143.000004364014,6|10,1:2|1:2,0:0:0:0:
66,276,65299,1,2,1:2:0:0:
103,138,65730,1,10,1:2:0:0:
244,113,66162,2,0,L|359:87,1,95.3333362426759,2|10,1:2|1:2,0:0:0:0:
459,165,66881,2,0,P|470:256|410:327,1,190.666672485352,8|10,0:2|1:2,0:0:0:0:
277,380,67889,6,0,P|267:300|306:243,1,143.000004364014,2|10,1:2|1:2,0:0:0:0:
330,160,68608,1,2,0:2:0:0:
343,114,68752,2,0,P|345:60|318:19,1,95.3333362426759,2|2,1:2|0:2,0:0:0:0:
181,28,69471,1,2,0:2:0:0:
139,51,69615,2,0,L|96:210,1,143.000004364014,0|10,1:2|1:2,0:0:0:0:
75,281,70335,1,8,0:2:0:0:
122,273,70479,2,0,B|241:257|241:257|349:307,1,238.33334060669,6|0,0:2|0:0,0:0:0:0:
393,290,71342,6,0,P|413:211|363:129,1,143.000004364014,6|10,1:2|1:2,0:0:0:0:
455,28,72205,1,2,1:2:0:0:
312,29,72636,1,10,1:2:0:0:
229,148,73068,2,0,P|178:155|124:127,1,95.3333362426759,2|0,1:2|0:2,0:0:0:0:
38,36,73788,2,0,P|-5:102|26:233,1,190.666672485352,8|10,0:2|1:2,0:0:0:0:
42,297,74651,1,0,0:2:0:0:
84,274,74795,6,0,P|128:259|179:266,1,95.3333362426759,2|2,1:2|0:2,0:0:0:0:
203,224,75227,2,0,P|237:254|257:302,1,95.3333362426759,10|2,1:2|0:2,0:0:0:0:
264,345,75658,2,0,P|317:360|370:336,1,95.3333362426759,2|2,1:2|0:2,0:0:0:0:
462,259,76378,1,10,0:2:0:0:
478,213,76522,2,0,L|440:57,1,143.000004364014,0|10,1:2|1:2,0:0:0:0:
353,44,77241,1,10,0:2:0:0:
307,30,77385,2,0,P|256:51|349:152,1,238.33334060669,6|2,0:2|0:2,0:0:0:0:
373,158,78248,6,0,P|412:231|386:310,1,143.000004364014,2|10,1:2|1:2,0:0:0:0:
280,365,79112,1,2,1:2:0:0:
137,358,79543,1,10,1:2:0:0:
48,245,79975,2,0,L|163:219,1,95.3333362426759,2|2,1:2|0:2,0:0:0:0:
279,188,80694,2,0,P|291:84|221:-12,1,190.666672485352,10|10,0:2|1:2,0:0:0:0:
107,15,81702,6,0,P|73:76|85:145,1,143.000004364014,2|10,1:2|1:2,0:0:0:0:
23,218,82421,1,2,0:2:0:0:
29,265,82565,2,0,L|143:299,1,95.3333362426759,2|2,1:2|0:2,0:0:0:0:
235,369,83284,1,0,0:2:0:0:
281,378,83428,2,0,P|333:315|286:233,1,143.000004364014,0|8,1:2|1:2,0:0:0:0:
233,220,84148,1,2,0:2:0:0:
185,226,84292,2,0,P|169:123|293:74,1,238.33334060669,6|0,0:2|0:0,0:0:0:0:
312,40,85155,6,0,P|361:103|342:197,1,143.000004364014,6|10,1:2|1:2,0:0:0:0:
499,195,86018,1,2,1:2:0:0:
414,310,86449,1,8,1:2:0:0:
275,275,86881,2,0,P|227:275|187:299,1,95.3333362426759,2|2,1:2|0:2,0:0:0:0:
62,370,87601,2,0,P|45:278|91:197,1,190.666672485352,10|10,0:2|1:2,0:0:0:0:
181,165,88464,1,0,0:0:0:0:
227,186,88608,6,0,L|322:178,1,95.3333362426759,2|2,1:2|0:2,0:0:0:0:
341,221,89040,2,0,L|436:213,1,95.3333362426759,10|2,1:2|0:2,0:0:0:0:
477,236,89471,2,0,P|500:165|480:105,1,95.3333362426759,2|2,1:2|0:2,0:0:0:0:
491,98,89903,1,8,0:2:0:0:
424,29,90191,1,8,0:2:0:0:
377,18,90335,2,0,B|327:-14|275:15|272:16|268:16|199:56|131:1,1,238.33334060669,6|2,0:2|0:2,0:0:0:0:
99,14,91198,1,10,0:2:0:0:
34,141,91629,1,2,0:2:0:0:
256,192,92061,12,0,97241,1:2:0:0:
447,203,98968,6,0,P|459:129|423:49,1,130,0|8,1:2|1:2,0:0:0:0:
322,28,99831,2,0,P|252:54|201:125,1,130,0|8,1:2|1:2,0:0:0:0:
233,224,100694,2,0,P|291:271|378:280,1,130,0|8,1:2|1:2,0:0:0:0:
446,204,101558,1,4,1:2:0:0:
421,76,101989,1,12,1:2:0:0:
300,27,102421,6,0,L|163:44,1,130,0|8,1:2|1:2,0:0:0:0:
97,150,103284,2,0,L|253:130,1,130,0|8,1:2|1:2,0:0:0:0:
329,212,104148,2,0,L|200:228,1,130,0|8,1:2|1:2,0:0:0:0:
139,343,105011,1,4,0:2:0:0:
269,339,105443,1,12,0:2:0:0:
398,331,105874,6,0,P|466:242|425:143,1,216.666666666667,2|0,0:2|0:2,0:0:0:0:
392,138,106738,2,0,B|333:124|333:124|230:169|230:169|150:149,1,216.666666666667,2|2,0:2|0:2,0:0:0:0:
145,148,107601,1,6,0:2:0:0:
256,192,107745,12,0,114507,0:2:0:0:
