osu file format v14

[General]
AudioFilename: audio.mp3
AudioLeadIn: 0
PreviewTime: 64004
Countdown: 0
SampleSet: Soft
StackLeniency: 0.4
Mode: 0
LetterboxInBreaks: 0
WidescreenStoryboard: 0

[Editor]
Bookmarks: 10880,16090,26420,33326,47139,64405,78218
DistanceSpacing: 1.2
BeatDivisor: 3
GridSize: 8
TimelineZoom: 1.7

[Metadata]
Title:Freaks Romanticism
TitleUnicode:フリークス・ロマンチシズム
Artist:Casandra
ArtistUnicode:カサンドラ
Creator:kwk
Version:Mathew's Hard
Source:純情化憐フリークス!
Tags:Lafayla Catshy rvmathew karen eroge waltz visual novel vn opening wonder fools junjou
BeatmapID:1533694
BeatmapSetID:722312

[Difficulty]
HPDrainRate:6
CircleSize:4.1
OverallDifficulty:7
ApproachRate:7
SliderMultiplier:1.8
SliderTickRate:1

[Events]
//Background and Video events
0,0,"freaks.jpg",0,0
//Break Periods
//Storyboard Layer 0 (Background)
//Storyboard Layer 1 (Fail)
//Storyboard Layer 2 (Pass)
//Storyboard Layer 3 (Foreground)
//Storyboard Sound Samples

[TimingPoints]
551,431.654676258993,4,2,0,70,1,0
12637,-100,4,2,0,80,0,0
26450,-100,4,2,0,70,0,0
33356,-100,4,2,0,50,0,0
47169,-100,4,2,0,70,0,0
64435,-86.9565217391304,4,2,0,85,0,1
78248,-83.3333333333333,4,2,0,85,0,1
92061,-100,4,2,0,70,0,0
114507,-100,4,2,0,25,0,0

[Colours]
Combo1 : 255,255,166
Combo2 : 255,128,128
Combo3 : 0,255,255
Combo4 : 0,255,128

[HitObjects]
91,77,10910,6,0,L|16:138,2,60,2|2|2,0:2|0:2|0:2,0:0:0:0:
107,154,11342,2,0,L|71:208,2,60,0|0|0,3:2|3:2|3:2,0:0:0:0:
147,222,11774,2,0,L|133:286,2,60,0|0|0,3:2|3:2|3:2,0:0:0:0:
210,269,12206,2,0,L|228:330,2,60,0|0|0,3:2|3:2|3:2,0:0:0:0:
253,194,12637,6,0,P|297:238|257:320,1,120,4|0,0:2|0:2,0:0:0:0:
226,326,13068,2,0,B|271:334|271:334|302:317|302:317|370:328,1,120,8|0,1:2|0:2,0:0:0:0:
460,317,13500,2,0,P|424:266|477:192,1,120,0|0,1:2|0:2,0:0:0:0:
509,191,13931,2,0,B|466:175|466:175|432:186|432:186|367:164,1,120,8|0,1:2|0:2,0:0:0:0:
317,108,14363,6,0,P|258:112|218:68,1,120,0|0,1:2|0:2,0:0:0:0:
289,35,14795,1,8,1:2:0:0:
243,186,15083,1,0,0:2:0:0:
243,186,15227,2,0,P|266:244|236:298,1,120,0|0,1:2|0:2,0:0:0:0:
194,354,15658,1,8,1:2:0:0:
68,240,15946,1,0,0:2:0:0:
68,240,16090,6,0,L|191:240,1,120,0|0,1:2|0:2,0:0:0:0:
274,311,16522,2,0,L|154:311,1,120,8|0,1:2|0:2,0:0:0:0:
68,240,16953,2,0,L|191:240,1,120,0|0,1:2|0:2,0:0:0:0:
257,216,17385,1,8,1:2:0:0:
207,32,17673,1,0,0:2:0:0:
207,32,17817,6,0,P|181:85|253:154,1,120,0|0,1:2|0:2,0:0:0:0:
275,170,18248,2,0,P|328:145|403:165,1,120,8|0,1:2|0:2,0:0:0:0:
443,208,18680,2,0,L|470:266,2,60,0|0|0,1:2|0:0|0:2,0:0:0:0:
382,258,19112,2,0,L|392:333,2,60,8|0|0,1:2|0:0|0:2,0:0:0:0:
301,193,19543,6,0,P|276:140|301:88,1,120,4|0,1:2|0:2,0:0:0:0:
360,141,19975,2,0,B|312:141|312:141|288:149|288:149|242:149,1,120,8|0,1:2|0:2,0:0:0:0:
59,89,20407,2,0,B|107:89|107:89|131:97|131:97|177:97,1,120,0|0,1:2|0:2,0:0:0:0:
241,44,20838,2,0,P|265:96|240:148,1,120,8|0,1:2|0:2,0:0:0:0:
326,195,21270,6,0,P|300:247|325:299,1,120,0|0,1:2|0:2,0:0:0:0:
385,248,21702,1,8,1:2:0:0:
458,110,21989,1,0,0:2:0:0:
458,110,22133,2,0,L|302:110,1,120,0|0,1:2|0:2,0:0:0:0:
266,77,22565,2,0,L|110:77,1,120,8|0,1:2|0:2,0:0:0:0:
95,149,22997,6,0,L|75:267,1,120,0|0,1:2|0:2,0:0:0:0:
148,294,23428,2,0,L|168:176,1,120,8|0,1:2|0:2,0:0:0:0:
265,64,23860,2,0,L|246:183,1,120,0|0,1:2|0:2,0:0:0:0:
276,254,24292,1,8,1:2:0:0:
432,277,24579,1,0,0:2:0:0:
432,277,24723,5,0,1:2:0:0:
488,127,25011,1,0,0:2:0:0:
488,127,25155,2,0,L|486:64,2,60,8|0|0,1:2|0:0|0:2,0:0:0:0:
407,106,25586,2,0,L|390:49,2,60,0|0|0,1:0|0:0|3:2,0:0:0:0:
325,124,26018,2,0,L|281:79,2,60,0|0|0,3:2|3:2|3:2,0:0:0:0:
367,196,26450,6,0,P|391:260|360:316,1,120,0|0,1:2|0:2,0:0:0:0:
315,358,26881,1,8,1:2:0:0:
178,282,27169,1,0,0:2:0:0:
178,282,27313,2,0,L|101:261,2,60,0|0|0,1:2|0:0|0:2,0:0:0:0:
254,300,27745,1,8,1:2:0:0:
356,182,28033,1,0,0:2:0:0:
356,182,28176,6,0,L|433:161,2,60,0|0|0,1:2|0:0|0:2,0:0:0:0:
280,202,28608,1,8,1:2:0:0:
145,122,28896,1,0,0:2:0:0:
145,122,29040,2,0,P|203:138|267:106,1,120,4|0,1:2|0:2,0:0:0:0:
385,27,29471,2,0,P|342:69|337:140,1,120,12|0,1:2|0:2,0:0:0:0:
366,198,29903,5,0,1:2:0:0:
285,331,30191,1,0,0:2:0:0:
285,331,30335,1,8,1:2:0:0:
157,241,30622,1,0,0:2:0:0:
157,241,30766,2,0,L|77:233,2,60,0|0|0,1:2|0:0|0:2,0:0:0:0:
236,247,31198,1,8,1:2:0:0:
388,116,31486,1,0,0:2:0:0:
388,116,31630,6,0,L|468:108,2,60,0|0|8,1:2|0:0|0:2,0:0:0:0:
309,122,32062,1,8,1:2:0:0:
124,85,32349,1,0,0:2:0:0:
124,85,32493,2,0,L|83:41,2,60,4|0|0,3:2|3:2|3:2,0:0:0:0:
77,148,32925,2,0,L|-2:146,2,60,4|0|0,3:2|3:2|3:2,0:0:0:0:
149,185,33356,6,0,P|204:207|290:159,1,120,2|0,1:2|0:2,0:0:0:0:
301,124,33788,2,0,P|292:65|207:14,1,120,10|0,1:2|0:2,0:0:0:0:
172,22,34220,2,0,P|125:58|124:157,1,120,2|0,1:2|0:2,0:0:0:0:
207,113,34651,1,8,1:2:0:0:
402,79,34939,1,2,0:2:0:0:
402,79,35083,6,0,P|380:133|437:192,1,120,2|2,1:2|0:2,0:0:0:0:
464,238,35515,2,0,P|493:287|471:341,1,120,10|2,1:2|0:2,0:0:0:0:
409,293,35946,1,2,1:2:0:0:
218,349,36234,1,2,0:2:0:0:
218,349,36378,2,0,B|261:349|261:349|291:339|291:339|348:339,1,120,10|0,1:2|0:2,0:0:0:0:
409,293,36809,6,0,P|442:247|386:165,1,120,2|0,1:2|0:2,0:0:0:0:
375,130,37241,1,8,1:2:0:0:
233,24,37529,1,0,0:2:0:0:
233,24,37673,2,0,P|191:74|215:151,1,120,0|0,1:2|0:2,0:0:0:0:
221,199,38104,1,8,1:2:0:0:
373,289,38392,1,0,0:2:0:0:
373,289,38536,6,0,B|376:227|376:227|340:173,1,120,0|0,1:2|0:2,0:0:0:0:
169,195,38968,2,0,B|222:228|222:228|280:225,1,120,8|0,1:2|0:2,0:0:0:0:
354,66,39399,2,0,B|299:95|299:95|274:147,1,120,0|8,1:2|0:2,0:0:0:0:
344,179,39831,1,8,1:2:0:0:
171,272,40119,1,0,0:2:0:0:
171,272,40263,6,0,B|235:304|275:248|354:272,1,180,2|10,1:2|1:2,0:0:0:0:
452,129,40982,1,0,0:2:0:0:
452,129,41126,2,0,B|388:161|348:105|269:129,1,180,2|10,1:2|1:2,0:0:0:0:
129,71,41845,1,2,0:2:0:0:
129,71,41989,6,0,P|180:123|138:205,1,120,2|0,1:2|0:2,0:0:0:0:
129,228,42421,1,10,1:2:0:0:
256,318,42709,1,2,0:2:0:0:
256,240,42853,1,2,1:2:0:0:
383,71,43141,1,10,0:2:0:0:
383,71,43284,2,0,P|332:123|374:205,1,120,10|0,1:2|0:2,0:0:0:0:
440,316,43716,6,0,P|431:259|382:228,1,120,2|0,1:2|0:2,0:0:0:0:
361,303,44148,1,8,1:2:0:0:
207,325,44435,1,0,0:2:0:0:
207,325,44579,2,0,P|172:280|71:310,1,120,0|0,1:2|0:2,0:0:0:0:
132,350,45011,1,8,1:2:0:0:
242,106,45299,1,0,0:2:0:0:
242,106,45443,6,0,P|191:140|237:225,1,120,0|0,1:2|0:2,0:0:0:0:
254,240,45874,2,0,P|198:217|128:268,1,120,8|0,1:2|0:2,0:0:0:0:
199,296,46306,2,0,L|203:386,2,60,0|0|0,3:2|3:2|3:2,0:0:0:0:
273,322,46738,2,0,L|320:403,2,60,10|2|2,3:2|3:2|3:2,0:0:0:0:
357,266,47169,6,0,P|401:196|339:115,1,180,6|8,1:2|1:2,0:0:0:0:
206,169,47889,1,0,0:2:0:0:
206,169,48033,2,0,P|236:194|353:152,1,120,2|0,1:2|0:2,0:0:0:0:
386,164,48464,2,0,P|435:195|493:188,1,120,10|0,1:2|0:2,0:0:0:0:
512,91,48896,6,0,P|462:59|404:66,1,120,2|2,1:2|0:0,0:0:0:0:
334,100,49327,1,10,1:2:0:0:
217,58,49615,1,2,0:2:0:0:
217,58,49759,2,0,P|192:111|249:202,1,120,10|8,1:2|0:2,0:0:0:0:
247,235,50191,1,8,1:2:0:0:
94,362,50479,1,0,0:2:0:0:
94,362,50622,6,0,L|230:362,1,120,2|2,1:2|0:2,0:0:0:0:
374,281,51054,2,0,L|254:281,1,120,10|0,1:2|0:2,0:0:0:0:
208,202,51486,2,0,P|174:158|208:72,1,120,2|2,1:2|0:2,0:0:0:0:
329,97,51917,2,0,P|338:155|304:202,1,120,8|2,1:2|0:2,0:0:0:0:
254,281,52349,5,4,1:2:0:0:
104,326,52637,1,0,0:2:0:0:
63,259,52781,1,12,1:2:0:0:
195,177,53068,1,0,0:2:0:0:
170,99,53212,1,4,1:2:0:0:
326,104,53500,1,0,0:2:0:0:
368,31,53644,1,12,1:2:0:0:
464,148,53932,1,0,0:2:0:0:
464,148,54076,6,0,B|396:160|396:160|357:142|357:142|276:156,1,180,6|8,1:2|1:2,0:0:0:0:
134,173,54795,1,0,0:2:0:0:
134,173,54939,2,0,P|104:228|129:288,1,120,2|0,1:2|0:2,0:0:0:0:
188,319,55371,2,0,P|235:290|340:318,1,120,10|0,1:2|0:2,0:0:0:0:
370,319,55802,5,2,1:2:0:0:
435,177,56090,1,2,0:2:0:0:
435,177,56234,2,0,P|461:236|430:294,1,120,10|2,1:2|0:0,0:0:0:0:
370,319,56666,1,2,1:2:0:0:
250,282,56953,1,8,0:2:0:0:
178,313,57097,1,8,1:2:0:0:
55,179,57385,1,0,0:0:0:0:
55,179,57529,6,0,L|203:190,1,120,2|0,1:2|0:2,0:0:0:0:
250,165,57961,1,10,1:2:0:0:
484,88,58248,1,0,0:2:0:0:
484,88,58392,2,0,L|336:99,1,120,2|0,1:2|0:2,0:0:0:0:
289,74,58824,1,10,1:2:0:0:
130,26,59112,1,2,0:2:0:0:
130,26,59256,6,0,P|168:94|131:159,1,120,2|2,1:2|0:2,0:0:0:0:
106,189,59687,2,0,P|160:163|242:200,1,120,10|0,1:2|0:2,0:0:0:0:
382,26,60119,2,0,P|344:94|381:159,1,120,2|8,1:2|0:2,0:0:0:0:
406,189,60550,2,0,P|352:163|270:200,1,120,10|0,1:2|0:2,0:0:0:0:
215,227,60982,6,0,P|202:284|228:337,1,120,2|0,1:2|0:2,0:0:0:0:
301,366,61414,1,8,1:2:0:0:
421,267,61702,1,0,0:2:0:0:
421,267,61845,2,0,P|461:217|437:127,1,120,2|0,1:2|0:2,0:0:0:0:
437,88,62277,2,0,P|421:59|367:24,2,60,8|0|0,1:2|0:0|0:2,0:0:0:0:
346,115,62709,6,0,P|315:105|252:119,2,60,2|2|2,3:2|3:2|3:2,0:0:0:0:
300,196,63140,1,10,3:2:0:0:
316,291,63284,1,2,3:2:0:0:
410,323,63428,1,2,3:2:0:0:
508,295,63572,1,2,3:2:0:0:
148,18,64435,6,0,P|112:76|168:159,1,138.000002632141,6|0,1:2|0:2,0:0:0:0:
298,160,64867,2,0,P|265:101|200:87,1,138.000002632141,10|0,1:2|0:2,0:0:0:0:
104,220,65299,2,0,P|170:220|214:169,1,138.000002632141,2|0,1:2|0:2,0:0:0:0:
148,18,65730,2,0,P|112:76|168:159,1,138.000002632141,10|0,1:2|0:2,0:0:0:0:
264,98,66162,6,0,P|233:83|200:87,1,69.0000013160706,2|0,1:2|0:0,0:0:0:0:
133,137,66449,1,10,1:2:0:0:
104,215,66594,2,0,P|96:283|154:330,1,138.000002632141,2|8,0:2|0:2,0:0:0:0:
222,356,67025,1,2,1:2:0:0:
392,345,67313,1,0,0:2:0:0:
392,345,67457,2,0,P|416:279|379:219,1,138.000002632141,10|2,1:2|0:2,0:0:0:0:
224,98,67889,6,0,P|262:153|329:159,1,138.000002632141,2|0,1:2|0:2,0:0:0:0:
385,223,68321,2,0,P|414:162|387:101,1,138.000002632141,10|2,1:2|0:2,0:0:0:0:
415,18,68752,2,0,P|349:22|309:75,1,138.000002632141,2|2,1:2|0:2,0:0:0:0:
329,159,69184,1,8,1:2:0:0:
488,203,69471,1,2,0:2:0:0:
488,203,69615,6,0,P|515:267|477:352,1,138.000002632141,0|2,1:2|0:2,0:0:0:0:
418,358,70047,2,0,P|362:318|255:347,1,138.000002632141,10|8,1:2|0:2,0:0:0:0:
222,361,70479,1,6,0:2:0:0:
295,320,70622,2,0,P|307:283|293:237,1,69.0000013160706,2|2,0:2|0:2,0:0:0:0:
245,180,70910,1,10,0:2:0:0:
201,93,71054,1,2,0:2:0:0:
260,12,71198,1,2,0:2:0:0:
357,38,71342,6,0,P|369:103|326:154,1,138.000002632141,6|0,1:2|0:2,0:0:0:0:
130,213,71774,2,0,P|180:169|246:181,1,138.000002632141,10|0,1:2|0:2,0:0:0:0:
305,238,72205,2,0,P|318:303|274:354,1,138.000002632141,2|0,1:2|0:2,0:0:0:0:
195,379,72637,2,0,P|131:357|109:294,1,138.000002632141,10|0,1:2|0:2,0:0:0:0:
160,131,73068,6,0,P|161:95|141:68,2,69.0000013160706,2|0|0,1:2|0:0|0:2,0:0:0:0:
108,195,73500,2,0,P|159:157|244:170,1,138.000002632141,10|8,1:2|0:2,0:0:0:0:
304,201,73932,1,2,1:2:0:0:
451,84,74220,1,0,0:2:0:0:
388,136,74363,2,0,L|409:306,1,138.000002632141,10|0,1:2|0:2,0:0:0:0:
335,320,74795,6,0,L|318:183,1,138.000002632141,2|2,1:2|0:2,0:0:0:0:
247,137,75227,1,10,1:2:0:0:
82,246,75515,1,2,0:2:0:0:
82,246,75658,2,0,P|145:222|231:272,1,138.000002632141,2|2,1:2|0:2,0:0:0:0:
262,308,76090,1,8,1:2:0:0:
470,159,76378,1,10,0:2:0:0:
470,159,76522,6,0,P|407:135|321:185,1,138.000002632141,0|0,1:2|0:2,0:0:0:0:
283,215,76953,2,0,P|311:148|281:86,1,138.000002632141,10|10,1:2|0:2,0:0:0:0:
123,58,77385,1,6,0:2:0:0:
209,37,77529,1,2,0:2:0:0:
286,91,77673,1,2,0:2:0:0:
301,187,77817,2,0,P|294:224|303:268,2,69.0000013160706,10|2|2,0:2|0:2|0:2,0:0:0:0:
436,68,78248,6,0,P|480:135|443:206,1,143.999995605469,2|0,1:2|0:2,0:0:0:0:
391,243,78680,2,0,P|327:207|237:244,1,143.999995605469,10|0,1:2|0:2,0:0:0:0:
68,260,79112,2,0,P|129:296|198:282,1,143.999995605469,2|0,1:2|0:2,0:0:0:0:
261,221,79543,2,0,P|269:150|213:84,1,143.999995605469,10|0,1:2|0:2,0:0:0:0:
99,112,79975,6,0,P|79:142|80:194,2,71.9999978027344,2|0|2,1:2|0:0|0:2,0:0:0:0:
164,169,80407,2,0,P|199:233|145:316,1,143.999995605469,10|10,1:2|0:2,0:0:0:0:
35,324,80838,2,0,P|69:337|123:339,1,71.9999978027344,2|0,1:2|0:0,0:0:0:0:
175,295,81126,1,0,0:2:0:0:
257,330,81270,2,0,P|310:277|401:308,1,143.999995605469,10|2,1:2|0:2,0:0:0:0:
477,354,81702,6,0,L|468:210,1,143.999995605469,2|2,1:2|0:2,0:0:0:0:
364,139,82133,2,0,L|373:283,1,143.999995605469,10|2,1:2|0:2,0:0:0:0:
468,210,82565,2,0,L|459:66,1,143.999995605469,2|2,1:2|0:2,0:0:0:0:
380,29,82997,1,10,1:2:0:0:
213,72,83284,1,0,0:2:0:0:
213,72,83428,6,0,P|219:140|170:197,1,143.999995605469,0|10,1:2|0:2,0:0:0:0:
88,218,83860,1,8,1:2:0:0:
213,344,84148,1,2,0:2:0:0:
213,344,84292,2,0,L|298:324,2,71.9999978027344,6|2|2,0:2|0:2|0:2,0:0:0:0:
128,324,84723,1,10,0:2:0:0:
64,261,84867,1,2,0:2:0:0:
69,167,85011,1,2,0:2:0:0:
145,110,85155,6,0,P|208:138|280:98,1,143.999995605469,6|0,1:2|0:2,0:0:0:0:
356,88,85586,2,0,P|300:128|298:210,1,143.999995605469,10|0,1:2|0:2,0:0:0:0:
247,272,86018,2,0,P|239:203|169:161,1,143.999995605469,2|0,1:2|0:2,0:0:0:0:
166,248,86450,1,8,1:2:0:0:
365,312,86738,1,0,0:2:0:0:
365,312,86881,6,0,P|402:256|364:178,1,143.999995605469,2|2,1:2|0:2,0:0:0:0:
312,131,87313,2,0,P|369:167|457:100,1,143.999995605469,10|10,1:2|0:2,0:0:0:0:
498,81,87745,1,2,1:2:0:0:
340,9,88033,1,2,0:2:0:0:
340,9,88176,2,0,P|356:78|285:137,1,143.999995605469,10|0,1:2|0:0,0:0:0:0:
217,170,88608,6,0,P|179:240|202:320,1,143.999995605469,2|2,1:2|0:2,0:0:0:0:
259,353,89040,2,0,P|341:368|401:316,1,143.999995605469,10|2,1:2|0:2,0:0:0:0:
416,254,89471,2,0,P|370:198|398:111,1,143.999995605469,2|2,1:2|0:2,0:0:0:0:
449,78,89903,2,0,P|495:134|466:220,1,143.999995605469,8|8,0:2|0:2,0:0:0:0:
416,254,90335,5,6,0:2:0:0:
339,301,90479,1,2,0:2:0:0:
247,285,90622,1,2,0:2:0:0:
181,214,90766,2,0,P|165:181|137:148,2,71.9999978027344,2|2|2,0:2|0:2|0:2,0:0:0:0:
96,263,91198,2,0,P|59:249|-3:253,2,71.9999978027344,10|2|2,0:2|0:2|0:2,0:0:0:0:
116,357,91630,1,2,0:2:0:0:
211,372,91774,1,2,0:2:0:0:
247,285,91917,1,2,0:2:0:0:
181,214,92061,6,0,P|154:155|192:85,1,120,4|0,1:2|0:2,0:0:0:0:
236,62,92493,1,8,1:2:0:0:
380,126,92781,1,0,0:2:0:0:
442,79,92925,2,0,L|451:12,2,60,0|0|0,1:2|0:0|0:2,0:0:0:0:
380,126,93356,1,8,1:2:0:0:
156,197,93644,1,0,0:2:0:0:
94,150,93788,6,0,L|85:83,2,60,0|0|0,1:2|0:0|0:2,0:0:0:0:
156,197,94219,1,8,1:2:0:0:
298,259,94507,1,0,0:2:0:0:
353,203,94651,2,0,P|369:149|317:94,1,120,4|0,1:2|0:2,0:0:0:0:
261,69,95083,2,0,P|216:98|120:69,1,120,12|0,1:2|0:2,0:0:0:0:
83,53,95515,5,0,1:2:0:0:
16,193,95802,1,0,0:2:0:0:
37,268,95946,1,8,1:2:0:0:
182,350,96234,1,0,0:2:0:0:
235,293,96378,2,0,L|239:232,2,60,0|0|0,1:2|0:0|0:2,0:0:0:0:
182,350,96809,1,8,1:2:0:0:
390,215,97097,1,0,0:2:0:0:
337,158,97241,6,0,L|333:97,2,60,0|0|8,1:2|0:0|0:2,0:0:0:0:
390,215,97672,1,8,1:2:0:0:
87,161,97961,1,8,0:2:0:0:
140,104,98105,2,0,L|144:43,2,60,4|0|0,3:2|3:2|3:2,0:0:0:0:
87,161,98536,1,4,3:2:0:0:
97,237,98679,1,0,3:2:0:0:
168,267,98823,1,0,3:2:0:0:
238,231,98968,6,0,P|301:217|369:265,1,120,0|0,1:2|0:2,0:0:0:0:
398,300,99399,1,8,1:2:0:0:
483,169,99687,1,0,0:2:0:0:
417,127,99831,2,0,L|413:25,2,60,0|0|0,1:2|0:0|0:2,0:0:0:0:
483,169,100263,2,0,L|359:184,1,120,8|0,1:2|0:2,0:0:0:0:
166,164,100694,6,0,L|170:62,2,60,0|0|0,1:2|0:0|0:2,0:0:0:0:
98,202,101126,2,0,L|222:217,1,120,8|0,1:2|0:2,0:0:0:0:
372,324,101558,2,0,P|315:308|284:259,1,120,4|0,1:2|0:2,0:0:0:0:
302,71,101989,2,0,P|316:128|290:181,1,120,12|0,1:2|0:2,0:0:0:0:
217,217,102421,5,0,1:2:0:0:
80,141,102709,1,0,0:2:0:0:
64,64,102853,1,8,1:2:0:0:
218,77,103140,1,0,0:2:0:0:
285,37,103284,2,0,P|314:31|368:38,2,60,0|0|0,1:2|0:0|0:2,0:0:0:0:
218,77,103716,1,8,1:2:0:0:
125,202,104004,1,0,0:2:0:0:
58,162,104148,6,0,P|29:156|-25:163,2,60,0|0|8,1:2|0:0|0:2,0:0:0:0:
125,202,104580,1,8,1:2:0:0:
234,335,104867,1,8,0:2:0:0:
301,295,105011,2,0,P|330:289|384:296,2,60,4|0|0,0:2|0:2|0:2,0:0:0:0:
234,335,105443,2,0,P|205:341|151:334,2,60,12|0|0,0:2|0:2|0:2,0:0:0:0:
301,295,105874,5,2,0:2:0:0:
334,221,106018,1,0,0:2:0:0:
312,140,106162,1,0,0:2:0:0:
237,102,106306,2,0,P|202:108|156:96,2,60,10|0|0,0:2|0:2|0:2,0:0:0:0:
373,24,106738,1,2,0:2:0:0:
441,72,106882,1,0,0:2:0:0:
460,156,107026,1,0,0:2:0:0:
428,240,107170,2,0,P|465:248|493:264,2,60,10|2|2,0:2|0:2|0:2,0:0:0:0:
256,192,107601,5,6,0:2:0:0:
256,192,107745,12,0,114507,0:2:0:0:
