osu file format v14

[General]
AudioFilename: audio.mp3
AudioLeadIn: 0
PreviewTime: 64004
Countdown: 0
SampleSet: Soft
StackLeniency: 0.4
Mode: 0
LetterboxInBreaks: 0
WidescreenStoryboard: 1

[Editor]
Bookmarks: 10910,33356,47169,64435,78248
DistanceSpacing: 1
BeatDivisor: 3
GridSize: 16
TimelineZoom: 0.9

[Metadata]
Title:Freaks Romanticism
TitleUnicode:フリークス・ロマンチシズム
Artist:Casandra
ArtistUnicode:カサンドラ
Creator:kwk
Version:Lafa's Easy
Source:純情化憐フリークス!
Tags:Lafayla Catshy rvmathew karen eroge waltz visual novel vn opening wonder fools junjou
BeatmapID:1525161
BeatmapSetID:722312

[Difficulty]
HPDrainRate:2
CircleSize:3
OverallDifficulty:2
ApproachRate:4
SliderMultiplier:0.849999999999999
SliderTickRate:1

[Events]
//Background and Video events
0,0,"freaks.jpg",0,0
//Break Periods
//Storyboard Layer 0 (Background)
//Storyboard Layer 1 (Fail)
//Storyboard Layer 2 (Pass)
//Storyboard Layer 3 (Foreground)
//Storyboard Sound Samples

[TimingPoints]
551,431.654676258993,4,2,0,70,1,0
12637,-100,4,2,0,80,0,0
26450,-100,4,2,0,70,0,0
33356,-100,4,2,0,50,0,0
47169,-100,4,2,0,70,0,0
64435,-100,4,2,0,85,0,1
92061,-100,4,2,0,70,0,0
114507,-100,4,2,0,25,0,0

[Colours]
Combo1 : 255,255,166
Combo2 : 255,128,128
Combo3 : 0,255,255
Combo4 : 0,255,128

[HitObjects]
256,192,4004,12,2,10910,0:2:0:0:
175,342,12637,6,0,L|278:352,1,84.9999999999999,4|8,0:2|1:2,0:0:0:0:
311,282,13500,2,0,L|414:273,1,84.9999999999999,0|8,1:2|1:2,0:0:0:0:
478,295,14363,2,0,P|456:336|405:359,2,84.9999999999999,0|8|0,1:2|1:2|1:2,0:0:0:0:
487,126,16090,6,0,L|384:136,1,84.9999999999999,0|8,1:2|1:2,0:0:0:0:
344,71,16953,2,0,L|259:63,1,84.9999999999999,0|8,1:2|1:2,0:0:0:0:
175,47,17817,1,0,1:2:0:0:
90,35,18248,2,0,P|45:21|-4:40,2,84.9999999999999,8|0|8,1:2|1:2|1:2,0:0:0:0:
45,107,19543,6,0,L|35:210,1,84.9999999999999,4|8,1:2|1:2,0:0:0:0:
123,195,20406,2,0,L|132:297,1,84.9999999999999,0|8,1:2|1:2,0:0:0:0:
110,362,21270,2,0,P|68:340|47:291,2,84.9999999999999,0|8|0,1:2|1:2|1:2,0:0:0:0:
261,283,22997,6,0,P|283:241|332:220,2,84.9999999999999,0|8|0,1:2|1:2|1:2,0:0:0:0:
310,352,24292,1,8,1:2:0:0:
395,354,24724,2,0,L|486:350,1,84.9999999999999,0|8,1:2|1:2,0:0:0:0:
487,265,25586,2,0,L|396:269,1,84.9999999999999,0|0,1:0|3:2,0:0:0:0:
317,268,26450,5,0,1:2:0:0:
252,213,26881,2,0,P|232:124|263:31,1,170,8|8,1:2|1:2,0:0:0:0:
326,9,28176,1,0,1:2:0:0:
409,22,28608,1,8,1:2:0:0:
470,81,29040,2,0,L|461:184,1,84.9999999999999,4|12,1:2|1:2,0:0:0:0:
453,250,29903,5,0,1:2:0:0:
403,319,30335,2,0,P|314:339|221:308,1,170,8|8,1:2|1:2,0:0:0:0:
169,271,31630,1,0,1:2:0:0:
150,188,32061,1,8,1:2:0:0:
177,107,32493,2,0,L|168:4,1,84.9999999999999,4|4,3:2|3:2,0:0:0:0:
85,12,33356,5,2,1:2:0:0:
14,58,33788,2,0,B|38:115|11:146|-18:176|26:246,1,170,10|8,1:2|1:2,0:0:0:0:
79,276,35083,1,2,1:2:0:0:
157,310,35515,2,0,B|196:285|237:305|276:330|333:301,1,170,10|10,1:2|1:2,0:0:0:0:
401,274,36809,5,2,1:2:0:0:
471,226,37241,2,0,P|486:272|472:322,2,84.9999999999999,8|0|8,1:2|1:2|1:2,0:0:0:0:
429,151,38536,1,0,1:2:0:0:
402,70,38968,2,0,P|449:65|495:94,2,84.9999999999999,8|0|8,1:2|1:2|1:2,0:0:0:0:
317,75,40263,5,2,1:2:0:0:
232,77,40694,2,0,B|185:49|146:74|110:99|61:74,1,170,10|10,1:2|1:2,0:0:0:0:
42,158,41989,1,2,1:2:0:0:
70,238,42421,2,0,B|116:265|155:240|191:215|240:240,1,170,10|10,1:2|1:2,0:0:0:0:
318,259,43716,5,2,1:2:0:0:
390,212,44148,2,0,P|404:251|392:304,2,84.9999999999999,8|0|8,1:2|1:2|1:2,0:0:0:0:
340,143,45443,1,0,1:2:0:0:
315,61,45874,1,8,1:2:0:0:
384,11,46306,2,0,L|487:20,1,84.9999999999999,0|10,3:2|3:2,0:0:0:0:
509,92,47169,6,0,P|529:181|498:274,1,170,6|2,1:2|1:2,0:0:0:0:
439,303,48464,1,10,1:2:0:0:
354,306,48896,1,2,1:2:0:0:
275,274,49327,2,0,P|193:253|111:274,1,170,10|8,1:2|1:2,0:0:0:0:
36,314,50622,5,2,1:2:0:0:
22,230,51054,2,0,L|13:127,1,84.9999999999999,10|2,1:2|1:2,0:0:0:0:
57,71,51917,1,8,1:2:0:0:
137,44,52349,1,4,1:2:0:0:
205,95,52781,2,0,P|244:121|297:114,2,84.9999999999999,12|4|12,1:2|1:2|1:2,0:0:0:0:
267,37,54076,6,0,P|356:17|449:48,1,170,6|2,1:2|1:2,0:0:0:0:
496,90,55371,1,10,1:2:0:0:
499,175,55803,1,2,1:2:0:0:
441,237,56234,2,0,P|359:257|276:237,1,170,10|8,1:2|1:2,0:0:0:0:
207,188,57529,5,2,1:2:0:0:
226,105,57961,2,0,L|217:2,1,84.9999999999999,10|2,1:2|1:2,0:0:0:0:
134,7,58824,1,10,1:2:0:0:
51,26,59256,1,2,1:2:0:0:
0,94,59688,2,0,L|9:197,1,84.9999999999999,10|2,1:2|1:2,0:0:0:0:
59,246,60551,1,10,1:2:0:0:
128,294,60982,5,2,1:2:0:0:
186,355,61414,2,0,P|145:377|92:371,2,84.9999999999999,8|2|8,1:2|1:2|1:2,0:0:0:0:
242,291,62709,1,2,3:2:0:0:
326,283,63140,1,10,3:2:0:0:
388,225,63572,1,2,3:2:0:0:
243,136,64435,6,0,L|158:127,1,84.9999999999999,6|10,1:2|1:2,0:0:0:0:
158,42,65299,2,0,L|242:34,1,84.9999999999999,2|10,1:2|1:2,0:0:0:0:
325,30,66162,1,2,1:2:0:0:
409,40,66594,2,0,L|416:124,1,84.9999999999999,2|2,0:2|1:2,0:0:0:0:
377,286,67889,6,0,L|292:294,1,84.9999999999999,2|10,1:2|1:2,0:0:0:0:
257,371,68752,2,0,L|172:362,1,84.9999999999999,2|8,1:2|1:2,0:0:0:0:
91,337,69615,1,0,1:2:0:0:
17,293,70046,2,0,P|4:337|22:387,2,84.9999999999999,10|6|10,1:2|0:2|0:2,0:0:0:0:
85,242,71342,6,0,L|76:157,1,84.9999999999999,6|10,1:2|1:2,0:0:0:0:
5,109,72206,2,0,L|12:24,1,84.9999999999999,2|10,1:2|1:2,0:0:0:0:
95,7,73068,1,2,1:2:0:0:
179,11,73501,2,0,L|263:18,1,84.9999999999999,10|2,1:2|1:2,0:0:0:0:
429,50,74795,6,0,L|421:135,1,84.9999999999999,2|10,1:2|1:2,0:0:0:0:
502,159,75659,2,0,L|510:244,1,84.9999999999999,2|8,1:2|1:2,0:0:0:0:
511,328,76522,1,0,1:2:0:0:
443,379,76953,1,10,1:2:0:0:
358,382,77385,1,6,0:2:0:0:
308,313,77817,1,10,0:2:0:0:
325,229,78248,6,0,L|333:144,1,84.9999999999999,2|10,1:2|1:2,0:0:0:0:
415,123,79112,2,0,L|407:39,1,84.9999999999999,2|10,1:2|1:2,0:0:0:0:
325,15,79975,1,2,1:2:0:0:
239,14,80407,2,0,L|155:21,1,84.9999999999999,10|2,1:2|1:2,0:0:0:0:
7,105,81701,6,0,L|-1:190,1,84.9999999999999,2|10,1:2|1:2,0:0:0:0:
82,203,82565,2,0,L|91:288,1,84.9999999999999,2|10,1:2|1:2,0:0:0:0:
175,299,83428,1,0,1:2:0:0:
256,321,83859,2,0,P|233:362|184:384,2,84.9999999999999,8|6|10,1:2|0:2|0:2,0:0:0:0:
270,236,85155,6,0,L|355:245,1,84.9999999999999,6|10,1:2|1:2,0:0:0:0:
386,323,86019,2,0,L|471:316,1,84.9999999999999,2|8,1:2|1:2,0:0:0:0:
511,241,86882,1,2,1:2:0:0:
503,156,87314,2,0,L|496:72,1,84.9999999999999,10|2,1:2|1:2,0:0:0:0:
340,8,88608,6,0,L|255:17,1,84.9999999999999,2|10,1:2|1:2,0:0:0:0:
223,95,89472,2,0,L|138:88,1,84.9999999999999,2|8,1:2|0:2,0:0:0:0:
53,90,90335,1,6,0:2:0:0:
14,165,90766,1,2,0:2:0:0:
76,222,91198,1,10,0:2:0:0:
157,197,91629,1,2,0:2:0:0:
210,130,92061,6,0,P|331:90|458:140,1,255,4|8,1:2|1:2,0:0:0:0:
339,362,94651,2,0,L|236:371,1,84.9999999999999,4|12,1:2|1:2,0:0:0:0:
169,376,95514,5,0,1:2:0:0:
119,306,95946,2,0,P|99:217|130:124,1,170,8|8,1:2|1:2,0:0:0:0:
171,75,97241,1,0,1:2:0:0:
250,44,97672,1,8,1:2:0:0:
333,26,98104,2,0,L|436:35,1,84.9999999999999,4|4,3:2|3:2,0:0:0:0:
493,71,98968,5,0,1:2:0:0:
511,154,99400,2,0,P|531:243|500:336,1,170,8|8,1:2|1:2,0:0:0:0:
442,367,100695,1,0,1:2:0:0:
358,382,101126,1,8,1:2:0:0:
273,378,101558,2,0,L|170:369,1,84.9999999999999,4|12,1:2|1:2,0:0:0:0:
106,350,102421,5,0,1:2:0:0:
31,309,102853,2,0,P|11:220|42:127,1,170,8|8,1:2|1:2,0:0:0:0:
84,80,104148,1,0,1:2:0:0:
166,59,104579,1,8,1:2:0:0:
245,88,105011,2,0,L|254:191,1,84.9999999999999,4|12,0:2|0:2,0:0:0:0:
299,244,105874,5,2,0:2:0:0:
380,221,106306,1,10,0:2:0:0:
385,136,106738,1,2,0:2:0:0:
305,107,107169,1,10,0:2:0:0:
252,172,107601,1,6,0:2:0:0:
256,192,108033,12,0,114508,0:2:0:0:
