osu file format v14

[General]
AudioFilename: audio.mp3
AudioLeadIn: 0
PreviewTime: 64004
Countdown: 0
SampleSet: Soft
StackLeniency: 0.2
Mode: 0
LetterboxInBreaks: 0
WidescreenStoryboard: 0

[Editor]
Bookmarks: 10910,26450,33356,47169,64435,78248
DistanceSpacing: 1
BeatDivisor: 3
GridSize: 8
TimelineZoom: 1.7

[Metadata]
Title:Freaks Romanticism
TitleUnicode:フリークス・ロマンチシズム
Artist:Casandra
ArtistUnicode:カサンドラ
Creator:kwk
Version:Insane
Source:純情化憐フリークス!
Tags:Lafayla Catshy rvmathew karen eroge waltz visual novel vn opening wonder fools junjou
BeatmapID:1524996
BeatmapSetID:722312

[Difficulty]
HPDrainRate:5
CircleSize:4
OverallDifficulty:8
ApproachRate:8
SliderMultiplier:2.3
SliderTickRate:1

[Events]
//Background and Video events
0,0,"freaks.jpg",0,0
//Break Periods
//Storyboard Layer 0 (Background)
//Storyboard Layer 1 (Fail)
//Storyboard Layer 2 (Pass)
//Storyboard Layer 3 (Foreground)
//Storyboard Sound Samples

[TimingPoints]
551,431.654676258993,4,2,0,70,1,0
12637,-100,4,2,0,80,0,0
26450,-100,4,2,0,70,0,0
33356,-100,4,2,0,50,0,0
47169,-100,4,2,0,70,0,0
64435,-83.3333333333333,4,2,0,85,0,1
92061,-100,4,2,0,70,0,0
114507,-100,4,2,0,25,0,0

[Colours]
Combo1 : 255,255,166
Combo2 : 255,128,128
Combo3 : 0,255,255
Combo4 : 0,255,128

[HitObjects]
156,67,10910,5,2,0:2:0:0:
156,67,11054,1,2,0:2:0:0:
156,67,11198,1,2,0:2:0:0:
232,125,11342,5,0,3:2:0:0:
164,161,11486,1,0,3:2:0:0:
89,143,11630,1,0,3:2:0:0:
13,209,11773,5,0,3:2:0:0:
52,256,11917,1,0,3:2:0:0:
109,231,12061,1,0,3:2:0:0:
184,285,12205,5,0,3:2:0:0:
160,324,12349,1,0,3:2:0:0:
115,313,12493,1,0,3:2:0:0:
109,231,12637,6,0,L|138:80,1,153.333333333333,4|0,0:2|0:2,0:0:0:0:
309,208,13068,2,0,L|331:365,1,153.333333333333,8|0,1:2|0:2,0:0:0:0:
181,300,13500,2,0,P|109:275|20:302,1,153.333333333333,0|0,1:2|0:2,0:0:0:0:
236,177,13932,2,0,P|308:202|397:175,1,153.333333333333,8|0,1:2|0:2,0:0:0:0:
393,103,14363,5,0,1:2:0:0:
140,216,14651,1,0,0:2:0:0:
149,139,14795,1,8,1:2:0:0:
375,188,15083,1,0,0:2:0:0:
386,263,15227,1,0,1:2:0:0:
259,376,15514,1,0,0:2:0:0:
230,304,15658,2,0,L|254:211,2,76.6666666666667,8|0|0,1:2|0:0|0:2,0:0:0:0:
177,371,16090,6,0,L|89:358,1,76.6666666666667,0|0,1:2|0:0,0:0:0:0:
37,315,16378,1,0,0:2:0:0:
7,245,16522,2,0,P|10:208|38:175,1,76.6666666666667,8|0,1:2|0:0,0:0:0:0:
106,153,16809,1,0,0:2:0:0:
150,90,16953,2,0,P|150:52|120:13,1,76.6666666666667,0|0,1:2|0:0,0:0:0:0:
55,7,17241,1,0,0:2:0:0:
55,7,17385,1,8,1:2:0:0:
172,166,17673,1,0,0:2:0:0:
248,156,17817,6,0,L|327:143,1,76.6666666666667,0|0,1:2|0:0,0:0:0:0:
387,186,18104,1,0,0:2:0:0:
437,128,18248,2,0,L|529:112,1,76.6666666666667,8|0,1:2|0:0,0:0:0:0:
392,189,18536,1,0,0:2:0:0:
392,189,18680,1,0,1:2:0:0:
372,80,18824,2,0,L|355:-6,1,76.6666666666667,0|0,0:0|0:2,0:0:0:0:
209,52,19112,1,8,1:2:0:0:
188,125,19255,1,0,0:0:0:0:
263,112,19399,1,0,0:2:0:0:
238,184,19543,6,0,L|266:348,1,153.333333333333,4|0,1:2|0:2,0:0:0:0:
84,200,19975,2,0,L|107:42,1,153.333333333333,8|0,1:2|0:2,0:0:0:0:
9,279,20407,2,0,P|74:305|155:279,1,153.333333333333,0|0,1:2|0:2,0:0:0:0:
425,264,20838,2,0,P|360:238|279:264,1,153.333333333333,8|0,1:2|0:2,0:0:0:0:
263,335,21270,5,0,1:2:0:0:
175,206,21558,1,0,0:2:0:0:
191,131,21701,1,8,1:2:0:0:
32,78,21989,1,0,0:2:0:0:
48,3,22133,1,0,1:2:0:0:
209,56,22421,1,0,0:2:0:0:
191,131,22565,2,0,L|285:119,2,76.6666666666667,8|0|0,1:2|0:0|0:2,0:0:0:0:
119,79,22997,6,0,L|91:174,1,76.6666666666667,0|0,1:2|0:0,0:0:0:0:
89,228,23284,1,0,0:2:0:0:
125,295,23428,2,0,P|168:309|216:282,1,76.6666666666667,8|0,1:2|0:0,0:0:0:0:
262,260,23716,1,0,0:2:0:0:
337,247,23860,2,0,P|373:238|408:252,1,76.6666666666667,0|0,1:2|0:0,0:0:0:0:
457,320,24148,1,0,0:2:0:0:
457,320,24291,1,8,1:2:0:0:
482,162,24579,1,0,0:2:0:0:
414,125,24723,6,0,L|418:16,1,76.6666666666667,0|0,1:2|0:0,0:0:0:0:
348,12,25011,1,0,0:2:0:0:
259,107,25155,2,0,L|351:91,1,76.6666666666667,8|0,1:2|0:0,0:0:0:0:
419,129,25443,1,0,0:2:0:0:
419,129,25586,5,0,1:0:0:0:
393,199,25730,1,0,0:0:0:0:
373,273,25874,1,0,3:2:0:0:
315,221,26018,1,0,3:2:0:0:
294,294,26162,1,0,3:2:0:0:
351,346,26306,1,0,3:2:0:0:
426,334,26450,6,0,P|437:226|385:194,1,153.333333333333,0|0,1:2|0:2,0:0:0:0:
308,67,26881,2,0,L|315:233,1,153.333333333333,8|0,1:2|0:2,0:0:0:0:
208,339,27313,2,0,L|214:185,1,153.333333333333,0|0,1:2|0:2,0:0:0:0:
136,72,27745,2,0,P|95:133|121:202,1,153.333333333333,8|0,1:2|0:2,0:0:0:0:
291,287,28176,6,0,L|458:270,1,153.333333333333,0|0,1:2|0:2,0:0:0:0:
476,201,28608,1,8,1:2:0:0:
352,381,28896,1,0,0:2:0:0:
240,384,29040,6,0,B|176:354|176:354|72:378,1,153.333333333333,4|0,1:2|0:2,0:0:0:0:
0,146,29471,2,0,B|64:176|64:176|168:152,1,153.333333333333,12|0,1:2|0:2,0:0:0:0:
213,47,29903,6,0,P|138:114|166:185,1,153.333333333333,0|0,1:2|0:2,0:0:0:0:
219,320,30335,2,0,P|294:253|266:182,1,153.333333333333,8|0,1:2|0:2,0:0:0:0:
367,46,30766,2,0,P|442:113|414:184,1,153.333333333333,0|0,1:2|0:2,0:0:0:0:
356,319,31198,2,0,P|281:252|309:181,1,153.333333333333,8|0,1:2|0:2,0:0:0:0:
213,47,31630,6,0,L|382:45,1,153.333333333333,0|8,1:2|0:2,0:0:0:0:
434,80,32061,1,8,1:2:0:0:
416,227,32349,1,0,0:2:0:0:
416,227,32493,5,4,3:2:0:0:
473,169,32637,1,0,3:2:0:0:
490,243,32781,1,0,3:2:0:0:
375,297,32925,1,4,3:2:0:0:
401,368,33068,1,0,3:2:0:0:
326,355,33212,1,0,3:2:0:0:
450,309,33356,6,0,P|431:240|341:229,1,153.333333333333,2|0,1:2|0:2,0:0:0:0:
281,273,33788,2,0,P|211:296|148:250,1,153.333333333333,10|0,1:2|0:2,0:0:0:0:
98,176,34220,2,0,L|165:30,1,153.333333333333,2|0,1:2|0:2,0:0:0:0:
245,29,34651,5,8,1:2:0:0:
440,95,34939,1,2,0:2:0:0:
364,83,35083,1,2,1:2:0:0:
258,175,35371,1,2,0:2:0:0:
334,162,35515,1,10,1:2:0:0:
453,211,35802,1,2,0:2:0:0:
378,229,35946,2,0,L|352:316,1,76.6666666666667,2|0,1:2|0:0,0:0:0:0:
295,372,36234,1,2,0:2:0:0:
228,308,36378,2,0,P|149:294|67:324,1,153.333333333333,10|0,1:2|0:2,0:0:0:0:
0,384,36809,5,2,1:2:0:0:
97,210,37097,1,0,0:2:0:0:
97,210,37241,2,0,P|121:134|80:76,1,153.333333333333,8|0,1:2|0:2,0:0:0:0:
212,152,37673,2,0,B|262:155|262:155|308:133|308:133|365:135,1,153.333333333333,0|0,1:2|0:2,0:0:0:0:
472,58,38104,2,0,P|448:134|489:192,1,153.333333333333,8|0,1:2|0:2,0:0:0:0:
372,269,38536,6,0,B|322:266|322:266|276:288|276:288|219:286,1,153.333333333333,0|0,1:2|0:2,0:0:0:0:
166,337,38968,1,8,1:2:0:0:
60,214,39256,1,0,0:2:0:0:
40,287,39399,1,0,1:2:0:0:
120,78,39687,1,8,0:2:0:0:
159,143,39831,1,8,1:2:0:0:
309,76,40119,1,0,0:2:0:0:
284,164,40263,6,0,P|352:155|396:61,1,153.333333333333,2|0,1:2|0:2,0:0:0:0:
302,0,40694,2,0,L|137:43,1,153.333333333333,10|0,1:2|0:2,0:0:0:0:
28,182,41126,2,0,L|196:140,1,153.333333333333,2|0,1:2|0:2,0:0:0:0:
269,152,41558,1,10,1:2:0:0:
153,38,41845,1,2,0:2:0:0:
80,133,41989,6,0,P|66:222|111:288,1,153.333333333333,2|0,1:2|0:2,0:0:0:0:
117,371,42421,1,10,1:2:0:0:
264,269,42709,1,2,0:2:0:0:
234,339,42853,1,2,1:2:0:0:
332,160,43140,1,10,0:2:0:0:
350,237,43284,1,10,1:2:0:0:
364,38,43572,1,0,0:2:0:0:
424,106,43716,6,0,P|352:129|287:87,1,153.333333333333,2|0,1:2|0:2,0:0:0:0:
230,37,44148,1,8,1:2:0:0:
209,194,44435,1,0,0:2:0:0:
209,194,44579,2,0,L|214:348,1,153.333333333333,0|0,1:2|0:2,0:0:0:0:
299,303,45011,2,0,B|340:319|362:304|365:304|368:305|407:283|454:311,1,153.333333333333,8|0,1:2|0:2,0:0:0:0:
512,210,45443,6,0,L|493:48,1,153.333333333333,0|0,1:2|0:2,0:0:0:0:
358,109,45874,2,0,B|316:83|277:105|274:104|271:104|249:119|208:103,1,153.333333333333,8|0,1:2|0:2,0:0:0:0:
73,94,46306,1,0,3:2:0:0:
62,169,46450,1,0,3:2:0:0:
133,141,46594,1,0,3:2:0:0:
314,186,46738,1,10,3:2:0:0:
326,261,46882,1,2,3:2:0:0:
255,233,47026,1,2,3:2:0:0:
148,354,47169,6,0,P|222:376|260:313,1,153.333333333333,6|0,1:2|0:2,0:0:0:0:
186,81,47601,2,0,P|159:153|164:229,1,153.333333333333,8|0,1:2|0:2,0:0:0:0:
386,151,48033,2,0,P|290:145|288:207,1,153.333333333333,2|0,1:2|0:2,0:0:0:0:
284,280,48464,1,10,1:2:0:0:
480,353,48752,1,0,0:2:0:0:
504,267,48896,6,0,L|496:191,1,76.6666666666667,2|0,1:2|0:0,0:0:0:0:
383,294,49184,1,2,0:0:0:0:
393,384,49327,2,0,L|296:379,1,76.6666666666667,10|0,1:2|0:0,0:0:0:0:
225,377,49615,1,2,0:2:0:0:
225,377,49759,1,10,1:2:0:0:
82,253,50047,1,8,0:2:0:0:
29,328,50191,2,0,P|101:343|170:273,1,153.333333333333,8|0,1:2|0:2,0:0:0:0:
213,225,50622,5,2,1:2:0:0:
118,98,50910,1,2,0:2:0:0:
103,173,51054,1,10,1:2:0:0:
261,112,51342,1,0,0:2:0:0:
230,41,51486,1,2,1:2:0:0:
379,144,51774,1,2,0:2:0:0:
439,98,51917,2,0,P|478:86|525:99,2,76.6666666666667,8|0|2,1:2|0:0|0:2,0:0:0:0:
427,220,52349,5,4,1:2:0:0:
362,260,52493,1,0,0:0:0:0:
287,243,52637,1,0,0:2:0:0:
268,355,52781,5,12,1:2:0:0:
200,318,52925,1,0,0:0:0:0:
178,245,53069,1,0,0:2:0:0:
71,284,53212,5,4,1:2:0:0:
69,207,53356,1,0,0:0:0:0:
121,151,53500,1,0,0:2:0:0:
33,77,53644,5,12,1:2:0:0:
99,37,53788,1,0,0:0:0:0:
174,54,53932,1,0,0:2:0:0:
286,145,54076,6,0,P|371:130|416:73,1,153.333333333333,6|0,1:2|0:2,0:0:0:0:
402,5,54507,1,8,1:2:0:0:
254,71,54795,1,0,0:2:0:0:
254,71,54939,2,0,L|275:230,1,153.333333333333,2|0,1:2|0:2,0:0:0:0:
61,341,55371,2,0,L|71:173,1,153.333333333333,10|0,1:2|0:2,0:0:0:0:
144,17,55802,6,0,L|162:107,1,76.6666666666667,2|0,1:2|0:0,0:0:0:0:
193,233,56090,1,2,0:2:0:0:
248,306,56234,2,0,L|221:418,1,76.6666666666667,10|0,1:2|0:0,0:0:0:0:
159,314,56522,1,2,0:0:0:0:
159,314,56666,1,2,1:2:0:0:
369,243,56953,1,8,0:2:0:0:
437,183,57097,2,0,B|536:166,1,76.6666666666667,8|0,1:2|0:0,0:0:0:0:
453,282,57385,1,0,0:0:0:0:
366,251,57529,6,0,B|290:263,1,76.6666666666667,2|0,1:2|0:0,0:0:0:0:
225,329,57817,1,0,0:2:0:0:
139,293,57961,2,0,P|130:250|158:201,1,76.6666666666667,10|0,1:2|0:0,0:0:0:0:
0,143,58248,1,0,0:2:0:0:
0,143,58392,2,0,B|76:155,1,76.6666666666667,2|0,1:2|0:0,0:0:0:0:
141,221,58680,1,0,0:2:0:0:
227,185,58824,2,0,P|236:142|208:93,1,76.6666666666667,10|0,1:2|0:0,0:0:0:0:
322,20,59112,1,2,0:2:0:0:
403,63,59256,6,0,L|490:44,1,76.6666666666667,2|0,1:2|0:0,0:0:0:0:
504,134,59543,1,2,0:2:0:0:
439,199,59687,2,0,L|337:171,1,76.6666666666667,10|0,1:2|0:0,0:0:0:0:
276,151,59975,1,0,0:2:0:0:
276,151,60119,1,2,1:2:0:0:
118,266,60407,1,8,0:2:0:0:
12,189,60551,2,0,P|-15:272|48:363,1,153.333333333333,10|0,1:2|0:2,0:0:0:0:
124,367,60982,5,2,1:2:0:0:
198,347,61126,1,0,0:0:0:0:
274,352,61270,1,0,0:2:0:0:
431,285,61414,5,8,1:2:0:0:
357,265,61558,1,0,0:0:0:0:
281,270,61702,1,0,0:2:0:0:
119,209,61845,5,2,1:2:0:0:
193,189,61989,1,0,0:0:0:0:
269,194,62133,1,0,0:2:0:0:
433,129,62277,5,8,1:2:0:0:
359,109,62421,1,0,0:0:0:0:
283,114,62565,1,0,0:2:0:0:
395,207,62709,5,2,3:2:0:0:
398,37,62853,1,2,3:2:0:0:
477,204,62997,1,2,3:2:0:0:
285,210,63140,5,10,3:2:0:0:
433,129,63284,1,2,3:2:0:0:
328,280,63428,1,2,3:2:0:0:
227,118,63572,5,2,3:2:0:0:
46,320,64435,6,0,P|134:298|229:333,1,183.999994384766,6|0,1:2|0:2,0:0:0:0:
394,367,64867,2,0,P|306:345|211:380,1,183.999994384766,10|0,1:2|0:2,0:0:0:0:
49,213,65299,2,0,P|39:165|57:120,1,91.9999971923829,2|0,1:2|0:0,0:0:0:0:
133,80,65586,1,0,0:2:0:0:
214,122,65730,2,0,P|224:170|206:215,1,91.9999971923829,10|0,1:2|0:0,0:0:0:0:
134,261,66018,1,0,0:2:0:0:
176,342,66162,6,0,L|289:320,1,91.9999971923829,2|0,1:2|0:0,0:0:0:0:
412,274,66450,1,10,1:2:0:0:
377,354,66594,1,2,0:2:0:0:
305,119,66881,1,8,0:2:0:0:
355,186,67025,2,0,P|400:194|444:182,1,91.9999971923829,2|0,1:2|0:0,0:0:0:0:
393,44,67313,1,0,0:2:0:0:
393,44,67457,2,0,L|290:11,2,91.9999971923829,10|0|2,1:2|0:0|0:2,0:0:0:0:
184,92,67889,6,0,P|178:46|193:3,1,91.9999971923829,2|0,1:2|0:0,0:0:0:0:
260,145,68176,1,0,0:2:0:0:
252,237,68320,2,0,P|215:264|170:273,1,91.9999971923829,10|0,1:2|0:0,0:0:0:0:
76,370,68608,1,2,0:2:0:0:
29,290,68752,2,0,L|20:199,1,91.9999971923829,2|0,1:2|0:0,0:0:0:0:
8,107,69040,1,2,0:2:0:0:
8,107,69184,1,8,1:2:0:0:
176,182,69471,1,2,0:2:0:0:
170,273,69615,6,0,L|160:393,1,91.9999971923829,0|0,1:2|0:0,0:0:0:0:
81,319,69903,1,2,0:2:0:0:
265,236,70047,2,0,P|313:213|366:223,2,91.9999971923829,10|0|8,1:2|0:0|0:2,0:0:0:0:
404,293,70479,5,6,0:2:0:0:
441,210,70622,1,2,0:2:0:0:
400,128,70766,1,2,0:2:0:0:
210,150,70910,5,10,0:2:0:0:
173,233,71053,1,2,0:2:0:0:
214,315,71197,1,2,0:2:0:0:
441,210,71342,6,0,B|347:200|347:200|245:246,1,183.999994384766,6|0,1:2|0:2,0:0:0:0:
38,288,71774,2,0,B|132:278|132:278|234:324,1,183.999994384766,10|0,1:2|0:2,0:0:0:0:
464,375,72205,2,0,P|431:342|388:329,1,91.9999971923829,2|0,1:2|0:0,0:0:0:0:
297,352,72493,1,0,0:2:0:0:
212,313,72637,2,0,P|220:269|255:233,1,91.9999971923829,10|0,1:2|0:0,0:0:0:0:
343,231,72925,1,0,0:2:0:0:
293,154,73068,6,0,L|238:71,1,91.9999971923829,2|0,1:2|0:0,0:0:0:0:
150,63,73356,1,0,0:2:0:0:
83,127,73500,1,10,1:2:0:0:
9,347,73788,1,8,0:2:0:0:
76,220,73932,2,0,L|105:319,1,91.9999971923829,2|0,1:2|0:0,0:0:0:0:
202,374,74220,1,0,0:2:0:0:
202,374,74363,2,0,L|221:277,2,91.9999971923829,10|0|0,1:2|0:0|0:2,0:0:0:0:
331,291,74795,6,0,P|370:278|430:288,1,91.9999971923829,2|0,1:2|0:0,0:0:0:0:
507,384,75083,1,2,0:2:0:0:
512,292,75227,2,0,L|490:184,1,91.9999971923829,10|0,1:2|0:0,0:0:0:0:
358,120,75515,1,2,0:2:0:0:
312,200,75659,2,0,L|334:308,1,91.9999971923829,2|0,1:2|0:0,0:0:0:0:
262,352,75946,1,2,0:2:0:0:
262,352,76090,1,8,1:2:0:0:
241,131,76378,1,10,0:2:0:0:
218,221,76522,6,0,P|115:248|41:206,1,183.999994384766,0|0,1:2|0:2,0:0:0:0:
263,46,76953,2,0,L|363:26,1,91.9999971923829,10|0,1:2|0:2,0:0:0:0:
466,110,77241,1,10,0:2:0:0:
466,110,77385,5,6,0:2:0:0:
389,160,77529,1,2,0:2:0:0:
300,134,77673,1,2,0:2:0:0:
149,250,77817,5,10,0:2:0:0:
226,200,77961,1,2,0:2:0:0:
315,226,78105,1,2,0:2:0:0:
241,332,78248,6,0,L|42:340,1,183.999994384766,2|0,1:2|0:2,0:0:0:0:
226,200,78680,2,0,L|425:208,1,183.999994384766,10|0,1:2|0:2,0:0:0:0:
412,374,79112,2,0,P|364:384|319:366,1,91.9999971923829,2|0,1:2|0:0,0:0:0:0:
241,332,79399,1,0,0:2:0:0:
159,375,79543,2,0,P|148:330|162:287,1,91.9999971923829,10|0,1:2|0:0,0:0:0:0:
246,247,79831,1,0,0:2:0:0:
172,190,79975,6,0,L|192:91,1,91.9999971923829,2|0,1:2|0:0,0:0:0:0:
172,8,80263,1,2,0:2:0:0:
102,68,80407,1,10,1:2:0:0:
94,253,80694,1,10,0:2:0:0:
0,167,80838,2,0,P|47:160|104:179,1,91.9999971923829,2|0,1:2|0:0,0:0:0:0:
254,122,81126,1,0,0:2:0:0:
254,122,81270,2,0,P|236:69|236:23,2,91.9999971923829,10|0|2,1:2|0:0|0:2,0:0:0:0:
356,201,81702,6,0,L|465:157,1,91.9999971923829,2|0,1:2|0:0,0:0:0:0:
492,310,81989,1,2,0:2:0:0:
407,345,82133,2,0,P|402:294|425:246,1,91.9999971923829,10|0,1:2|0:0,0:0:0:0:
367,114,82421,1,2,0:2:0:0:
452,79,82565,2,0,P|457:130|434:178,1,91.9999971923829,2|0,1:2|0:0,0:0:0:0:
356,201,82853,1,2,0:2:0:0:
280,147,82997,1,10,1:2:0:0:
42,232,83284,1,0,0:2:0:0:
92,86,83428,6,0,P|111:127|113:172,1,91.9999971923829,0|0,1:2|0:2,1:2:0:0:
90,346,83716,1,10,0:2:0:0:
228,250,83860,2,0,P|289:241|338:259,2,91.9999971923829,8|0|2,1:2|0:0|0:2,0:0:0:0:
42,232,84292,5,6,0:2:0:0:
126,265,84435,1,2,0:2:0:0:
114,173,84579,1,2,0:2:0:0:
221,27,84723,1,10,0:2:0:0:
207,116,84866,1,2,0:2:0:0:
294,83,85010,1,2,0:2:0:0:
446,118,85155,6,0,P|486:229|451:284,1,183.999994384766,6|0,1:2|0:2,0:0:0:0:
265,360,85586,2,0,P|225:249|260:194,1,183.999994384766,10|0,1:2|0:2,0:0:0:0:
367,37,86018,2,0,L|354:128,1,91.9999971923829,2|0,1:2|0:0,0:0:0:0:
403,206,86306,1,0,0:2:0:0:
456,278,86450,2,0,L|443:369,1,91.9999971923829,8|0,1:2|0:0,0:0:0:0:
354,384,86738,1,0,0:2:0:0:
265,360,86881,6,0,P|212:359|176:379,1,91.9999971923829,2|0,1:2|0:0,0:0:0:0:
85,382,87169,1,2,0:2:0:0:
24,312,87313,1,10,1:2:0:0:
44,117,87601,1,10,0:2:0:0:
44,117,87745,2,0,L|126:50,2,91.9999971923829,2|0|2,1:2|0:0|0:2,0:0:0:0:
175,165,88176,6,0,L|328:159,1,91.9999971923829,10|0,1:2|0:0,0:0:0:0:
512,270,88463,1,0,0:0:0:0:
475,354,88608,2,0,P|429:377|387:371,1,91.9999971923829,2|0,1:2|0:0,0:0:0:0:
275,384,88896,1,2,0:2:0:0:
305,297,89040,2,0,P|259:293|220:315,1,91.9999971923829,10|0,1:2|0:0,0:0:0:0:
102,384,89327,1,2,0:2:0:0:
25,333,89471,6,0,L|-5:231,1,91.9999971923829,2|0,1:2|0:0,0:0:0:0:
31,143,89758,1,2,0:2:0:0:
116,174,89903,2,0,P|116:118|94:84,1,91.9999971923829,8|0,0:2|0:0,0:0:0:0:
12,61,90191,1,8,0:2:0:0:
12,61,90335,5,6,0:2:0:0:
81,0,90479,1,2,0:2:0:0:
99,89,90622,1,2,0:2:0:0:
272,52,90766,5,2,0:2:0:0:
331,122,90910,1,2,0:2:0:0:
361,35,91054,1,2,0:2:0:0:
147,171,91198,5,10,0:2:0:0:
165,262,91342,1,2,0:2:0:0:
234,201,91486,1,2,0:2:0:0:
434,153,91630,5,2,0:2:0:0:
404,240,91774,1,2,0:2:0:0:
493,223,91917,1,2,0:2:0:0:
467,340,92061,6,0,P|391:361|316:311,1,153.333333333333,4|0,1:2|0:2,0:0:0:0:
97,367,92493,2,0,P|173:388|240:335,1,153.333333333333,8|0,1:2|0:2,0:0:0:0:
165,143,92924,2,0,L|159:297,1,153.333333333333,0|0,1:2|0:2,0:0:0:0:
406,252,93356,2,0,L|400:98,1,153.333333333333,8|0,1:2|0:2,0:0:0:0:
268,230,93788,6,0,L|435:213,1,153.333333333333,0|0,1:2|0:2,0:0:0:0:
504,253,94219,1,8,1:2:0:0:
363,381,94507,1,0,0:2:0:0:
254,313,94651,2,0,B|173:294|173:294|109:324,1,153.333333333333,4|0,1:2|0:2,0:0:0:0:
0,128,95083,2,0,B|30:192|30:192|6:296,1,153.333333333333,12|0,1:2|0:2,0:0:0:0:
145,198,95515,5,0,1:2:0:0:
209,41,95802,1,0,0:2:0:0:
229,114,95946,1,8,1:2:0:0:
441,189,96234,1,0,0:2:0:0:
364,190,96378,1,0,1:2:0:0:
283,356,96665,1,0,0:2:0:0:
263,283,96809,1,8,1:2:0:0:
97,316,97097,1,0,0:2:0:0:
61,230,97241,6,0,B|137:235|137:235|188:303,1,153.333333333333,0|8,1:2|0:2,0:0:0:0:
173,384,97672,1,8,1:2:0:0:
376,200,97960,1,8,0:2:0:0:
376,200,98104,5,4,3:2:0:0:
385,123,98248,1,0,3:2:0:0:
393,46,98392,1,0,3:2:0:0:
253,141,98536,5,4,3:2:0:0:
261,218,98680,1,0,3:2:0:0:
270,295,98824,1,0,3:2:0:0:
155,363,98968,6,0,P|66:347|66:278,1,153.333333333333,0|0,1:2|0:2,0:0:0:0:
357,363,99399,2,0,P|446:347|446:278,1,153.333333333333,8|0,1:2|0:2,0:0:0:0:
258,220,99831,2,0,L|95:202,1,153.333333333333,0|0,1:2|0:2,0:0:0:0:
259,106,100263,2,0,L|422:88,1,153.333333333333,8|0,1:2|0:2,0:0:0:0:
259,14,100694,6,0,P|169:99|205:167,1,153.333333333333,0|0,1:2|0:2,0:0:0:0:
214,197,101126,1,8,1:2:0:0:
426,90,101414,1,0,0:2:0:0:
389,198,101558,2,0,B|386:274|386:274|468:359,1,153.333333333333,4|0,1:2|0:2,0:0:0:0:
143,329,101989,2,0,B|87:276|87:276|-31:282,1,153.333333333333,12|0,1:2|0:2,0:0:0:0:
57,368,102421,5,0,1:2:0:0:
111,181,102709,1,0,0:2:0:0:
35,193,102853,1,8,1:2:0:0:
213,77,103140,1,0,0:2:0:0:
139,54,103284,1,0,1:2:0:0:
288,202,103572,1,0,0:2:0:0:
220,238,103716,1,8,1:2:0:0:
403,329,104004,1,0,0:2:0:0:
490,357,104148,6,0,P|482:283|421:241,1,153.333333333333,0|8,1:2|0:2,0:0:0:0:
335,274,104579,1,8,1:2:0:0:
161,355,104867,1,8,0:2:0:0:
161,355,105011,1,4,0:2:0:0:
97,288,105155,1,0,0:2:0:0:
186,268,105299,1,0,0:2:0:0:
275,111,105443,1,12,0:2:0:0:
300,198,105587,1,0,0:2:0:0:
211,178,105731,1,0,0:2:0:0:
386,34,105874,5,2,0:2:0:0:
411,121,106018,1,0,0:2:0:0:
436,208,106162,1,0,0:2:0:0:
307,362,106306,5,10,0:2:0:0:
327,292,106450,1,0,0:2:0:0:
347,222,106594,1,0,0:2:0:0:
202,121,106738,5,2,0:2:0:0:
214,164,106882,1,0,0:2:0:0:
227,208,107026,1,0,0:2:0:0:
79,274,107170,5,10,0:2:0:0:
86,252,107314,1,2,0:2:0:0:
92,229,107458,1,2,0:2:0:0:
28,171,107601,5,6,0:2:0:0:
256,192,107745,12,0,114507,0:2:0:0:
