osu file format v14

[General]
AudioFilename: audio.mp3
AudioLeadIn: 0
PreviewTime: 64004
Countdown: 0
SampleSet: Soft
StackLeniency: 0.3
Mode: 0
LetterboxInBreaks: 0
WidescreenStoryboard: 1

[Editor]
Bookmarks: 96809,97097,97241,97673,97961,98104
DistanceSpacing: 1
BeatDivisor: 3
GridSize: 32
TimelineZoom: 1.7

[Metadata]
Title:Freaks Romanticism
TitleUnicode:フリークス・ロマンチシズム
Artist:Casandra
ArtistUnicode:カサンドラ
Creator:kwk
Version:Catshy's Insane
Source:純情化憐フリークス!
Tags:Lafayla Catshy rvmathew karen eroge waltz visual novel vn opening wonder fools junjou
BeatmapID:1528937
BeatmapSetID:722312

[Difficulty]
HPDrainRate:5.5
CircleSize:3.5
OverallDifficulty:8.2
ApproachRate:8.5
SliderMultiplier:2.3
SliderTickRate:1

[Events]
//Background and Video events
0,0,"freaks.jpg",0,0
//Break Periods
//Storyboard Layer 0 (Background)
//Storyboard Layer 1 (Fail)
//Storyboard Layer 2 (Pass)
//Storyboard Layer 3 (Foreground)
//Storyboard Sound Samples

[TimingPoints]
551,431.654676258993,4,2,0,40,1,0
10910,-100,4,2,0,40,0,0
11342,-100,4,2,0,40,0,0
11774,-100,4,2,0,70,0,0
12205,-100,4,2,0,70,0,0
12637,-100,4,2,0,70,0,0
15658,-133.333333333333,4,2,0,70,0,0
16090,-100,4,2,0,70,0,0
25586,-100,4,2,0,70,0,0
26018,-100,4,2,0,70,0,0
26450,-100,4,2,0,50,0,0
29040,-76.9230769230769,4,2,0,50,0,0
29903,-100,4,2,0,50,0,0
46594,-100,4,2,0,50,0,0
46738,-100,4,2,0,50,0,0
47169,-100,4,2,0,70,0,0
58392,-125,4,2,0,70,0,0
59256,-100,4,2,0,70,0,0
64435,-83.3333333333333,4,2,0,85,0,1
92061,-100,4,2,0,70,0,0
94651,-76.9230769230769,4,2,0,70,0,0
95515,-100,4,2,0,70,0,0
98104,-76.9230769230769,4,2,0,70,0,0
98968,-100,4,2,0,70,0,0
101558,-76.9230769230769,4,2,0,70,0,0
102421,-100,4,2,0,70,0,0
105011,-83.3333333333333,4,2,0,70,0,0
105874,-100,4,2,0,70,0,0
106450,-100,4,2,0,70,0,0
106881,-100,4,2,0,70,0,0
107313,-100,4,2,0,70,0,0
107601,-50,4,2,0,70,0,0
114507,-50,4,2,0,25,0,0

[Colours]
Combo1 : 255,255,166
Combo2 : 255,128,128
Combo3 : 0,255,255
Combo4 : 0,255,128

[HitObjects]
354,116,10910,5,2,0:2:0:0:
357,154,11054,1,2,0:2:0:0:
360,192,11198,1,2,0:2:0:0:
286,172,11342,1,0,3:2:0:0:
283,139,11486,1,0,3:2:0:0:
280,107,11630,1,0,3:2:0:0:
207,99,11774,5,0,3:2:0:0:
210,126,11917,1,0,3:2:0:0:
213,155,12061,1,0,3:2:0:0:
138,140,12205,1,0,3:2:0:0:
135,115,12349,1,0,3:2:0:0:
132,92,12493,1,0,3:2:0:0:
92,253,12637,6,0,P|176:266|238:211,1,153.333333333333,4|0,0:2|0:2,0:0:0:0:
283,139,13068,2,0,P|199:126|137:181,1,153.333333333333,8|0,1:2|0:2,0:0:0:0:
86,288,13500,2,0,P|170:301|232:246,1,153.333333333333,0|0,1:2|0:2,0:0:0:0:
277,174,13932,2,0,P|193:161|131:216,1,153.333333333333,8|0,1:2|0:2,0:0:0:0:
222,263,14363,5,0,1:2:0:0:
122,112,14651,1,0,0:2:0:0:
122,112,14795,1,8,1:2:0:0:
244,282,15083,5,0,0:2:0:0:
244,282,15227,1,0,1:2:0:0:
190,163,15515,1,0,0:2:0:0:
90,189,15658,2,0,P|70:182|28:192,1,57.500002193451,8|0,1:2|0:0,0:0:0:0:
0,92,15946,1,0,0:2:0:0:
84,59,16090,6,0,B|117:80|117:80|165:72,1,76.6666666666667,0|0,1:2|0:0,0:0:0:0:
283,53,16378,1,0,0:2:0:0:
283,53,16522,2,0,B|247:71|247:71|230:116,1,76.6666666666667,8|0,1:2|0:0,0:0:0:0:
188,233,16809,1,0,0:2:0:0:
188,233,16953,2,0,B|189:193|189:193|159:155,1,76.6666666666667,0|0,1:2|0:0,0:0:0:0:
73,205,17241,1,0,0:2:0:0:
73,205,17385,1,0,1:2:0:0:
260,232,17673,5,0,0:2:0:0:
260,232,17817,2,0,P|221:222|175:242,1,76.6666666666667,0|0,1:2|0:0,0:0:0:0:
360,168,18104,1,0,0:2:0:0:
360,168,18248,2,0,P|399:178|445:158,1,76.6666666666667,8|0,1:2|0:0,0:0:0:0:
392,93,18536,5,0,0:2:0:0:
392,93,18680,2,0,L|399:15,2,76.6666666666667,0|0|0,1:2|0:0|0:2,0:0:0:0:
310,102,19112,1,8,1:2:0:0:
360,168,19256,1,0,0:0:0:0:
325,245,19399,1,0,0:2:0:0:
202,282,19543,6,0,P|172:213|191:131,1,153.333333333333,4|0,1:2|0:2,0:0:0:0:
310,102,19975,2,0,P|340:171|321:253,1,153.333333333333,8|0,1:2|0:2,0:0:0:0:
218,266,20407,2,0,P|188:197|207:115,1,153.333333333333,0|0,1:2|0:2,0:0:0:0:
326,86,20838,2,0,P|356:155|337:237,1,153.333333333333,8|0,1:2|0:2,0:0:0:0:
188,202,21270,5,0,1:2:0:0:
326,86,21558,1,0,0:2:0:0:
326,86,21702,1,8,1:2:0:0:
179,215,21989,5,0,0:2:0:0:
179,216,22133,1,0,1:2:0:0:
243,45,22421,1,0,0:2:0:0:
190,109,22565,2,0,P|171:115|128:106,1,57.500002193451,0|0,1:2|0:0,0:0:0:0:
83,45,22853,1,0,0:2:0:0:
25,108,22997,6,0,L|18:190,1,76.6666666666667,0|0,1:2|0:0,0:0:0:0:
96,233,23284,1,0,0:2:0:0:
96,233,23428,2,0,L|103:156,1,76.6666666666667,8|0,1:2|0:0,0:0:0:0:
6,102,23716,1,0,0:2:0:0:
6,102,23860,2,0,L|-1:184,1,76.6666666666667,0|0,1:2|0:0,0:0:0:0:
51,311,24148,1,0,0:2:0:0:
51,311,24292,1,8,1:2:0:0:
244,261,24579,5,0,0:2:0:0:
163,241,24723,2,0,B|146:208|146:208|157:169,1,76.6666666666667,0|0,1:2|0:0,0:0:0:0:
188,96,25011,1,0,0:0:0:0:
226,27,25155,1,8,1:2:0:0:
281,84,25299,1,0,0:0:0:0:
335,139,25443,1,0,0:2:0:0:
415,117,25586,5,0,1:2:0:0:
420,92,25730,1,0,1:2:0:0:
425,69,25874,1,0,1:2:0:0:
504,97,26018,2,0,L|485:188,1,76.6666666666667,8|0,0:0|0:0,0:0:0:0:
472,261,26306,1,0,3:2:0:0:
387,303,26450,6,0,B|347:292|347:292|313:305,2,76.6666666666667,6|0|0,0:0|0:0|0:0,0:0:0:0:
494,314,26881,2,0,L|412:292,1,76.6666666666667,8|0,0:0|0:0,0:0:0:0:
350,378,27169,1,0,0:0:0:0:
233,255,27313,6,0,B|261:226|261:226|267:189,2,76.6666666666667,2|0|0,0:0|0:0|0:0,0:0:0:0:
181,331,27745,2,0,L|241:270,1,76.6666666666667,8|0,0:0|0:0,0:0:0:0:
187,184,28033,1,0,0:0:0:0:
350,150,28176,6,0,B|360:189|360:189|389:212,2,76.6666666666667,2|0|0,0:0|0:0|0:0,0:0:0:0:
303,74,28608,2,0,L|324:156,1,76.6666666666667,8|0,0:0|0:0,0:0:0:0:
428,136,28896,1,2,0:0:0:0:
249,205,29040,6,0,B|176:198|176:198|128:217|128:217|44:209,1,199.333324208578,4|0,1:2|0:2,0:0:0:0:
11,244,29471,2,0,B|86:251|86:251|134:232|134:232|207:239,1,199.333324208578,12|0,1:2|0:2,0:0:0:0:
316,124,29903,6,0,B|351:109|351:109|397:120,2,76.6666666666667,6|0|0,0:0|0:0|0:0,0:0:0:0:
246,70,30335,2,0,L|168:51,1,76.6666666666667,8|0,0:0|0:0,0:0:0:0:
330,28,30622,1,0,0:0:0:0:
231,160,30766,6,0,B|196:175|196:175|158:167,2,76.6666666666667,2|0|0,0:0|0:0|0:0,0:0:0:0:
301,214,31198,2,0,L|375:233,1,76.6666666666667,8|0,0:0|0:0,0:0:0:0:
217,256,31486,1,0,0:0:0:0:
170,366,31630,6,0,B|205:351|205:351|242:359,1,76.6666666666667,2|0,0:0|0:0,0:0:0:0:
120,285,31917,1,2,0:0:0:0:
120,285,32061,2,0,L|45:266,1,76.6666666666667,8|0,0:0|0:0,0:0:0:0:
0,360,32349,1,2,0:0:0:0:
141,206,32493,5,8,0:0:0:0:
39,135,32637,1,2,0:0:0:0:
30,258,32781,1,2,0:0:0:0:
138,188,32925,5,8,0:0:0:0:
24,144,33068,1,8,0:0:0:0:
45,266,33212,1,8,0:0:0:0:
290,174,33356,6,0,L|117:189,1,153.333333333333,2|0,1:2|0:2,0:0:0:0:
57,136,33788,2,0,L|210:122,1,153.333333333333,10|0,1:2|0:2,0:0:0:0:
343,136,34220,2,0,L|170:151,1,153.333333333333,2|0,1:2|0:2,0:0:0:0:
116,96,34651,2,0,L|193:91,1,76.6666666666667,8|0,1:2|0:0,0:0:0:0:
313,44,34939,1,2,0:2:0:0:
412,127,35083,6,0,B|385:146|385:146|327:132,1,76.6666666666667,2|0,1:2|0:0,0:0:0:0:
231,126,35371,1,2,0:2:0:0:
231,126,35515,2,0,B|261:139|261:139|278:197,1,76.6666666666667,10|0,1:2|0:0,0:0:0:0:
295,284,35802,1,2,0:2:0:0:
167,263,35946,2,0,B|163:230|163:230|204:186,1,76.6666666666667,2|0,1:2|0:0,0:0:0:0:
448,272,36234,1,2,0:2:0:0:
448,272,36378,2,0,L|292:285,1,153.333333333333,10|0,1:2|0:2,0:0:0:0:
173,186,36809,6,0,L|166:268,1,76.6666666666667,2|0,1:2|0:0,0:0:0:0:
251,192,37097,1,0,0:2:0:0:
179,114,37241,2,0,B|155:184|155:184|166:266,1,153.333333333333,8|0,1:2|0:2,0:0:0:0:
287,263,37673,6,0,L|363:227,1,76.6666666666667,0|0,1:2|0:0,0:0:0:0:
251,192,37961,1,0,0:2:0:0:
220,293,38104,2,0,B|294:278|294:278|359:228,1,153.333333333333,8|0,1:2|0:2,0:0:0:0:
296,127,38536,6,0,L|229:79,1,76.6666666666667,0|0,1:2|0:0,0:0:0:0:
251,192,38824,1,0,0:2:0:0:
354,169,38968,2,0,B|306:112|306:112|229:81,1,153.333333333333,8|0,1:2|0:2,0:0:0:0:
251,192,39399,6,0,L|244:274,1,76.6666666666667,0|0,1:2|0:0,0:0:0:0:
156,117,39687,1,8,0:2:0:0:
157,116,39831,2,0,L|150:193,1,76.6666666666667,8|0,1:2|0:0,0:0:0:0:
59,343,40119,5,0,0:2:0:0:
59,343,40263,2,0,P|78:233|50:190,1,153.333333333333,2|0,1:2|0:2,0:0:0:0:
101,105,40694,2,0,P|187:176|239:173,1,153.333333333333,10|0,1:2|0:2,0:0:0:0:
281,257,41126,2,0,P|177:295|153:341,1,153.333333333333,2|0,1:2|0:2,0:0:0:0:
6,291,41558,2,0,P|50:286|83:297,1,76.6666666666667,10|0,1:2|0:0,0:0:0:0:
63,384,41845,5,2,0:2:0:0:
63,384,41989,2,0,P|79:297|63:221,1,153.333333333333,2|0,1:2|0:2,0:0:0:0:
0,139,42421,2,0,P|43:143|76:132,1,76.6666666666667,10|0,1:2|0:0,0:0:0:0:
237,153,42709,1,2,0:2:0:0:
237,153,42853,2,0,P|199:148|162:158,1,76.6666666666667,2|0,1:2|0:0,0:0:0:0:
131,233,43140,1,10,0:2:0:0:
131,233,43284,2,0,P|114:146|131:70,1,153.333333333333,10|0,1:2|0:2,0:0:0:0:
287,85,43716,6,0,P|252:68|214:71,1,76.6666666666667,2|0,1:2|0:0,0:0:0:0:
237,153,44004,1,0,0:2:0:0:
344,93,44148,2,0,P|316:60|206:84,1,153.333333333333,8|0,1:2|0:2,0:0:0:0:
271,231,44579,6,0,P|303:209|319:174,1,76.6666666666667,2|0,1:2|0:0,0:0:0:0:
237,153,44867,1,0,0:2:0:0:
235,276,45011,2,0,P|277:268|311:160,1,153.333333333333,8|0,1:2|0:2,0:0:0:0:
154,144,45443,6,0,P|156:182|178:214,1,76.6666666666667,2|0,1:2|0:0,0:0:0:0:
237,153,45731,1,0,0:2:0:0:
132,90,45875,2,0,P|117:130|193:214,1,153.333333333333,8|0,1:2|0:2,0:0:0:0:
321,86,46306,5,12,3:2:0:0:
374,20,46450,1,0,3:2:0:0:
374,20,46594,1,0,3:2:0:0:
449,74,46738,1,0,3:2:0:0:
452,97,46881,1,0,3:2:0:0:
455,122,47025,1,0,3:2:0:0:
461,237,47169,6,0,L|375:227,1,76.6666666666667,6|0,1:2|0:0,0:0:0:0:
230,350,47457,1,0,0:2:0:0:
226,369,47601,1,8,1:2:0:0:
110,133,48033,2,0,L|196:124,1,76.6666666666667,2|0,1:2|0:0,0:0:0:0:
380,209,48320,1,0,0:2:0:0:
384,228,48464,1,8,1:2:0:0:
372,35,48896,6,0,P|302:18|275:30,1,76.6666666666667,2|0,1:2|0:0,0:0:0:0:
171,101,49184,1,2,0:2:0:0:
171,101,49327,2,0,P|238:74|253:49,1,76.6666666666667,10|0,1:2|0:0,0:0:0:0:
107,33,49615,1,2,0:2:0:0:
67,111,49759,2,0,L|60:189,1,76.6666666666667,10|0,1:2|0:0,0:0:0:0:
127,233,50047,1,8,0:2:0:0:
176,169,50191,2,0,L|162:16,1,153.333333333333,8|0,1:2|0:2,0:0:0:0:
255,21,50622,6,0,P|294:31|336:15,1,76.6666666666667,2|0,1:2|0:0,0:0:0:0:
421,35,50910,1,2,0:2:0:0:
356,105,51054,2,0,P|333:177|346:252,1,153.333333333333,10|0,1:2|0:2,0:0:0:0:
263,307,51486,2,0,P|224:297|182:313,1,76.6666666666667,2|0,1:2|0:0,0:0:0:0:
97,293,51774,1,2,0:2:0:0:
162,223,51917,2,0,P|183:172|167:122,1,76.6666666666667,8|0,1:2|0:0,0:0:0:0:
269,176,52205,5,2,0:2:0:0:
269,176,52349,2,0,L|281:251,1,76.6666666666667,4|0,1:2|0:0,0:0:0:0:
252,92,52637,1,2,0:2:0:0:
172,65,52781,2,0,L|100:39,1,76.6666666666667,12|0,1:2|0:0,0:0:0:0:
252,92,53068,1,2,0:2:0:0:
377,0,53212,2,0,L|317:40,1,76.6666666666667,4|0,1:2|0:0,0:0:0:0:
252,92,53500,1,2,0:2:0:0:
236,9,53644,5,12,1:2:0:0:
333,121,53788,1,0,1:0:0:0:
188,148,53932,1,0,1:2:0:0:
354,58,54076,6,0,L|363:144,1,76.6666666666667,6|0,1:2|0:0,0:0:0:0:
289,297,54363,1,0,0:2:0:0:
270,293,54507,1,8,1:2:0:0:
444,336,54939,2,0,L|453:250,1,76.6666666666667,2|0,1:2|0:0,0:0:0:0:
465,75,55227,1,0,0:2:0:0:
446,79,55371,1,10,1:2:0:0:
153,192,55802,6,0,L|249:183,1,76.6666666666667,2|0,1:2|0:0,0:0:0:0:
296,250,56090,1,2,0:2:0:0:
360,328,56234,2,0,L|283:335,1,76.6666666666667,10|0,1:2|0:0,0:0:0:0:
208,276,56522,1,0,0:2:0:0:
124,308,56666,2,0,L|117:386,1,76.6666666666667,2|0,1:2|0:0,0:0:0:0:
46,203,56953,1,8,0:2:0:0:
46,203,57097,2,0,L|40:280,1,76.6666666666667,8|0,1:2|0:0,0:0:0:0:
216,351,57385,5,0,0:2:0:0:
216,351,57529,2,0,P|293:376|376:335,1,153.333333333333,2|0,1:2|0:2,0:0:0:0:
363,344,57961,2,0,P|286:319|203:360,1,153.333333333333,10|0,1:2|0:2,0:0:0:0:
309,211,58392,2,0,P|373:229|442:197,1,122.666666666667,2|2,1:2|0:2,0:0:0:0:
431,202,58824,2,0,P|367:184|298:216,1,122.666666666667,10|2,1:2|0:2,0:0:0:0:
446,355,59256,6,0,L|430:182,1,153.333333333333,2|2,1:2|0:2,0:0:0:0:
353,117,59687,2,0,L|337:290,1,153.333333333333,2|2,1:2|0:2,0:0:0:0:
189,172,60119,2,0,L|182:95,1,76.6666666666667,2|0,1:2|0:0,0:0:0:0:
281,69,60407,1,8,0:2:0:0:
281,69,60551,2,0,L|265:244,1,153.333333333333,10|0,1:2|0:2,0:0:0:0:
130,287,60982,6,0,L|226:278,1,76.6666666666667,2|0,1:2|0:0,0:0:0:0:
325,363,61270,1,0,0:2:0:0:
325,363,61414,2,0,L|269:283,1,76.6666666666667,8|0,1:2|0:0,0:0:0:0:
300,152,61702,1,0,0:2:0:0:
300,152,61845,2,0,L|259:239,1,76.6666666666667,2|0,1:2|0:0,0:0:0:0:
108,189,62133,1,0,0:2:0:0:
108,189,62277,2,0,P|162:123|232:147,1,153.333333333333,8|0,1:2|0:2,0:0:0:0:
290,273,62709,5,2,3:2:0:0:
220,135,62853,1,2,3:2:0:0:
372,157,62997,1,2,3:2:0:0:
266,268,63140,5,10,3:2:0:0:
236,117,63284,1,2,3:2:0:0:
376,178,63428,1,2,3:2:0:0:
246,258,63572,5,2,3:2:0:0:
138,72,64435,6,0,P|180:123|292:99,1,183.999994384766,6|0,0:2|0:2,0:0:0:0:
401,220,64867,2,0,P|317:193|252:253,1,183.999994384766,10|0,0:2|0:2,0:0:0:0:
340,369,65299,2,0,P|350:321|332:276,1,91.9999971923829,2|0,0:2|0:0,0:0:0:0:
177,374,65586,1,0,0:2:0:0:
177,374,65730,2,0,P|163:331|174:287,1,91.9999971923829,10|0,0:2|0:0,0:0:0:0:
253,223,66018,1,0,0:2:0:0:
211,136,66162,6,0,P|169:153|127:139,1,91.9999971923829,2|0,0:2|0:0,0:0:0:0:
68,247,66450,1,2,0:2:0:0:
0,159,66594,1,10,0:2:0:0:
130,326,66881,1,8,0:2:0:0:
164,244,67025,2,0,P|206:229|251:242,1,91.9999971923829,2|0,0:2|0:0,0:0:0:0:
302,305,67313,1,0,0:2:0:0:
359,242,67457,2,0,P|401:227|446:240,1,91.9999971923829,10|0,0:2|0:0,0:0:0:0:
505,301,67745,1,2,0:2:0:0:
472,157,67889,6,0,P|457:114|474:72,1,91.9999971923829,2|0,0:2|0:0,0:0:0:0:
335,116,68176,1,0,0:2:0:0:
335,116,68320,2,0,P|349:158|332:200,1,91.9999971923829,10|0,0:2|0:0,0:0:0:0:
323,324,68608,1,2,0:2:0:0:
323,324,68752,2,0,L|217:336,1,91.9999971923829,8|0,0:0|0:0,0:0:0:0:
155,280,69040,1,2,0:2:0:0:
76,319,69184,1,8,0:2:0:0:
214,155,69471,1,2,0:2:0:0:
240,243,69615,6,0,L|230:363,1,91.9999971923829,0|0,0:2|0:0,0:0:0:0:
313,380,69903,1,2,0:2:0:0:
332,234,70047,2,0,L|322:114,2,91.9999971923829,10|0|8,0:2|0:0|0:2,0:0:0:0:
389,307,70479,5,6,0:2:0:0:
438,241,70622,1,2,0:2:0:0:
433,158,70766,1,2,0:2:0:0:
416,332,70910,5,10,0:2:0:0:
480,247,71054,1,2,0:2:0:0:
473,139,71198,1,2,0:2:0:0:
350,193,71342,6,0,P|308:244|196:220,1,183.999994384766,6|0,0:2|0:2,0:0:0:0:
87,341,71774,2,0,P|170:314|235:374,1,183.999994384766,10|0,0:2|0:2,0:0:0:0:
355,384,72205,2,0,P|340:341|357:299,1,91.9999971923829,2|0,0:2|0:0,0:0:0:0:
420,201,72493,1,0,0:2:0:0:
300,124,72637,2,0,P|314:166|297:208,1,91.9999971923829,10|0,0:2|0:0,0:0:0:0:
242,323,72925,5,0,0:2:0:0:
242,323,73068,2,0,P|283:306|326:320,1,91.9999971923829,2|0,0:2|0:0,0:0:0:0:
487,271,73356,1,0,0:2:0:0:
424,368,73500,1,10,0:2:0:0:
468,125,73788,1,8,0:2:0:0:
424,215,73932,2,0,P|382:230|333:222,1,91.9999971923829,2|0,0:2|0:0,0:0:0:0:
233,222,74220,1,0,0:2:0:0:
180,140,74363,2,0,P|134:133|91:148,1,91.9999971923829,10|0,0:2|0:0,0:0:0:0:
31,228,74651,1,0,0:2:0:0:
50,318,74795,6,0,L|146:327,1,91.9999971923829,2|0,0:2|0:0,0:0:0:0:
319,342,75083,1,2,0:2:0:0:
319,342,75227,2,0,L|297:234,1,91.9999971923829,10|0,0:2|0:0,0:0:0:0:
332,99,75515,1,2,0:2:0:0:
332,99,75658,2,0,L|354:207,1,91.9999971923829,2|0,0:2|0:0,0:0:0:0:
449,329,75946,1,2,0:2:0:0:
449,329,76090,1,8,0:2:0:0:
510,178,76378,5,10,0:2:0:0:
510,178,76522,2,0,P|413:222|333:163,1,183.999994384766,0|0,0:2|0:2,0:0:0:0:
297,82,76953,2,0,P|343:69|392:90,2,91.9999971923829,10|0|10,0:2|0:2|0:2,0:0:0:0:
202,146,77385,5,6,0:2:0:0:
268,195,77529,1,2,0:2:0:0:
351,190,77673,1,2,0:2:0:0:
177,173,77817,5,10,0:2:0:0:
262,237,77961,1,2,0:2:0:0:
370,230,78104,1,2,0:2:0:0:
451,318,78248,6,0,P|380:341|266:317,1,183.999994384766,2|0,0:2|0:2,0:0:0:0:
193,233,78680,2,0,P|264:210|378:234,1,183.999994384766,10|0,0:2|0:2,0:0:0:0:
486,116,79112,2,0,P|441:129|390:117,1,91.9999971923829,2|0,0:2|0:0,0:0:0:0:
326,79,79399,1,0,0:2:0:0:
246,113,79543,2,0,P|200:103|150:120,1,91.9999971923829,10|0,0:2|0:0,0:0:0:0:
204,183,79831,1,0,0:2:0:0:
314,242,79975,6,0,P|326:283|310:330,1,91.9999971923829,2|0,0:2|0:0,0:0:0:0:
156,311,80263,1,2,0:2:0:0:
247,283,80407,1,10,0:2:0:0:
83,211,80694,1,10,0:2:0:0:
83,211,80838,2,0,P|126:223|169:209,1,91.9999971923829,2|0,0:2|0:0,0:0:0:0:
296,145,81126,1,0,0:2:0:0:
296,145,81270,2,0,P|349:135|401:159,2,91.9999971923829,10|0|2,0:2|0:0|0:2,0:0:0:0:
294,296,81702,6,0,B|329:267|329:267|342:201,1,91.9999971923829,2|0,0:2|0:0,0:0:0:0:
498,296,81989,1,2,0:2:0:0:
434,357,82133,2,0,B|409:318|409:318|421:251,1,91.9999971923829,10|0,0:2|0:0,0:0:0:0:
491,148,82421,1,2,0:2:0:0:
423,102,82565,2,0,B|402:142|402:142|419:208,1,91.9999971923829,2|0,0:2|0:0,0:0:0:0:
337,221,82853,1,2,0:2:0:0:
254,210,82997,1,10,0:2:0:0:
147,342,83284,5,0,0:2:0:0:
146,341,83428,2,0,P|154:287|128:239,1,91.9999971923829,2|0,0:2|0:2,0:0:0:0:
73,304,83716,1,10,0:2:0:0:
241,305,83860,2,8,L|331:312,2,91.9999971923829,8|0|2,0:2|0:0|0:2,0:0:0:0:
140,253,84292,5,6,0:2:0:0:
109,176,84435,1,2,0:2:0:0:
136,97,84579,1,2,0:2:0:0:
107,270,84723,5,10,0:2:0:0:
67,171,84867,1,2,0:2:0:0:
102,68,85011,1,2,0:2:0:0:
271,87,85155,6,0,P|311:198|276:253,1,183.999994384766,6|0,0:2|0:2,0:0:0:0:
235,336,85586,2,0,P|195:225|230:170,1,183.999994384766,10|0,0:2|0:2,0:0:0:0:
368,243,86018,2,0,P|333:257|267:237,1,91.9999971923829,2|0,0:2|0:0,0:0:0:0:
398,147,86306,1,0,0:2:0:0:
398,147,86450,2,0,P|433:161|499:141,1,91.9999971923829,8|0,0:2|0:0,0:0:0:0:
318,62,86738,5,0,0:2:0:0:
318,62,86881,2,0,L|307:178,1,91.9999971923829,2|0,0:2|0:0,0:0:0:0:
242,218,87169,1,2,0:2:0:0:
151,204,87313,1,10,0:2:0:0:
35,322,87601,1,10,0:2:0:0:
35,322,87745,2,0,P|80:308|131:326,2,91.9999971923829,2|0|2,0:2|0:0|0:2,0:0:0:0:
66,216,88176,2,0,L|73:125,1,91.9999971923829,10|0,0:2|0:0,0:0:0:0:
174,75,88464,1,0,0:0:0:0:
288,144,88608,6,0,P|244:163|202:157,1,91.9999971923829,2|0,0:2|0:0,0:0:0:0:
147,260,88896,1,2,0:2:0:0:
147,260,89040,2,0,P|189:245|234:254,1,91.9999971923829,10|0,0:2|0:0,0:0:0:0:
325,341,89327,1,2,0:2:0:0:
325,341,89471,2,0,B|367:354|367:354|420:340,1,91.9999971923829,2|0,0:2|0:0,0:0:0:0:
475,252,89759,1,2,0:2:0:0:
475,252,89903,2,0,B|433:239|433:239|380:253,2,91.9999971923829,8|0|8,0:2|0:0|0:2,0:0:0:0:
482,165,90335,5,6,0:2:0:0:
408,128,90479,1,2,0:2:0:0:
334,165,90622,1,2,0:2:0:0:
238,251,90766,5,10,0:2:0:0:
312,288,90910,1,2,0:2:0:0:
386,251,91054,1,2,0:2:0:0:
495,158,91198,5,2,0:2:0:0:
407,114,91342,1,2,0:2:0:0:
318,158,91486,1,2,0:2:0:0:
224,262,91630,5,10,0:2:0:0:
312,306,91774,1,0,0:0:0:0:
401,262,91917,1,2,0:2:0:0:
377,100,92061,6,0,B|337:110|337:110|303:97,2,76.6666666666667,6|0|0,0:0|0:0|0:0,0:0:0:0:
481,94,92493,2,0,L|399:116,1,76.6666666666667,8|0,0:0|0:0,0:0:0:0:
343,25,92781,1,0,0:0:0:0:
223,148,92925,6,0,B|251:176|251:176|257:213,2,76.6666666666667,2|0|0,0:0|0:0|0:0,0:0:0:0:
176,64,93356,2,0,L|236:124,1,76.6666666666667,8|0,0:0|0:0,0:0:0:0:
175,214,93644,1,0,0:0:0:0:
340,253,93788,6,0,B|350:213|350:213|379:190,2,76.6666666666667,2|0|0,0:0|0:0|0:0,0:0:0:0:
297,339,94220,2,0,L|318:256,1,76.6666666666667,8|0,0:0|0:0,0:0:0:0:
418,263,94507,1,2,0:0:0:0:
257,213,94651,6,0,B|184:220|184:220|136:201|136:201|52:209,1,199.333324208578,4|0,0:2|0:2,0:0:0:0:
1,159,95083,2,0,B|76:152|76:152|124:171|124:171|197:164,1,199.333324208578,12|0,0:2|0:2,0:0:0:0:
340,253,95515,6,0,B|375:268|375:268|421:257,2,76.6666666666667,6|0|0,0:0|0:0|0:0,0:0:0:0:
270,307,95946,2,0,L|192:326,1,76.6666666666667,8|0,0:0|0:0,0:0:0:0:
354,349,96234,1,0,0:0:0:0:
254,219,96378,6,0,B|219:204|219:204|181:213,2,76.6666666666667,2|0|0,0:0|0:0|0:0,0:0:0:0:
324,165,96809,2,0,L|398:147,1,76.6666666666667,8|0,0:0|0:0,0:0:0:0:
229,125,97097,1,0,0:0:0:0:
181,212,97241,6,0,B|146:227|146:227|109:218,2,76.6666666666667,2|0|0,0:0|0:0|0:0,0:0:0:0:
251,266,97673,2,0,L|326:284,1,76.6666666666667,8|0,0:0|0:0,0:0:0:0:
239,356,97961,1,2,0:0:0:0:
109,290,98104,5,4,3:2:0:0:
98,243,98248,1,0,3:0:0:0:
87,196,98392,1,0,3:0:0:0:
203,118,98536,1,12,3:2:0:0:
192,165,98680,1,0,3:0:0:0:
181,212,98824,1,0,3:0:0:0:
377,284,98968,6,0,B|337:273|337:273|303:286,2,76.6666666666667,6|0|0,0:0|0:0|0:0,0:0:0:0:
472,296,99399,2,0,L|390:274,1,76.6666666666667,8|0,0:0|0:0,0:0:0:0:
343,358,99687,1,0,0:0:0:0:
223,236,99831,6,0,B|251:207|251:207|257:170,2,76.6666666666667,2|0|0,0:0|0:0|0:0,0:0:0:0:
167,314,100263,2,0,L|227:253,1,76.6666666666667,8|0,0:0|0:0,0:0:0:0:
174,170,100551,1,0,0:0:0:0:
340,131,100694,6,0,B|350:170|350:170|379:193,2,76.6666666666667,2|0|0,0:0|0:0|0:0,0:0:0:0:
292,47,101126,2,0,L|313:129,1,76.6666666666667,8|0,0:0|0:0,0:0:0:0:
420,123,101414,1,2,0:0:0:0:
256,178,101558,6,0,B|183:171|183:171|135:190|135:190|51:182,1,199.333324208578,4|0,0:2|0:2,0:0:0:0:
0,232,101989,2,0,B|75:239|75:239|123:220|123:220|196:227,1,199.333324208578,12|0,0:2|0:2,0:0:0:0:
275,99,102421,6,0,B|310:84|310:84|356:95,2,76.6666666666667,6|0|0,0:0|0:0|0:0,0:0:0:0:
205,45,102853,2,0,L|127:26,1,76.6666666666667,8|0,0:0|0:0,0:0:0:0:
289,3,103140,1,0,0:0:0:0:
207,143,103284,6,0,B|172:158|172:158|134:150,2,76.6666666666667,2|0|0,0:0|0:0|0:0,0:0:0:0:
277,197,103716,2,0,L|351:216,1,76.6666666666667,8|0,0:0|0:0,0:0:0:0:
193,239,104004,1,0,0:0:0:0:
170,374,104148,6,0,B|205:359|205:359|242:367,2,76.6666666666667,2|0|0,0:0|0:0|0:0,0:0:0:0:
100,320,104579,2,0,L|25:301,1,76.6666666666667,8|0,0:0|0:0,0:0:0:0:
112,230,104867,1,2,0:0:0:0:
248,169,105011,5,4,0:2:0:0:
276,249,105155,1,0,0:2:0:0:
234,327,105299,1,0,0:2:0:0:
266,154,105443,5,12,0:2:0:0:
300,249,105586,1,0,0:2:0:0:
250,343,105730,1,0,0:2:0:0:
198,232,105874,6,0,B|167:220|167:220|127:235,1,76.6666666666667,2|0,0:2|0:2,0:0:0:0:
7,262,106162,1,0,0:2:0:0:
7,262,106306,2,0,B|33:244|33:244|40:200,1,76.6666666666667,10|0,0:2|0:2,0:0:0:0:
67,77,106594,1,0,0:2:0:0:
67,77,106738,2,0,B|69:111|69:111|104:139,1,76.6666666666667,2|0,0:2|0:2,0:0:0:0:
192,173,107025,1,0,0:2:0:0:
290,89,107169,5,10,0:2:0:0:
262,232,107313,1,2,0:2:0:0:
353,162,107457,1,2,0:2:0:0:
375,368,107601,1,6,0:2:0:0:
256,192,107745,12,0,114507,0:2:0:0:
