osu file format v14

[General]
AudioFilename: audio.mp3
AudioLeadIn: 0
PreviewTime: 64004
Countdown: 0
SampleSet: Soft
StackLeniency: 0.2
Mode: 0
LetterboxInBreaks: 0
WidescreenStoryboard: 1

[Editor]
Bookmarks: 10910,26450,33356,47169,64435,78248,95515
DistanceSpacing: 1
BeatDivisor: 3
GridSize: 8
TimelineZoom: 1.7

[Metadata]
Title:Freaks Romanticism
TitleUnicode:フリークス・ロマンチシズム
Artist:Casandra
ArtistUnicode:カサンドラ
Creator:kwk
Version:Hard
Source:純情化憐フリークス!
Tags:Lafayla Catshy rvmathew karen eroge waltz visual novel vn opening wonder fools junjou
BeatmapID:1528304
BeatmapSetID:722312

[Difficulty]
HPDrainRate:6
CircleSize:3.6
OverallDifficulty:5
ApproachRate:6
SliderMultiplier:1.6
SliderTickRate:1

[Events]
//Background and Video events
0,0,"freaks.jpg",0,0
//Break Periods
//Storyboard Layer 0 (Background)
//Storyboard Layer 1 (Fail)
//Storyboard Layer 2 (Pass)
//Storyboard Layer 3 (Foreground)
//Storyboard Sound Samples

[TimingPoints]
551,431.654676258993,4,2,0,70,1,0
12637,-100,4,2,0,80,0,0
26450,-100,4,2,0,70,0,0
33356,-100,4,2,0,50,0,0
47169,-100,4,2,0,70,0,0
64435,-90.9090909090909,4,2,0,85,0,1
92061,-100,4,2,0,70,0,0
114507,-100,4,2,0,25,0,0

[Colours]
Combo1 : 255,255,166
Combo2 : 255,128,128
Combo3 : 0,255,255
Combo4 : 0,255,128

[HitObjects]
99,43,10910,6,0,L|40:37,2,53.3333333333333,2|2|2,0:2|0:2|0:2,0:0:0:0:
139,78,11342,2,0,L|198:72,2,53.3333333333333,0|0|0,3:2|3:2|3:2,0:0:0:0:
107,121,11774,2,0,L|48:115,2,53.3333333333333,0|0|0,3:2|3:2|3:2,0:0:0:0:
147,156,12206,2,0,L|206:150,2,53.3333333333333,0|0|0,3:2|3:2|3:2,0:0:0:0:
115,198,12637,6,0,P|98:242|132:327,1,106.666666666667,4|0,0:2|0:2,0:0:0:0:
149,333,13068,1,8,1:2:0:0:
257,210,13500,2,0,P|274:166|240:81,1,106.666666666667,0|0,1:2|0:2,0:0:0:0:
223,75,13931,1,8,1:2:0:0:
64,52,14363,5,0,1:2:0:0:
37,155,14651,1,0,0:2:0:0:
37,155,14795,2,0,L|167:129,1,106.666666666667,8|0,1:2|0:2,0:0:0:0:
190,155,15227,1,0,1:2:0:0:
266,80,15515,1,0,0:2:0:0:
266,80,15658,1,8,1:2:0:0:
372,86,15946,1,0,0:2:0:0:
372,86,16090,6,0,P|401:141|394:191,1,106.666666666667,0|0,1:2|0:2,0:0:0:0:
366,228,16522,2,0,P|303:225|264:194,1,106.666666666667,8|0,1:2|0:2,0:0:0:0:
246,151,16953,2,0,P|279:98|325:79,1,106.666666666667,0|0,1:2|0:2,0:0:0:0:
372,86,17385,1,8,1:2:0:0:
473,119,17673,1,0,0:2:0:0:
473,119,17817,6,0,L|490:254,1,106.666666666667,0|0,1:2|0:2,0:0:0:0:
400,241,18248,2,0,L|386:346,1,106.666666666667,8|0,1:2|0:2,0:0:0:0:
304,327,18680,2,0,L|292:252,2,53.3333333333333,0|0|0,1:2|0:0|0:2,0:0:0:0:
208,329,19112,2,0,L|223:263,2,53.3333333333333,8|0|0,1:2|0:0|0:2,0:0:0:0:
124,352,19543,6,0,L|111:247,1,106.666666666667,4|0,1:2|0:2,0:0:0:0:
74,207,19975,1,8,1:2:0:0:
219,276,20407,2,0,P|270:285|320:267,1,106.666666666667,0|0,1:2|0:2,0:0:0:0:
355,227,20838,1,8,1:2:0:0:
358,66,21270,5,0,1:2:0:0:
262,114,21558,1,0,0:2:0:0:
262,114,21702,2,0,P|204:121|127:78,1,106.666666666667,8|0,1:2|0:2,0:0:0:0:
122,66,22134,1,0,1:2:0:0:
21,102,22422,1,0,0:2:0:0:
21,102,22565,1,8,1:2:0:0:
1,207,22853,1,0,0:2:0:0:
1,207,22997,6,0,L|113:191,1,106.666666666667,0|0,1:2|0:2,0:0:0:0:
159,190,23428,2,0,L|264:205,1,106.666666666667,8|0,1:2|0:2,0:0:0:0:
318,210,23860,2,0,L|423:194,1,106.666666666667,0|0,1:2|0:2,0:0:0:0:
476,185,24292,1,8,1:2:0:0:
422,276,24579,1,0,0:2:0:0:
422,277,24723,6,0,P|410:328|429:377,1,106.666666666667,0|0,1:2|0:2,0:0:0:0:
497,321,25155,1,8,1:2:0:0:
491,214,25443,1,0,0:2:0:0:
491,214,25586,2,0,L|470:135,2,53.3333333333333,0|0|0,1:0|0:0|3:2,0:0:0:0:
405,189,26018,2,0,L|381:103,2,53.3333333333333,0|0|0,3:2|3:2|3:2,0:0:0:0:
344,247,26450,6,0,P|262:259|198:212,1,160,0|8,1:2|1:2,0:0:0:0:
122,145,27169,1,0,0:2:0:0:
122,145,27313,2,0,L|132:307,1,160,0|8,1:2|1:2,0:0:0:0:
37,355,28033,1,0,0:2:0:0:
37,355,28176,2,0,P|119:343|183:390,1,160,0|8,1:2|1:2,0:0:0:0:
276,338,28896,5,0,0:2:0:0:
276,338,29040,1,4,1:2:0:0:
429,380,29471,1,12,1:2:0:0:
493,295,29759,1,0,0:2:0:0:
493,295,29903,6,0,P|504:210|445:137,1,160,0|8,1:2|1:2,0:0:0:0:
404,237,30622,1,0,0:2:0:0:
404,237,30766,2,0,P|320:275|221:247,1,160,0|8,1:2|1:2,0:0:0:0:
192,352,31486,1,0,0:2:0:0:
192,352,31630,2,0,P|151:284|164:207,1,160,0|8,1:2|1:2,0:0:0:0:
234,126,32349,5,0,0:2:0:0:
234,126,32493,2,0,L|220:55,2,53.3333333333333,4|0|0,3:2|3:2|3:2,0:0:0:0:
314,180,32925,2,0,L|328:109,2,53.3333333333333,4|0|0,3:2|3:2|3:2,0:0:0:0:
349,259,33356,6,0,P|426:258|464:328,1,160,2|10,1:2|1:2,0:0:0:0:
464,166,34220,2,0,L|444:41,1,120,2|0,1:2|0:0,0:0:0:0:
415,21,34651,1,8,1:2:0:0:
346,102,34939,1,2,0:2:0:0:
346,102,35083,5,2,1:2:0:0:
239,105,35371,1,2,0:2:0:0:
239,105,35515,1,10,1:2:0:0:
179,16,35802,1,2,0:2:0:0:
179,16,35946,1,2,1:2:0:0:
72,20,36234,1,2,0:2:0:0:
72,20,36378,2,0,P|49:69|70:145,1,106.666666666667,10|0,1:2|0:2,0:0:0:0:
87,162,36809,6,0,P|114:231|78:320,1,160,2|8,1:2|1:2,0:0:0:0:
167,380,37529,1,0,0:2:0:0:
167,380,37673,2,0,P|213:322|308:308,1,160,0|8,1:2|1:2,0:0:0:0:
315,201,38392,1,0,0:2:0:0:
315,201,38536,6,0,P|241:189|182:114,1,160,0|8,1:2|1:2,0:0:0:0:
71,16,39399,1,0,1:2:0:0:
11,104,39687,1,8,0:2:0:0:
11,104,39831,1,8,1:2:0:0:
117,111,40119,1,0,0:2:0:0:
117,111,40263,6,0,L|289:64,1,160,2|10,1:2|1:2,0:0:0:0:
346,2,40982,1,0,0:2:0:0:
346,2,41126,2,0,P|371:58|354:126,1,106.666666666667,2|0,1:2|0:2,0:0:0:0:
340,149,41558,1,10,1:2:0:0:
238,180,41845,1,2,0:2:0:0:
238,180,41989,6,0,L|246:304,1,106.666666666667,2|0,1:2|0:2,0:0:0:0:
221,334,42421,1,10,1:2:0:0:
118,365,42709,1,2,0:2:0:0:
118,365,42853,1,2,1:2:0:0:
27,308,43140,1,10,0:2:0:0:
27,308,43284,1,10,1:2:0:0:
38,201,43572,1,0,0:2:0:0:
38,201,43716,6,0,L|203:212,1,160,2|8,1:2|1:2,0:0:0:0:
265,294,44435,1,0,0:2:0:0:
265,294,44579,2,0,L|440:257,1,160,0|8,1:2|1:2,0:0:0:0:
479,170,45299,1,0,0:2:0:0:
479,170,45443,6,0,P|482:101|410:40,1,160,0|8,1:2|1:2,0:0:0:0:
332,103,46162,1,0,0:2:0:0:
332,103,46306,2,0,L|326:179,2,53.3333333333333,0|0|0,3:2|3:2|3:2,0:0:0:0:
254,56,46738,2,0,L|247:2,2,53.3333333333333,10|2|2,3:2|3:2|3:2,0:0:0:0:
208,133,47169,6,0,P|133:149|61:73,1,160,6|8,1:2|1:2,0:0:0:0:
26,198,47889,1,0,0:2:0:0:
26,198,48033,2,0,B|45:340,1,106.666666666667,2|0,1:2|0:2,0:0:0:0:
25,354,48464,2,0,P|75:333|140:337,1,106.666666666667,10|0,1:2|0:2,0:0:0:0:
177,347,48896,6,0,P|229:359|280:338,1,106.666666666667,2|2,1:2|0:0,0:0:0:0:
299,290,49327,1,10,1:2:0:0:
384,353,49615,1,2,0:2:0:0:
384,353,49759,1,10,1:2:0:0:
477,301,50047,1,8,0:2:0:0:
477,301,50191,2,0,L|446:180,1,106.666666666667,8|0,1:2|0:2,0:0:0:0:
411,160,50622,6,0,L|428:54,1,106.666666666667,2|2,1:2|0:2,0:0:0:0:
401,7,51054,1,10,1:2:0:0:
296,26,51342,1,0,0:2:0:0:
296,26,51486,1,2,1:2:0:0:
306,132,51774,1,2,0:2:0:0:
306,132,51917,2,0,P|258:150|193:124,1,106.666666666667,8|2,1:2|0:2,0:0:0:0:
163,102,52349,5,4,1:2:0:0:
60,71,52637,1,0,0:2:0:0:
60,71,52781,1,12,1:2:0:0:
83,174,53068,1,0,0:2:0:0:
83,174,53212,1,4,1:2:0:0:
44,273,53500,1,0,0:2:0:0:
44,273,53644,1,12,1:2:0:0:
100,363,53932,1,0,0:2:0:0:
100,363,54076,6,0,P|144:305|125:201,1,160,6|8,1:2|1:2,0:0:0:0:
56,152,54795,1,0,0:2:0:0:
56,152,54939,2,0,P|106:136|142:97,1,106.666666666667,2|0,1:2|0:2,0:0:0:0:
176,55,55371,2,0,P|223:32|276:35,1,106.666666666667,10|0,1:2|0:2,0:0:0:0:
327,49,55802,6,0,L|383:146,1,106.666666666667,2|2,1:2|0:2,0:0:0:0:
408,186,56234,1,10,1:2:0:0:
332,260,56522,1,2,0:0:0:0:
332,260,56666,1,2,1:2:0:0:
239,230,56953,1,8,0:2:0:0:
239,230,57097,1,8,1:2:0:0:
235,130,57385,1,0,0:0:0:0:
235,130,57529,6,0,P|186:101|109:110,1,106.666666666667,2|0,1:2|0:2,0:0:0:0:
89,123,57961,1,10,1:2:0:0:
20,204,58248,1,0,0:2:0:0:
20,204,58392,2,0,P|19:264|65:327,1,106.666666666667,2|0,1:2|0:2,0:0:0:0:
79,340,58824,1,10,1:2:0:0:
164,275,59112,1,2,0:2:0:0:
164,275,59256,6,0,P|225:258|278:269,1,106.666666666667,2|2,1:2|0:2,0:0:0:0:
312,292,59687,1,10,1:2:0:0:
389,365,59975,1,0,0:2:0:0:
389,365,60119,1,2,1:2:0:0:
491,335,60407,1,8,0:2:0:0:
491,335,60551,1,10,1:2:0:0:
495,228,60838,1,0,0:2:0:0:
495,228,60982,6,0,L|516:178,2,53.3333333333333,2|0|0,1:2|0:0|0:2,0:0:0:0:
425,165,61414,2,0,L|414:113,2,53.3333333333333,8|0|0,1:2|0:0|0:2,0:0:0:0:
332,145,61845,2,0,L|297:105,2,53.3333333333333,2|0|0,1:2|0:0|0:2,0:0:0:0:
241,174,62277,2,0,L|190:157,2,53.3333333333333,8|0|0,1:2|0:0|0:2,0:0:0:0:
308,259,62709,5,2,3:2:0:0:
308,259,62853,1,2,3:2:0:0:
308,259,62997,1,2,3:2:0:0:
228,326,63140,1,10,3:2:0:0:
228,326,63284,1,2,3:2:0:0:
228,326,63428,1,2,3:2:0:0:
308,384,63572,1,2,3:2:0:0:
466,341,64435,6,0,P|475:273|423:208,1,117.333336914063,6|0,1:2|0:2,0:0:0:0:
405,208,64867,2,0,L|289:226,1,117.333336914063,10|0,1:2|0:2,0:0:0:0:
282,279,65299,2,0,L|135:249,1,117.333336914063,2|0,1:2|0:2,0:0:0:0:
126,288,65730,2,0,P|97:231|107:175,1,117.333336914063,10|0,1:2|0:2,0:0:0:0:
132,134,66162,5,2,1:2:0:0:
62,39,66450,1,10,1:2:0:0:
62,39,66594,2,0,L|202:17,1,117.333336914063,2|8,0:2|0:2,0:0:0:0:
236,13,67025,1,2,1:2:0:0:
325,89,67313,1,0,0:2:0:0:
290,137,67457,2,0,P|272:202|268:283,1,117.333336914063,10|2,1:2|0:2,0:0:0:0:
270,304,67889,5,2,1:2:0:0:
357,362,68176,1,0,0:2:0:0:
357,362,68320,1,10,1:2:0:0:
458,332,68608,1,2,0:2:0:0:
458,332,68752,2,0,P|432:280|359:262,1,117.333336914063,2|2,1:2|0:2,0:0:0:0:
326,269,69184,1,8,1:2:0:0:
248,340,69471,1,2,0:2:0:0:
198,321,69615,6,0,L|159:184,1,117.333336914063,0|2,1:2|0:2,0:0:0:0:
123,239,70047,2,0,L|114:113,1,117.333336914063,10|8,1:2|0:2,0:0:0:0:
207,78,70479,2,0,L|191:8,2,58.6666684570313,6|2|2,0:2|0:2|0:2,0:0:0:0:
305,77,70910,2,0,L|321:7,2,58.6666684570313,10|2|2,0:2|0:2|0:2,0:0:0:0:
397,109,71342,6,0,L|388:226,1,117.333336914063,6|0,1:2|0:2,0:0:0:0:
421,268,71774,2,0,P|356:238|295:252,1,117.333336914063,10|0,1:2|0:2,0:0:0:0:
260,234,72205,2,0,P|232:284|235:342,1,117.333336914063,2|0,1:2|0:2,0:0:0:0:
282,368,72637,2,0,L|399:376,1,117.333336914063,10|0,1:2|0:2,0:0:0:0:
451,380,73068,5,2,1:2:0:0:
503,288,73356,1,0,0:2:0:0:
503,288,73500,1,10,1:2:0:0:
469,187,73788,1,8,0:2:0:0:
469,187,73932,1,2,1:2:0:0:
496,84,74220,1,0,0:2:0:0:
496,84,74363,2,0,P|434:87|388:121,1,117.333336914063,10|0,1:2|0:2,0:0:0:0:
367,166,74795,5,2,1:2:0:0:
276,221,75083,1,2,0:2:0:0:
276,221,75227,2,0,L|290:92,1,117.333336914063,10|2,1:2|0:2,0:0:0:0:
292,51,75658,1,2,1:2:0:0:
198,100,75946,1,2,0:2:0:0:
198,100,76090,1,8,1:2:0:0:
107,42,76378,1,10,0:2:0:0:
107,42,76522,6,0,L|86:197,1,117.333336914063,0|0,1:2|0:2,0:0:0:0:
84,210,76953,1,10,1:2:0:0:
159,277,77241,1,10,0:2:0:0:
159,277,77385,2,0,B|192:228,2,58.6666684570313,6|2|2,0:2|0:2|0:2,0:0:0:0:
66,314,77817,2,0,L|8:324,2,58.6666684570313,10|2|2,0:2|0:2|0:2,0:0:0:0:
142,370,78248,6,0,P|214:355|280:374,1,117.333336914063,2|0,1:2|0:2,0:0:0:0:
305,383,78680,2,0,L|290:247,1,117.333336914063,10|0,1:2|0:2,0:0:0:0:
342,282,79112,2,0,P|399:290|456:275,1,117.333336914063,2|0,1:2|0:2,0:0:0:0:
481,228,79543,2,0,L|498:93,1,117.333336914063,10|0,1:2|0:2,0:0:0:0:
503,58,79975,5,2,1:2:0:0:
390,26,80263,1,2,0:2:0:0:
391,27,80407,2,0,L|396:148,1,117.333336914063,10|10,1:2|0:2,0:0:0:0:
398,202,80838,1,2,1:2:0:0:
291,152,81126,1,0,0:2:0:0:
262,204,81270,2,0,P|196:221|126:203,1,117.333336914063,10|2,1:2|0:2,0:0:0:0:
101,187,81702,5,2,1:2:0:0:
57,90,81989,1,2,0:2:0:0:
57,90,82133,1,10,1:2:0:0:
172,102,82421,1,2,0:2:0:0:
172,102,82565,2,0,P|233:107|301:75,1,117.333336914063,2|2,1:2|0:2,0:0:0:0:
325,53,82997,1,10,1:2:0:0:
430,53,83284,1,0,0:2:0:0:
430,53,83428,6,0,P|450:104|429:199,1,117.333336914063,0|10,1:2|0:2,0:0:0:0:
464,215,83860,2,0,P|411:233|338:212,1,117.333336914063,8|2,1:2|0:2,0:0:0:0:
289,149,84292,2,0,L|302:84,2,58.6666684570313,6|2|2,0:2|0:2|0:2,0:0:0:0:
192,150,84723,2,0,L|179:85,2,58.6666684570313,10|2|2,0:2|0:2|0:2,0:0:0:0:
133,224,85155,6,0,L|157:354,1,117.333336914063,6|0,1:2|0:2,0:0:0:0:
200,365,85586,2,0,P|261:346|319:351,1,117.333336914063,10|0,1:2|0:2,0:0:0:0:
365,338,86018,2,0,L|386:222,1,117.333336914063,2|0,1:2|0:2,0:0:0:0:
357,177,86450,2,0,P|296:196|238:191,1,117.333336914063,8|0,1:2|0:2,0:0:0:0:
197,166,86881,5,2,1:2:0:0:
187,60,87169,1,2,0:2:0:0:
187,60,87313,1,10,1:2:0:0:
285,98,87601,1,10,0:2:0:0:
285,98,87745,1,2,1:2:0:0:
373,39,88033,1,2,0:2:0:0:
373,39,88176,2,0,P|415:76|423:157,1,117.333336914063,10|0,1:2|0:0,0:0:0:0:
402,180,88608,5,2,1:2:0:0:
462,266,88896,1,2,0:2:0:0:
462,266,89040,2,0,P|407:259|327:284,1,117.333336914063,10|2,1:2|0:2,0:0:0:0:
308,309,89471,1,2,1:2:0:0:
219,250,89759,1,2,0:2:0:0:
219,250,89903,1,8,0:2:0:0:
130,307,90191,1,8,0:2:0:0:
130,307,90335,6,0,L|116:380,2,58.6666684570313,6|2|2,0:2|0:2|0:2,0:0:0:0:
73,218,90766,2,0,L|0:204,2,58.6666684570313,2|2|2,0:2|0:2|0:2,0:0:0:0:
162,161,91198,2,0,L|176:88,2,58.6666684570313,10|2|2,0:2|0:2|0:2,0:0:0:0:
219,250,91630,2,0,L|292:264,2,58.6666684570313,2|2|2,0:2|0:2|0:2,0:0:0:0:
129,307,92061,1,4,1:2:0:0:
256,192,92205,12,12,95083,1:2:0:0:
164,52,95515,6,0,L|110:240,1,160,0|8,1:2|1:2,0:0:0:0:
42,279,96234,1,0,0:2:0:0:
42,279,96378,2,0,P|139:259|208:289,1,160,0|8,1:2|1:2,0:0:0:0:
286,347,97098,1,0,0:2:0:0:
286,347,97242,2,0,P|361:377|432:349,1,160,0|0,1:2|0:0,0:0:0:0:
460,246,97961,5,8,0:2:0:0:
460,246,98104,2,0,L|511:234,2,53.3333333333333,4|0|0,3:2|3:2|3:2,0:0:0:0:
382,183,98537,2,0,L|303:171,2,53.3333333333333,4|0|0,3:2|3:2|3:2,0:0:0:0:
459,102,98968,6,0,L|299:77,1,160,0|8,1:2|1:2,0:0:0:0:
219,7,99687,1,0,0:2:0:0:
219,7,99831,2,0,P|194:81|247:168,1,160,0|8,1:2|1:2,0:0:0:0:
328,185,100551,1,0,0:2:0:0:
328,185,100694,2,0,P|363:254|338:327,1,160,0|8,1:2|1:2,0:0:0:0:
254,262,101414,5,0,0:2:0:0:
254,262,101558,1,4,1:2:0:0:
145,379,101989,1,12,1:2:0:0:
20,277,102421,6,0,P|-4:194|0:115,1,160,0|8,1:2|1:2,0:0:0:0:
89,64,103140,1,0,0:2:0:0:
89,64,103284,2,0,L|111:234,1,160,0|8,1:2|1:2,0:0:0:0:
211,254,104004,1,0,0:2:0:0:
211,254,104148,2,0,P|215:167|194:91,1,160,0|8,1:2|1:2,0:0:0:0:
281,32,104867,5,8,0:2:0:0:
281,32,105011,2,0,L|341:40,2,53.3333333333333,4|0|0,0:2|0:2|0:2,0:0:0:0:
187,2,105443,2,0,L|127:10,2,53.3333333333333,12|0|0,0:2|0:2|0:2,0:0:0:0:
196,97,105874,6,0,L|186:149,2,53.3333333333333,2|0|0,0:2|0:2|0:2,0:0:0:0:
287,144,106306,2,0,L|297:196,2,53.3333333333333,10|0|0,0:2|0:2|0:2,0:0:0:0:
208,238,106738,2,0,L|198:290,2,53.3333333333333,2|0|0,0:2|0:2|0:2,0:0:0:0:
294,289,107169,2,0,L|304:341,2,53.3333333333333,10|2|2,0:2|0:2|0:2,0:0:0:0:
219,381,107601,1,6,0:2:0:0:
256,192,107745,12,0,114507,0:2:0:0:
