osu file format v14

[General]
AudioFilename: audio.mp3
AudioLeadIn: 0
PreviewTime: 64008
Countdown: 0
SampleSet: Soft
StackLeniency: 0.3
Mode: 0
LetterboxInBreaks: 0
WidescreenStoryboard: 1

[Editor]
Bookmarks: 12637,26450,33356,47169,57529,64435,92061,107601,114507
DistanceSpacing: 1
BeatDivisor: 3
GridSize: 16
TimelineZoom: 1.4

[Metadata]
Title:Freaks Romanticism
TitleUnicode:フリークス・ロマンチシズム
Artist:Casandra
ArtistUnicode:カサンドラ
Creator:Ohwow
Version:Normal
Source:純情化憐フリークス!
Tags:Junjou Karen Freaks! Wonder Fools waltz visual novel vn eroge opening
BeatmapID:1574827
BeatmapSetID:728075

[Difficulty]
HPDrainRate:4
CircleSize:3.5
OverallDifficulty:4
ApproachRate:5
SliderMultiplier:1.3
SliderTickRate:1

[Events]
//Background and Video events
0,0,"bg.jpg",0,0
//Break Periods
//Storyboard Layer 0 (Background)
//Storyboard Layer 1 (Fail)
//Storyboard Layer 2 (Pass)
//Storyboard Layer 3 (Foreground)
//Storyboard Sound Samples

[TimingPoints]
555,431.654676258993,4,2,1,70,1,0
10914,-100,4,2,1,70,0,0
11346,-100,4,2,1,65,0,0
11778,-100,4,2,1,60,0,0
12209,-100,4,2,1,55,0,0
12641,-100,4,2,1,70,0,0
26454,-100,4,2,1,65,0,0
29044,-100,4,2,1,75,0,0
29907,-100,4,2,1,65,0,0
32497,-100,4,2,1,75,0,0
33360,-100,4,2,1,60,0,0
39403,-100,4,2,1,65,0,0
40267,-100,4,2,1,60,0,0
46454,-100,4,2,1,67,0,0
46598,-100,4,2,1,64,0,0
46742,-100,4,2,1,61,0,0
46885,-100,4,2,1,58,0,0
47029,-100,4,2,1,55,0,0
47173,-100,4,2,1,70,0,0
62713,-100,4,2,1,75,0,0
64439,-100,4,2,1,80,0,1
77821,-100,4,2,1,83,0,1
78108,-100,4,2,1,83,0,0
78252,-100,4,2,1,86,0,1
78396,-100,4,2,1,80,0,1
90770,-100,4,2,1,83,0,1
91202,-100,4,2,1,86,0,1
91634,-100,4,2,1,89,0,1
92065,-100,4,2,1,100,0,0
92209,-100,4,2,1,80,0,0
94655,-100,4,2,1,85,0,0
95519,-100,4,2,1,80,0,0
98108,-100,4,2,1,85,0,0
98972,-100,4,2,1,80,0,0
101562,-100,4,2,1,85,0,0
102425,-100,4,2,1,80,0,0
105015,-100,4,2,1,85,0,0
105878,-100,4,2,1,80,0,0
106310,-100,4,2,1,77,0,0
106742,-100,4,2,1,74,0,0
107173,-100,4,2,1,71,0,0
107605,-100,4,2,1,80,0,0
114511,-100,4,2,1,30,0,0

[Colours]
Combo1 : 255,155,157
Combo2 : 187,98,0
Combo3 : 206,0,0
Combo4 : 101,11,210

[HitObjects]
186,235,10914,6,0,B|57:216|57:216|34:88|34:88|149:27|149:27|218:88,1,476.666666666667,8|0,0:0|0:0,0:0:0:0:
243,116,12641,6,0,L|329:109,1,86.6666666666666,6|0,3:2|0:0,0:0:0:0:
372,106,13072,1,10,3:2:0:0:
490,53,13504,2,0,L|496:139,1,86.6666666666666,2|0,3:2|0:0,0:0:0:0:
500,182,13936,1,10,3:2:0:0:
494,311,14367,2,0,P|459:285|418:272,1,86.6666666666666,2|2,3:2|0:2,0:0:0:0:
374,272,14799,1,8,3:2:0:0:
276,357,15231,1,0,3:0:0:0:
164,290,15662,1,10,3:2:0:0:
193,162,16094,6,0,B|186:80|186:80|151:47,1,130,2|10,3:2|3:2,0:0:0:0:
23,67,16957,2,0,B|1:109|1:109|23:189,1,130,2|8,3:2|3:2,0:0:0:0:
0,314,17821,2,0,L|86:304,1,86.6666666666666,0|2,3:2|3:2,0:0:0:0:
117,274,18252,1,10,3:2:0:0:
241,312,18684,2,0,L|284:316,2,43.3333333333333,2|8|0,3:2|0:0|0:0,0:0:0:0:
214,277,19116,2,0,L|223:190,1,86.6666666666666,0|4,3:2|0:3,0:0:0:0:
209,149,19547,6,0,P|273:149|322:117,1,86.6666666666666,6|0,3:2|0:0,0:0:0:0:
328,114,19979,1,10,3:2:0:0:
435,187,20411,2,0,P|435:251|467:300,1,86.6666666666666,2|0,3:2|0:0,0:0:0:0:
470,306,20842,1,10,3:2:0:0:
347,315,21274,2,0,L|260:309,1,86.6666666666667,2|2,3:2|0:2,0:0:0:0:
216,307,21706,1,8,3:2:0:0:
112,384,22137,1,0,3:2:0:0:
5,312,22569,1,10,3:2:0:0:
41,186,23001,6,0,P|70:130|63:66,1,130,2|10,3:2|3:2,0:0:0:0:
187,26,23864,2,0,P|221:79|280:106,1,130,2|8,3:2|3:2,0:0:0:0:
401,154,24727,2,0,L|411:276,1,86.6666666666667,4|2,3:2|3:2,0:0:0:0:
411,283,25159,1,10,3:2:0:0:
284,312,25590,2,0,L|288:355,2,43.3333333333333,8|8|8,0:3|0:3|0:3,0:0:0:0:
242,299,26022,2,0,L|237:255,2,43.3333333333333,4|4|4,3:3|0:3|0:3,0:0:0:0:
205,322,26454,6,0,B|171:352|171:352|86:341,1,130,4|8,3:2|3:2,0:0:0:0:
47,217,27317,2,0,B|81:187|81:187|165:197,1,130,0|8,3:2|3:2,0:0:0:0:
294,213,28180,2,0,P|357:213|403:170,1,130,0|8,3:0|3:2,0:0:0:0:
436,43,29044,6,0,B|349:53,1,86.6666666666667,2|0,3:2|0:0,0:0:0:0:
317,82,29475,2,0,B|230:92,1,86.6666666666667,10|0,3:2|0:0,0:0:0:0:
193,69,29907,6,0,P|203:131|173:188,1,130,4|8,3:2|3:2,0:0:0:0:
50,235,30770,2,0,P|19:291|30:354,1,130,0|8,3:2|3:2,0:0:0:0:
152,306,31634,2,0,L|274:299,1,86.6666666666667,0|0,3:0|3:0,0:0:0:0:
276,322,32065,1,8,3:2:0:0:
369,231,32497,6,0,L|412:228,2,43.3333333333333,10|8|8,3:2|0:0|0:0,0:0:0:0:
347,192,32929,2,0,L|303:189,2,43.3333333333333,10|8|8,3:2|0:0|3:2,0:0:0:0:
369,155,33360,6,0,P|391:100|375:33,1,130,4|8,3:2|3:2,0:0:0:0:
244,29,34224,2,0,P|222:84|238:151,1,130,0|8,3:0|3:2,0:0:0:0:
297,266,35087,2,0,L|210:275,1,86.6666666666667,0|0,3:0|0:0,0:0:0:0:
171,255,35519,1,8,3:2:0:0:
57,317,35950,2,0,L|47:230,1,86.6666666666667,0|0,3:0|0:0,0:0:0:0:
68,192,36382,1,8,3:2:0:0:
13,74,36813,6,0,B|49:100|49:100|134:89,1,130,0|8,3:0|3:2,0:0:0:0:
239,13,37677,2,0,B|267:46|267:46|352:57,1,130,0|8,3:0|3:2,0:0:0:0:
478,23,38540,1,0,3:0:0:0:
512,149,38972,1,8,3:2:0:0:
386,183,39403,2,0,L|302:206,1,86.6666666666667,0|0,3:2|3:0,0:0:0:0:
284,246,39835,2,0,L|307:329,1,86.6666666666667,8|0,3:2|0:0,0:0:0:0:
301,371,40267,6,0,P|355:337|419:337,1,130,4|8,3:2|3:2,0:0:0:0:
500,236,41130,2,0,P|500:171|465:117,1,130,0|8,3:0|3:2,0:0:0:0:
356,46,41993,2,0,L|269:55,1,86.6666666666667,0|0,3:0|0:0,0:0:0:0:
231,35,42425,1,8,3:2:0:0:
102,53,42857,2,0,L|111:139,1,86.6666666666667,0|0,3:0|0:0,0:0:0:0:
91,178,43288,1,8,3:2:0:0:
187,265,43720,6,0,B|213:229|213:229|202:143,1,130,0|8,3:0|3:2,0:0:0:0:
322,93,44583,2,0,B|296:129|296:129|306:214,1,130,0|8,3:0|3:2,0:0:0:0:
408,294,45447,1,0,3:0:0:0:
487,191,45878,1,8,3:2:0:0:
385,111,46310,2,0,B|379:67,2,43.3333333333333,8|8|8,0:0|0:0|0:3,0:0:0:0:
349,136,46742,2,0,B|354:179,2,43.3333333333333,8|4|4,3:3|0:3|0:3,0:0:0:0:
307,119,47173,6,0,P|248:95|185:107,1,130,4|8,3:2|3:2,0:0:0:0:
113,216,48037,2,0,P|172:240|235:228,1,130,0|8,3:0|3:2,0:0:0:0:
357,179,48900,2,0,P|369:241|344:301,1,130,0|8,3:0|3:2,0:0:0:0:
235,228,49763,2,0,P|224:184|240:127,1,86.6666666666667,0|0,3:2|3:0,0:0:0:0:
244,102,50195,1,8,3:2:0:0:
365,55,50626,6,0,L|502:48,2,130,0|8|0,3:0|3:2|3:0,0:0:0:0:
243,8,51921,1,8,3:2:0:0:
139,87,52353,2,0,L|137:197,1,86.6666666666667,2|0,3:2|0:0,0:0:0:0:
136,217,52785,1,10,3:2:0:0:
22,154,53216,2,0,L|20:264,1,86.6666666666667,2|0,3:2|3:0,0:0:0:0:
19,284,53648,1,10,3:2:0:0:
74,350,53936,1,0,3:0:0:0:
74,350,54080,6,0,P|137:356|195:328,1,130,4|8,3:2|3:2,0:0:0:0:
237,205,54943,2,0,P|173:198|115:226,1,130,0|8,3:0|3:2,0:0:0:0:
196,329,55806,2,0,P|259:335|317:307,1,130,0|8,3:0|3:2,0:0:0:0:
237,205,56670,2,0,P|225:163|232:120,1,86.6666666666667,0|0,3:2|3:0,0:0:0:0:
249,81,57101,1,8,3:2:0:0:
352,160,57533,6,0,L|458:150,1,86.6666666666667,4|0,3:2|0:0,0:0:0:0:
473,178,57965,1,8,3:2:0:0:
510,302,58396,2,0,L|404:292,1,86.6666666666667,0|0,3:2|0:0,0:0:0:0:
389,320,58828,1,8,3:2:0:0:
259,306,59260,6,0,L|269:200,1,86.6666666666667,4|0,3:2|0:0,0:0:0:0:
249,180,59691,2,0,L|143:190,1,86.6666666666667,8|0,3:2|0:0,0:0:0:0:
124,166,60123,1,0,3:0:0:0:
83,242,60411,1,0,3:0:0:0:
83,242,60555,1,8,3:2:0:0:
21,127,60986,6,0,B|46:87|46:87|130:79,1,130,4|8,3:2|3:2,0:0:0:0:
203,123,61706,1,8,0:0:0:0:
203,123,61849,2,0,B|289:130,1,86.6666666666667,0|0,3:0|3:0,0:0:0:0:
332,134,62281,1,8,3:2:0:0:
412,236,62713,6,0,B|455:232,2,43.3333333333333,2|2|2,3:2|3:2|3:2,0:0:0:0:
401,278,63144,2,0,B|357:274,2,43.3333333333333,2|2|2,3:2|3:2|3:2,0:0:0:0:
416,318,63576,1,2,3:2:0:0:
416,318,64439,6,0,P|357:295|295:308,1,130,6|10,3:2|3:2,0:0:0:0:
179,372,65303,2,0,P|116:385|57:361,1,130,2|10,3:2|3:2,0:0:0:0:
129,253,66166,6,0,L|136:134,1,86.6666666666667,2|2,3:2|0:2,0:0:0:0:
111,128,66598,1,8,3:2:0:0:
118,41,66885,1,10,0:2:0:0:
118,41,67029,2,0,L|235:32,1,86.6666666666667,0|2,3:0|0:2,0:0:0:0:
248,34,67461,1,10,3:2:0:0:
378,33,67893,6,0,P|398:70|395:112,1,86.6666666666667,2|2,3:2|0:2,0:0:0:0:
364,142,68324,2,0,P|343:179|346:221,1,86.6666666666667,10|2,3:2|0:2,0:0:0:0:
376,253,68756,2,0,P|396:290|393:332,1,86.6666666666667,2|2,3:2|0:2,0:0:0:0:
365,367,69188,1,8,3:2:0:0:
285,332,69475,1,2,0:2:0:0:
285,332,69619,6,0,L|198:326,1,86.6666666666667,0|2,3:0|0:2,0:0:0:0:
155,322,70051,1,10,3:2:0:0:
68,329,70339,1,8,0:0:0:0:
68,329,70483,2,0,L|58:288,1,43.3333333333333,2|8,3:2|0:0,0:0:0:0:
87,205,70914,2,0,L|76:162,2,43.3333333333333,8|8|8,3:2|0:0|0:3,0:0:0:0:
122,230,71346,6,0,P|185:232|237:195,1,130,6|10,3:2|3:2,0:0:0:0:
310,86,72209,2,0,P|361:48|425:51,1,130,2|10,3:2|3:2,0:0:0:0:
461,177,73072,6,0,L|453:294,1,86.6666666666667,2|2,3:2|0:2,0:0:0:0:
430,299,73504,1,8,3:2:0:0:
343,289,73792,1,10,0:2:0:0:
343,289,73936,2,0,L|335:172,1,86.6666666666667,0|2,3:0|0:2,0:0:0:0:
332,159,74367,1,10,3:2:0:0:
273,43,74799,6,0,P|230:36|189:49,1,86.6666666666667,2|2,3:2|0:2,0:0:0:0:
167,86,75231,2,0,P|126:98|83:92,1,86.6666666666667,10|2,3:2|0:2,0:0:0:0:
41,78,75662,2,0,P|53:118|47:161,1,86.6666666666667,2|2,3:2|0:2,0:0:0:0:
25,199,76094,1,8,3:2:0:0:
56,279,76382,1,2,3:2:0:0:
56,279,76526,6,0,L|168:264,1,86.6666666666667,4|2,3:2|0:2,0:0:0:0:
182,283,76957,1,10,3:2:0:0:
225,207,77245,1,8,0:0:0:0:
225,207,77389,2,0,L|221:163,2,43.3333333333333,0|8|8,3:0|0:0|0:0,0:0:0:0:
265,223,77821,2,0,L|269:266,2,43.3333333333333,8|8|8,3:2|0:0|0:3,0:0:0:0:
302,200,78252,6,0,B|330:171|330:171|420:162,1,130,6|10,3:2|3:2,0:0:0:0:
477,46,79116,2,0,B|448:74|448:74|358:83,1,130,2|10,3:2|3:2,0:0:0:0:
243,24,79979,6,0,P|225:63|229:106,1,86.6666666666667,2|2,3:2|0:2,0:0:0:0:
250,144,80411,1,8,3:2:0:0:
316,199,80698,1,10,0:2:0:0:
316,199,80842,2,0,P|319:241|301:280,1,86.6666666666667,0|2,3:0|0:2,0:0:0:0:
267,307,81274,1,10,3:2:0:0:
178,211,81706,6,0,B|91:216,1,86.6666666666667,2|2,3:2|0:2,0:0:0:0:
62,248,82137,2,0,B|67:334,1,86.6666666666667,10|2,3:2|0:2,0:0:0:0:
99,364,82569,2,0,B|185:358,1,86.6666666666667,2|2,3:2|0:2,0:0:0:0:
215,326,83001,1,8,3:2:0:0:
296,353,83288,1,2,0:2:0:0:
296,353,83432,6,0,P|338:364|377:348,1,86.6666666666667,0|2,3:0|0:2,0:0:0:0:
404,313,83864,1,10,3:2:0:0:
382,228,84152,1,8,0:0:0:0:
382,228,84296,2,0,L|424:222,1,43.3333333333333,2|8,3:2|0:0,0:0:0:0:
442,137,84727,2,0,L|484:131,2,43.3333333333333,8|8|8,3:2|0:0|0:0,0:0:0:0:
416,102,85159,6,0,B|383:78|383:78|294:88,1,130,6|10,3:2|3:2,0:0:0:0:
214,190,86022,2,0,B|247:214|247:214|335:203,1,130,2|10,3:2|3:2,0:0:0:0:
462,233,86885,6,0,P|481:272|478:315,1,86.6666666666667,2|2,3:2|0:2,0:0:0:0:
456,352,87317,1,8,3:2:0:0:
375,319,87605,1,10,0:2:0:0:
375,319,87749,2,0,L|288:315,1,86.6666666666667,0|2,3:0|0:2,0:0:0:0:
245,312,88180,1,10,3:2:0:0:
117,338,88612,6,0,B|132:297|132:297|125:254,1,86.6666666666667,2|2,3:2|0:2,0:0:0:0:
117,211,89044,1,10,3:2:0:0:
34,186,89331,1,2,0:2:0:0:
34,186,89475,2,0,B|27:143|27:143|42:102,1,86.6666666666667,2|2,3:2|0:2,0:0:0:0:
57,62,89907,1,10,3:2:0:0:
143,62,90195,1,2,3:2:0:0:
143,62,90339,6,0,L|229:72,1,86.6666666666667,14|10,3:2|3:2,0:0:0:0:
271,80,90770,1,10,0:2:0:0:
329,144,91058,1,10,3:2:0:0:
329,144,91202,2,0,L|372:139,2,43.3333333333333,10|8|8,3:2|0:0|0:0,0:0:0:0:
311,183,91634,2,0,L|268:178,2,43.3333333333333,10|8|8,3:2|0:0|0:0,0:0:0:0:
333,219,92065,6,0,B|360:253|360:253|352:342,1,130,6|8,3:2|3:2,0:0:0:0:
227,376,92929,2,0,B|200:342|200:342|208:253,1,130,0|8,3:0|3:2,0:0:0:0:
129,150,93792,2,0,P|69:131|9:155,1,130,0|8,3:0|3:2,0:0:0:0:
83,262,94655,6,0,L|168:275,1,86.6666666666667,2|0,3:2|0:0,0:0:0:0:
207,255,95087,2,0,L|292:268,1,86.6666666666667,10|0,3:2|0:0,0:0:0:0:
322,300,95519,6,0,P|372:339|435:337,1,130,4|8,3:2|3:2,0:0:0:0:
474,213,96382,2,0,P|423:173|360:175,1,130,0|8,3:2|3:2,0:0:0:0:
231,159,97245,2,0,B|196:132|196:132|187:46,1,130,0|8,3:0|3:2,0:0:0:0:
57,45,98108,6,0,P|44:88|48:131,1,86.6666666666667,10|8,3:2|0:3,0:0:0:0:
77,160,98540,2,0,P|64:203|68:246,1,86.6666666666667,10|4,3:2|0:3,0:0:0:0:
96,277,98972,6,0,B|129:302|129:302|217:296,1,130,4|8,3:2|3:2,0:0:0:0:
263,174,99835,2,0,B|296:149|296:149|384:154,1,130,0|8,3:0|3:2,0:0:0:0:
476,246,100698,2,0,P|493:307|465:363,1,130,0|8,3:0|3:2,0:0:0:0:
352,298,101562,6,0,L|266:311,1,86.6666666666667,2|0,3:2|0:0,0:0:0:0:
228,291,101993,2,0,L|142:304,1,86.6666666666667,10|0,3:2|0:0,0:0:0:0:
112,336,102425,6,0,P|113:272|74:222,1,130,4|8,3:2|3:2,0:0:0:0:
154,119,103288,2,0,P|208:152|271:143,1,130,0|8,3:2|3:2,0:0:0:0:
372,61,104152,2,0,L|390:207,1,130,0|8,3:0|3:2,0:0:0:0:
330,306,105015,6,0,L|324:349,2,43.3333333333333,2|8|8,3:2|0:0|0:0,0:0:0:0:
292,284,105447,2,0,L|297:240,2,43.3333333333333,10|8|8,3:2|0:0|0:0,0:0:0:0:
249,293,105878,6,0,L|162:282,1,86.6666666666667,8|8,3:2|0:0,0:0:0:0:
119,277,106310,2,0,L|102:191,1,86.6666666666667,8|8,3:2|0:3,0:0:0:0:
94,148,106742,2,0,L|169:106,1,86.6666666666667,0|4,3:2|0:3,0:0:0:0:
208,84,107173,2,0,L|271:143,1,86.6666666666667,8|0,3:2|3:3,0:0:0:0:
302,173,107605,5,4,3:2:0:0:
256,192,107749,12,0,114511,0:0:0:0:
