osu file format v14

[General]
AudioFilename: audio.mp3
AudioLeadIn: 0
PreviewTime: 64008
Countdown: 0
SampleSet: Soft
StackLeniency: 0.3
Mode: 0
LetterboxInBreaks: 0
WidescreenStoryboard: 0

[Editor]
Bookmarks: 12637,26450,33356,47169,57529,64435,92061,107601,114507
DistanceSpacing: 0.1
BeatDivisor: 6
GridSize: 16
TimelineZoom: 1.4

[Metadata]
Title:Freaks Romanticism
TitleUnicode:フリークス・ロマンチシズム
Artist:Casandra
ArtistUnicode:カサンドラ
Creator:Ohwow
Version:Extra
Source:純情化憐フリークス!
Tags:Junjou Karen Freaks! Wonder Fools waltz visual novel vn eroge opening
BeatmapID:1537216
BeatmapSetID:728075

[Difficulty]
HPDrainRate:6
CircleSize:4
OverallDifficulty:8.5
ApproachRate:9.3
SliderMultiplier:2.4
SliderTickRate:1

[Events]
//Background and Video events
0,0,"bg.jpg",0,0
//Break Periods
//Storyboard Layer 0 (Background)
//Storyboard Layer 1 (Fail)
//Storyboard Layer 2 (Pass)
//Storyboard Layer 3 (Foreground)
//Storyboard Sound Samples

[TimingPoints]
555,431.654676258993,4,2,1,70,1,0
11346,-100,4,2,1,65,0,0
11778,-100,4,2,1,60,0,0
12209,-100,4,2,1,55,0,0
12641,-100,4,2,1,75,0,0
26454,-125,4,2,1,70,0,0
29044,-83.3333333333333,4,2,1,75,0,0
29907,-125,4,2,1,70,0,0
32497,-83.3333333333333,4,2,1,75,0,0
33360,-125,4,2,1,70,0,0
39403,-100,4,2,1,75,0,0
40267,-125,4,2,1,70,0,0
46454,-125,4,2,1,67,0,0
46598,-125,4,2,1,64,0,0
46742,-125,4,2,1,61,0,0
46885,-125,4,2,1,58,0,0
47029,-125,4,2,1,55,0,0
47173,-125,4,2,1,70,0,0
52785,-100,4,2,1,70,0,0
53216,-83.3333333333333,4,2,1,70,0,0
53648,-125,4,2,1,70,0,0
62281,-100,4,2,1,70,0,0
62713,-100,4,2,1,75,0,0
64439,-90.9090909090909,4,2,1,80,0,1
77821,-90.9090909090909,4,2,1,83,0,1
78108,-90.9090909090909,4,2,1,83,0,0
78252,-90.9090909090909,4,2,1,86,0,1
78396,-90.9090909090909,4,2,1,80,0,1
90770,-90.9090909090909,4,2,1,83,0,1
91202,-90.9090909090909,4,2,1,86,0,1
91634,-90.9090909090909,4,2,1,89,0,1
92065,-100,4,2,1,100,0,0
92209,-100,4,2,1,80,0,0
94655,-71.4285714285714,4,2,1,85,0,0
95519,-100,4,2,1,80,0,0
98108,-71.4285714285714,4,2,1,85,0,0
98972,-100,4,2,1,80,0,0
101562,-71.4285714285714,4,2,1,85,0,0
102425,-100,4,2,1,80,0,0
105015,-71.4285714285714,4,2,1,85,0,0
105878,-100,4,2,1,80,0,0
106310,-100,4,2,1,77,0,0
106742,-100,4,2,1,74,0,0
107173,-100,4,2,1,71,0,0
107605,-100,4,2,1,80,0,0
114511,-100,4,2,1,30,0,0

[Colours]
Combo1 : 255,155,157
Combo2 : 166,87,0
Combo3 : 206,0,0
Combo4 : 101,11,210

[HitObjects]
225,51,10914,5,8,0:0:0:0:
395,20,11058,1,8,0:0:0:0:
225,51,11202,1,8,0:0:0:0:
438,159,11346,5,8,0:3:0:0:
302,134,11490,1,8,0:3:0:0:
438,159,11634,1,8,0:3:0:0:
266,266,11778,5,4,0:3:0:0:
368,247,11921,1,4,0:3:0:0:
266,266,12065,1,4,0:3:0:0:
425,357,12209,5,0,3:0:0:0:
343,341,12353,1,0,3:0:0:0:
425,357,12497,1,0,3:0:0:0:
230,190,12641,6,0,L|218:349,1,160,6|0,3:2|0:0,0:0:0:0:
445,230,13072,2,0,L|433:70,1,160,10|0,3:2|0:0,0:0:0:0:
223,197,13504,6,0,L|211:356,1,160,2|0,3:2|0:0,0:0:0:0:
438,237,13936,2,0,L|426:77,1,160,10|0,3:2|0:0,0:0:0:0:
143,202,14367,6,0,L|222:196,1,80,2|0,3:2|0:0,0:0:0:0:
358,241,14655,1,2,0:2:0:0:
346,83,14799,1,8,3:2:0:0:
344,67,15087,1,10,0:2:0:0:
360,257,15231,1,0,3:0:0:0:
362,273,15519,1,2,0:2:0:0:
256,328,15662,2,0,L|251:248,1,80,10|0,3:2|0:0,0:0:0:0:
248,170,15950,1,2,0:2:0:0:
189,42,16094,6,0,P|150:47|119:71,1,80,2|0,3:2|0:0,0:0:0:0:
184,124,16382,1,2,0:2:0:0:
328,57,16526,2,0,P|305:25|269:10,1,80,10|0,3:2|0:0,0:0:0:0:
255,91,16813,1,2,0:2:0:0:
384,183,16957,2,0,P|399:147|396:108,1,80,2|0,3:2|0:0,0:0:0:0:
319,135,17245,1,2,0:2:0:0:
400,315,17389,1,8,3:2:0:0:
407,329,17677,1,2,0:0:0:0:
243,220,17821,6,0,B|285:243|285:243|396:236,1,160,0|2,3:2|3:2,0:0:0:0:
386,156,18252,2,0,L|306:161,1,80,10|0,3:2|0:0,0:0:0:0:
320,319,18540,1,10,0:2:0:0:
400,315,18684,1,2,3:2:0:0:
396,236,18828,2,0,L|316:241,1,80,8|0,0:0|0:0,0:0:0:0:
158,250,19116,1,0,3:2:0:0:
237,246,19260,1,8,0:0:0:0:
242,326,19403,1,4,0:3:0:0:
75,340,19547,6,0,L|88:180,1,160,6|0,3:2|0:0,0:0:0:0:
303,81,19979,2,0,L|316:240,1,160,10|0,3:2|0:0,0:0:0:0:
66,345,20411,6,0,L|79:185,1,160,2|0,3:2|0:0,0:0:0:0:
297,89,20842,2,0,L|310:247,1,160,10|0,3:2|0:0,0:0:0:0:
0,192,21274,6,0,L|79:185,1,80,2|0,3:2|0:0,0:0:0:0:
230,266,21562,1,2,0:2:0:0:
218,108,21706,1,8,3:2:0:0:
216,93,21993,1,10,0:2:0:0:
232,281,22137,1,0,3:2:0:0:
234,296,22425,1,2,0:2:0:0:
120,313,22569,2,0,L|114:234,1,80,10|0,3:2|0:0,0:0:0:0:
70,173,22857,1,2,0:2:0:0:
175,74,23001,6,0,L|100:99,1,80,2|0,3:2|0:0,0:0:0:0:
146,165,23288,1,2,0:2:0:0:
252,66,23432,2,0,L|177:91,1,80,10|0,3:2|0:0,0:0:0:0:
222,157,23720,1,2,0:2:0:0:
328,58,23864,2,0,L|253:83,1,80,2|0,3:2|0:0,0:0:0:0:
298,149,24152,1,2,0:2:0:0:
452,222,24296,1,8,3:2:0:0:
465,230,24583,1,2,3:2:0:0:
286,304,24727,6,0,B|307:260|307:260|298:149,1,160,4|2,3:2|3:2,0:0:0:0:
212,334,25159,2,0,P|236:366|271:383,2,80,10|8|10,3:2|0:0|0:2,0:0:0:0:
223,254,25590,5,8,0:3:0:0:
349,354,25734,1,8,0:3:0:0:
373,195,25878,1,8,0:3:0:0:
189,168,26022,5,4,3:3:0:0:
315,268,26166,1,4,0:3:0:0:
339,109,26310,1,4,0:3:0:0:
148,284,26454,6,0,L|-6:262,1,128,4|0,3:2|0:0,0:0:0:0:
42,103,26885,2,0,L|169:122,1,128,8|0,3:2|0:0,0:0:0:0:
158,203,27317,2,0,L|32:185,1,128,0|0,3:2|0:0,0:0:0:0:
53,23,27749,2,0,L|179:41,1,128,8|0,3:2|0:0,0:0:0:0:
392,78,28180,6,0,P|397:140|357:188,1,128,0|0,3:0|0:0,0:0:0:0:
247,153,28612,2,0,P|243:90|283:43,1,128,8|8,3:2|0:0,0:0:0:0:
428,59,29044,6,0,P|435:152|376:224,1,191.999994140625,2|0,3:2|0:0,0:0:0:0:
263,7,29475,2,0,P|204:79|212:172,1,191.999994140625,10|0,3:2|0:0,0:0:0:0:
271,373,29907,6,0,L|249:218,1,128,4|0,3:2|0:0,0:0:0:0:
414,221,30339,2,0,L|432:348,1,128,8|0,3:2|0:0,0:0:0:0:
351,360,30770,2,0,L|334:234,1,128,0|0,3:2|0:0,0:0:0:0:
495,209,31202,2,0,L|512:335,1,128,8|0,3:2|0:0,0:0:0:0:
383,146,31634,6,0,L|446:137,1,64,0|0,3:0|0:0,0:0:0:0:
294,159,31921,1,0,3:0:0:0:
327,68,32065,2,0,L|453:50,1,128,8|8,3:2|0:0,0:0:0:0:
356,234,32497,5,10,3:2:0:0:
294,159,32641,1,8,0:0:0:0:
261,250,32785,1,8,0:0:0:0:
141,50,32929,5,10,3:2:0:0:
203,125,33072,1,8,0:0:0:0:
237,34,33216,1,8,3:2:0:0:
61,183,33360,6,0,L|187:165,1,128,4|0,3:2|0:0,0:0:0:0:
84,344,33792,2,0,L|66:218,1,128,8|0,3:2|0:0,0:0:0:0:
245,321,34224,2,0,L|119:339,1,128,0|0,3:0|0:0,0:0:0:0:
222,160,34655,2,0,L|240:286,1,128,8|0,3:2|0:0,0:0:0:0:
333,363,35087,5,0,3:0:0:0:
437,216,35375,1,0,0:0:0:0:
448,291,35519,1,8,3:2:0:0:
306,176,35806,1,0,0:0:0:0:
317,251,35950,1,0,3:0:0:0:
410,29,36238,1,0,0:0:0:0:
421,104,36382,2,0,L|295:86,1,128,8|0,3:2|0:0,0:0:0:0:
66,190,36813,6,0,P|96:135|156:119,1,128,0|0,3:0|0:0,0:0:0:0:
306,176,37245,2,0,P|276:231|216:247,1,128,8|0,3:2|0:0,0:0:0:0:
126,326,37677,2,0,L|144:200,1,128,0|0,3:0|0:0,0:0:0:0:
209,40,38108,2,0,L|227:166,1,128,8|0,3:2|0:0,0:0:0:0:
14,138,38540,2,0,L|140:120,1,128,0|0,3:0|0:0,0:0:0:0:
342,265,38972,2,0,L|216:247,1,128,8|0,3:2|0:0,0:0:0:0:
21,273,39403,6,0,L|101:262,1,80,0|0,3:2|0:0,0:0:0:0:
151,199,39691,1,0,3:0:0:0:
129,358,39835,2,0,L|151:199,1,160,8|0,3:2|0:0,0:0:0:0:
270,80,40267,6,0,P|264:135|288:206,1,128,4|0,3:2|0:0,0:0:0:0:
391,27,40698,2,0,P|336:21|265:45,1,128,8|0,3:2|0:0,0:0:0:0:
444,148,41130,2,0,P|450:93|426:22,1,128,0|0,3:0|0:0,0:0:0:0:
323,201,41562,2,0,P|378:207|449:183,1,128,8|0,3:2|0:0,0:0:0:0:
469,348,41993,6,0,B|445:310|445:310|363:298,1,128,0|0,3:0|0:0,0:0:0:0:
289,288,42425,1,8,3:2:0:0:
170,87,42713,1,0,0:0:0:0:
245,98,42857,1,0,3:0:0:0:
27,250,43144,1,0,0:0:0:0:
102,261,43288,2,0,L|84:135,1,128,8|0,3:2|0:0,0:0:0:0:
323,201,43720,6,0,L|197:183,1,128,0|0,3:0|0:0,0:0:0:0:
385,153,44152,2,0,P|402:213|371:266,1,128,8|0,3:2|0:0,0:0:0:0:
185,104,44583,2,0,L|311:122,1,128,0|0,3:0|0:0,0:0:0:0:
123,152,45015,2,0,P|105:91|136:38,1,128,8|0,3:2|0:0,0:0:0:0:
311,122,45447,2,0,L|293:248,1,128,0|0,3:0|0:0,0:0:0:0:
104,278,45878,2,0,L|122:152,1,128,8|0,3:2|0:0,0:0:0:0:
292,248,46310,5,8,0:0:0:0:
207,200,46454,1,8,0:0:0:0:
122,151,46598,1,8,0:3:0:0:
323,154,46742,5,8,3:3:0:0:
255,115,46885,1,4,0:3:0:0:
187,76,47029,1,4,0:3:0:0:
395,46,47173,5,4,3:2:0:0:
407,44,47461,1,0,0:0:0:0:
472,3,47605,2,0,B|484:42|484:42|452:149,1,128,8|0,3:2|0:0,0:0:0:0:
405,270,48037,1,0,3:0:0:0:
401,282,48324,1,0,0:0:0:0:
366,350,48468,2,0,P|428:351|472:307,1,128,8|0,3:2|0:0,0:0:0:0:
385,170,48900,5,0,3:0:0:0:
374,161,49188,1,0,0:0:0:0:
318,108,49331,2,0,L|192:90,1,128,8|0,3:2|0:0,0:0:0:0:
131,218,49763,2,0,L|122:155,1,64,0|0,3:2|0:0,0:0:0:0:
109,71,50051,1,0,3:0:0:0:
36,140,50195,2,0,L|54:266,1,128,8|0,3:2|0:0,0:0:0:0:
249,233,50626,6,0,P|191:205|130:219,1,128,0|0,3:0|0:0,0:0:0:0:
121,328,51058,2,0,P|177:354|238:340,1,128,8|0,3:2|0:0,0:0:0:0:
376,137,51490,2,0,P|318:109|257:123,1,128,0|0,3:0|0:0,0:0:0:0:
249,233,51921,2,0,P|305:259|366:245,1,128,8|0,3:2|0:0,0:0:0:0:
466,69,52353,6,0,L|448:195,1,128,2|0,3:2|0:0,0:0:0:0:
312,13,52785,2,0,L|331:171,1,160,10|0,3:2|0:0,0:0:0:0:
139,3,53216,2,0,L|211:178,1,191.999994140625,2|0,3:2|3:0,0:0:0:0:
22,115,53648,2,0,L|99:218,1,128,10|0,3:2|3:0,0:0:0:0:
189,342,54080,5,4,3:2:0:0:
197,352,54367,1,0,0:0:0:0:
272,365,54511,2,0,B|304:336|304:336|294:251,1,128,8|0,3:2|0:0,0:0:0:0:
273,98,54943,1,0,3:0:0:0:
271,85,55231,1,0,0:0:0:0:
322,26,55375,2,0,P|262:8|209:38,1,128,8|0,3:2|0:0,0:0:0:0:
128,170,55806,5,0,3:0:0:0:
123,182,56094,1,0,0:0:0:0:
66,234,56238,2,0,L|192:216,1,128,8|0,3:2|0:0,0:0:0:0:
350,192,56670,2,0,L|287:201,1,64,0|0,3:2|0:0,0:0:0:0:
362,275,56957,1,0,3:0:0:0:
433,180,57101,2,0,L|415:54,1,128,8|0,3:2|0:0,0:0:0:0:
170,67,57533,6,0,B|234:59,1,64,4|0,3:2|0:0,0:0:0:0:
117,0,57821,1,0,0:0:0:0:
122,128,57965,2,0,B|159:147|159:147|245:135,1,128,8|0,3:2|0:0,0:0:0:0:
441,117,58396,2,0,B|433:180,2,64,0|0|0,3:2|0:0|0:0,0:0:0:0:
482,241,58828,2,0,B|445:260|445:260|359:248,1,128,8|0,3:2|0:0,0:0:0:0:
103,157,59260,6,0,B|166:148,1,64,4|0,3:2|0:0,0:0:0:0:
244,135,59547,1,0,0:0:0:0:
103,237,59691,2,0,B|229:218,1,128,8|0,3:2|0:0,0:0:0:0:
122,77,60123,2,0,P|47:98|24:156,1,128,0|0,3:0|3:0,0:0:0:0:
229,218,60555,2,0,P|303:196|326:138,1,128,8|0,3:2|3:0,0:0:0:0:
264,8,60986,6,0,B|245:134,1,128,4|0,3:2|0:0,0:0:0:0:
219,281,61418,2,0,B|228:218,1,64,8|0,3:2|0:0,0:0:0:0:
313,295,61706,1,8,0:0:0:0:
203,364,61849,2,0,B|76:345,1,128,0|0,3:0|3:0,0:0:0:0:
40,238,62281,5,8,3:2:0:0:
59,235,62425,1,8,0:0:0:0:
79,232,62569,1,8,3:2:0:0:
330,193,62713,5,2,3:2:0:0:
222,57,62857,1,2,3:2:0:0:
159,217,63001,1,2,3:2:0:0:
314,94,63144,5,2,3:2:0:0:
252,253,63288,1,2,3:2:0:0:
145,119,63432,1,2,3:2:0:0:
345,291,63576,5,2,3:2:0:0:
345,291,64439,6,0,P|259:270|171:273,1,176.000005371094,6|0,3:2|0:0,0:0:0:0:
8,151,64871,2,0,P|93:171|181:168,1,176.000005371094,10|0,3:2|0:0,0:0:0:0:
322,18,65303,2,0,P|257:72|274:154,1,176.000005371094,2|0,3:2|0:0,0:0:0:0:
452,252,65734,2,0,P|516:197|499:115,1,176.000005371094,10|0,3:2|0:0,0:0:0:0:
351,178,66166,6,0,L|438:169,1,88.000002685547,2|0,3:2|0:0,0:0:0:0:
334,99,66454,1,2,0:2:0:0:
380,305,66598,1,8,3:2:0:0:
384,321,66885,1,10,0:2:0:0:
334,99,67029,2,0,L|246:90,1,88.000002685547,0|0,3:0|0:0,0:0:0:0:
351,178,67317,1,2,0:2:0:0:
393,45,67461,2,0,P|357:21|314:20,1,88.000002685547,10|0,3:2|0:0,0:0:0:0:
200,222,67749,1,2,0:2:0:0:
166,65,67893,6,0,P|210:66|246:90,1,88.000002685547,2|0,3:2|0:0,0:0:0:0:
278,248,68180,1,2,0:2:0:0:
124,200,68324,2,0,P|146:163|185:143,1,88.000002685547,10|0,3:2|0:0,0:0:0:0:
338,193,68612,1,2,0:2:0:0:
219,304,68756,2,0,P|198:265|201:222,1,88.000002685547,2|0,3:2|0:0,0:0:0:0:
320,113,69044,1,2,0:2:0:0:
166,65,69188,1,8,3:2:0:0:
149,59,69475,1,2,0:2:0:0:
344,25,69619,6,0,B|320:69|320:69|338:193,1,176.000005371094,0|2,3:0|0:2,0:0:0:0:
490,101,70051,2,0,B|402:87,1,88.000002685547,10|0,3:2|0:0,0:0:0:0:
231,26,70339,1,10,0:2:0:0:
185,142,70483,5,2,3:2:0:0:
44,56,70626,2,0,B|131:69,1,88.000002685547,8|0,0:0|0:0,0:0:0:0:
240,216,70914,5,8,3:2:0:0:
276,132,71058,1,8,0:0:0:0:
221,58,71202,1,8,0:3:0:0:
66,190,71346,6,0,B|240:216,1,176.000005371094,6|0,3:2|0:0,0:0:0:0:
449,145,71778,2,0,P|365:151|331:228,1,176.000005371094,10|0,3:2|0:0,0:0:0:0:
448,336,72209,2,0,B|274:310,1,176.000005371094,2|0,3:2|0:0,0:0:0:0:
65,381,72641,2,0,P|148:374|182:297,1,176.000005371094,10|0,3:2|0:0,0:0:0:0:
88,219,73072,6,0,B|101:305,1,88.000002685547,2|0,3:2|0:0,0:0:0:0:
240,226,73360,1,2,0:2:0:0:
42,153,73504,1,8,3:2:0:0:
25,147,73792,1,10,0:2:0:0:
240,226,73936,2,0,B|253:138,1,88.000002685547,0|0,3:0|0:0,0:0:0:0:
163,259,74224,1,2,0:2:0:0:
333,143,74367,2,0,P|324:100|294:68,1,88.000002685547,10|0,3:2|0:0,0:0:0:0:
86,136,74655,1,2,0:2:0:0:
173,0,74799,6,0,P|202:31|211:74,1,88.000002685547,2|0,3:2|0:0,0:0:0:0:
122,207,75087,1,2,0:2:0:0:
47,64,75231,2,0,P|89:53|130:68,1,88.000002685547,10|0,3:2|0:0,0:0:0:0:
203,212,75519,1,2,0:2:0:0:
42,207,75662,2,0,P|54:165|87:136,1,88.000002685547,2|0,3:2|0:0,0:0:0:0:
239,284,75950,1,2,0:2:0:0:
214,91,76094,1,8,3:2:0:0:
210,74,76382,1,2,3:2:0:0:
379,224,76526,6,0,L|203:212,1,176.000005371094,4|2,3:2|0:2,0:0:0:0:
291,69,76957,2,0,L|378:63,1,88.000002685547,10|0,3:2|0:0,0:0:0:0:
512,54,77245,1,10,0:2:0:0:
469,243,77389,5,0,3:0:0:0:
356,144,77533,1,8,0:0:0:0:
327,292,77677,1,8,0:0:0:0:
210,74,77821,5,8,3:2:0:0:
176,251,77965,1,8,0:0:0:0:
39,131,78108,1,8,0:3:0:0:
3,370,78252,6,0,P|89:349|177:352,1,176.000005371094,6|0,3:2|0:0,0:0:0:0:
355,204,78684,2,0,P|269:225|181:222,1,176.000005371094,10|0,3:2|0:0,0:0:0:0:
30,104,79116,2,0,P|84:39|166:56,1,176.000005371094,2|0,3:2|0:0,0:0:0:0:
264,234,79547,2,0,P|209:298|127:281,1,176.000005371094,10|0,3:2|0:0,0:0:0:0:
191,134,79979,6,0,L|182:221,1,88.000002685547,2|0,3:2|0:0,0:0:0:0:
111,116,80267,1,2,0:2:0:0:
319,83,80411,1,8,3:2:0:0:
336,81,80698,1,10,0:2:0:0:
111,116,80842,2,0,L|102:29,1,88.000002685547,0|0,3:0|0:0,0:0:0:0:
61,187,81130,1,2,0:2:0:0:
228,208,81274,2,0,P|219:163|181:128,1,88.000002685547,10|0,3:2|0:0,0:0:0:0:
28,112,81562,1,2,0:2:0:0:
94,265,81706,6,0,L|9:287,1,88.000002685547,2|0,3:2|0:0,0:0:0:0:
111,116,81993,1,2,0:2:0:0:
177,269,82137,2,0,L|92:291,1,88.000002685547,10|0,3:2|0:0,0:0:0:0:
194,120,82425,1,2,0:2:0:0:
260,273,82569,2,0,L|175:295,1,88.000002685547,2|0,3:2|0:0,0:0:0:0:
277,124,82857,1,2,0:2:0:0:
343,277,83001,1,8,3:2:0:0:
352,294,83288,1,2,0:2:0:0:
425,114,83432,6,0,P|348:79|277:124,1,176.000005371094,0|2,3:0|0:2,0:0:0:0:
370,376,83864,2,0,P|408:356|430:318,1,88.000002685547,10|0,3:2|0:0,0:0:0:0:
352,164,84152,1,10,0:2:0:0:
352,294,84296,5,2,3:2:0:0:
503,222,84439,2,0,B|416:235,1,88.000002685547,8|0,0:0|0:0,0:0:0:0:
196,266,84727,5,8,3:2:0:0:
282,235,84871,1,8,0:0:0:0:
352,294,85015,1,8,0:0:0:0:
135,320,85159,6,0,P|119:237|183:184,1,176.000005371094,6|0,3:2|0:0,0:0:0:0:
370,241,85590,2,0,B|195:266,1,176.000005371094,10|0,3:2|0:0,0:0:0:0:
331,116,86022,2,0,B|505:90,1,176.000005371094,2|0,3:2|0:0,0:0:0:0:
270,171,86454,2,0,P|254:88|318:35,1,176.000005371094,10|0,3:2|0:0,0:0:0:0:
370,241,86885,6,0,B|282:254,1,88.000002685547,2|0,3:2|0:0,0:0:0:0:
331,116,87173,1,2,0:2:0:0:
395,317,87317,1,8,3:2:0:0:
400,333,87605,1,10,0:2:0:0:
331,116,87749,2,0,B|419:129,1,88.000002685547,0|0,3:0|0:0,0:0:0:0:
270,171,88037,1,2,0:2:0:0:
289,44,88180,2,0,P|331:33|374:44,1,88.000002685547,10|0,3:2|0:0,0:0:0:0:
348,196,88468,1,2,0:2:0:0:
192,117,88612,6,0,B|179:29,1,88.000002685547,2|0,3:2|0:0,0:0:0:0:
20,137,88900,1,2,0:2:0:0:
179,204,89044,2,0,B|192:116,1,88.000002685547,10|0,3:2|0:0,0:0:0:0:
348,196,89331,1,2,0:2:0:0:
192,291,89475,2,0,B|179:203,1,88.000002685547,2|0,3:2|0:0,0:0:0:0:
20,312,89763,1,2,0:2:0:0:
179,378,89907,2,0,B|192:290,1,88.000002685547,10|0,3:2|0:0,0:0:0:0:
348,371,90195,1,2,3:2:0:0:
85,384,90339,5,14,3:2:0:0:
121,237,90483,1,8,0:0:0:0:
230,341,90626,1,10,3:2:0:0:
233,119,90770,5,10,3:2:0:0:
352,233,90913,1,8,0:0:0:0:
392,71,91057,1,10,3:2:0:0:
407,304,91202,5,10,3:2:0:0:
236,234,91346,1,8,0:0:0:0:
424,166,91490,1,8,0:0:0:0:
156,2,91634,5,10,3:2:0:0:
344,79,91778,1,8,0:0:0:0:
137,153,91922,1,8,0:0:0:0:
418,13,92065,6,0,B|441:62|441:62|424:172,1,160,6|0,3:2|0:0,0:0:0:0:
352,233,92497,2,0,B|329:184|329:184|345:79,1,160,8|0,3:2|0:0,0:0:0:0:
233,12,92929,2,0,B|256:61|256:61|239:171,1,160,0|0,3:0|0:0,0:0:0:0:
167,232,93360,2,0,B|144:183|144:183|160:78,1,160,8|0,3:2|0:0,0:0:0:0:
261,260,93792,6,0,P|212:320|134:326,1,160,0|0,3:0|0:0,0:0:0:0:
72,203,94224,2,0,P|121:142|199:137,1,160,8|8,3:2|0:0,0:0:0:0:
298,271,94655,6,0,P|229:355|121:364,1,223.999993164063,2|0,3:2|0:0,0:0:0:0:
212,99,95087,2,0,P|104:108|35:192,1,223.999993164063,10|0,3:2|0:0,0:0:0:0:
120,364,95519,6,0,L|279:349,1,160,4|0,3:2|0:0,0:0:0:0:
315,193,95950,2,0,L|156:208,1,160,8|0,3:2|0:0,0:0:0:0:
139,286,96382,2,0,L|298:271,1,160,0|0,3:2|0:0,0:0:0:0:
332,115,96813,2,0,L|173:130,1,160,8|0,3:2|0:0,0:0:0:0:
389,41,97245,6,0,P|424:110|396:182,1,160,0|0,3:0|0:0,0:0:0:0:
311,344,97677,2,0,P|276:274|304:202,1,160,8|8,3:2|0:0,0:0:0:0:
460,252,98108,5,10,3:2:0:0:
396,182,98252,1,8,0:3:0:0:
304,202,98396,1,8,0:3:0:0:
85,146,98540,5,10,3:2:0:0:
149,76,98684,1,4,0:3:0:0:
241,96,98828,1,4,0:3:0:0:
456,20,98972,6,0,B|396:47|396:47|304:28,1,160,4|0,3:2|0:0,0:0:0:0:
180,122,99403,2,0,B|240:96|240:96|332:115,1,160,8|0,3:2|0:0,0:0:0:0:
512,181,99835,2,0,B|452:207|452:207|359:188,1,160,0|0,3:0|0:0,0:0:0:0:
235,281,100267,2,0,B|294:254|294:254|387:273,1,160,8|0,3:2|0:0,0:0:0:0:
178,355,100698,6,0,P|143:285|171:213,1,160,0|0,3:0|0:0,0:0:0:0:
290,206,101130,2,0,P|325:275|298:348,1,160,8|8,3:2|0:0,0:0:0:0:
154,384,101562,6,0,P|105:287|146:186,1,223.999993164063,2|0,3:2|0:0,0:0:0:0:
322,375,101993,2,0,P|361:274|313:177,1,223.999993164063,10|0,3:2|0:0,0:0:0:0:
129,27,102425,6,0,L|144:186,1,160,4|0,3:2|0:0,0:0:0:0:
300,221,102857,2,0,L|285:62,1,160,8|0,3:2|0:0,0:0:0:0:
207,45,103288,2,0,L|222:204,1,160,0|0,3:2|0:0,0:0:0:0:
378,238,103720,2,0,L|363:79,1,160,8|0,3:2|0:0,0:0:0:0:
310,301,104152,6,0,P|382:330|452:295,1,160,0|0,3:0|0:0,0:0:0:0:
505,73,104583,2,0,P|432:44|363:79,1,160,8|8,3:2|0:0,0:0:0:0:
378,238,105015,5,2,3:2:0:0:
436,135,105159,1,8,0:0:0:0:
496,236,105303,1,8,0:0:0:0:
202,343,105447,5,10,3:2:0:0:
260,240,105590,1,8,0:0:0:0:
320,341,105734,1,8,0:0:0:0:
81,164,105878,5,8,3:2:0:0:
70,259,106022,1,8,0:0:0:0:
59,354,106166,1,8,0:0:0:0:
198,120,106310,5,8,3:2:0:0:
206,191,106454,1,8,0:3:0:0:
215,262,106598,1,8,0:3:0:0:
315,76,106742,5,0,3:2:0:0:
309,123,106885,1,4,0:3:0:0:
304,170,107029,1,4,0:3:0:0:
432,32,107173,5,8,3:2:0:0:
435,55,107317,1,0,3:3:0:0:
438,78,107461,1,0,3:3:0:0:
256,0,107605,5,4,3:2:0:0:
256,192,107749,12,0,114511,0:0:0:0:
