osu file format v14

[General]
AudioFilename: audio.mp3
AudioLeadIn: 0
PreviewTime: 14163
Countdown: 0
SampleSet: Drum
StackLeniency: 0.7
Mode: 0
LetterboxInBreaks: 0
WidescreenStoryboard: 1

[Editor]
Bookmarks: 177595
DistanceSpacing: 3.5
BeatDivisor: 4
GridSize: 8
TimelineZoom: 1.9

[Metadata]
Title:Diddley-Dee
TitleUnicode:Diddley-Dee
Artist:Cartoons
ArtistUnicode:Cartoons
Creator:kongehund
Version:hitsounds (not a map)
Source:
Tags:Country Pop Eurodance Danish English Toontastic Guitar Bass Saxophone Kiss
BeatmapID:2897553
BeatmapSetID:1393023

[Difficulty]
HPDrainRate:5
CircleSize:3.2
OverallDifficulty:6
ApproachRate:7.5
SliderMultiplier:1
SliderTickRate:1

[Events]
//Background and Video events
0,0,"cartoons.jpg",0,0
//Break Periods
2,136601,139158
//Storyboard Layer 0 (Background)
//Storyboard Layer 1 (Fail)
//Storyboard Layer 2 (Pass)
//Storyboard Layer 3 (Foreground)
//Storyboard Layer 4 (Overlay)
//Storyboard Sound Samples

[TimingPoints]
282.432835820896,447.761194029851,4,1,1,50,1,0
282.432835820896,-133.333333333333,4,1,1,50,0,0
7446,-100,4,1,1,80,0,0
12819,-100,4,3,1,50,0,0
13939,-33.3333333333333,4,2,1,60,0,0
14610,-100,4,1,1,80,0,0
28939,-133.333333333333,4,3,2,60,0,0
32521,-133.333333333333,4,3,1,60,0,0
34312,-133.333333333333,4,3,2,60,0,0
36103,-133.333333333333,4,3,1,60,0,0
37894,-133.333333333333,4,3,2,60,0,0
39685,-133.333333333333,4,3,1,60,0,0
41476,-133.333333333333,4,3,2,60,0,0
43267,-133.333333333333,4,3,1,60,0,0
45058,-133.333333333333,4,3,2,60,0,0
46177,-33.3333333333333,4,2,1,50,0,0
46849,-100,4,1,1,80,0,0
68342,-133.333333333333,4,3,2,60,0,0
71924,-133.333333333333,4,3,1,60,0,0
73715,-133.333333333333,4,3,2,60,0,0
75506,-133.333333333333,4,3,1,60,0,0
77297,-133.333333333333,4,3,2,60,0,0
79088,-133.333333333333,4,3,1,60,0,0
80879,-133.333333333333,4,3,2,60,0,0
82670,-133.333333333333,4,3,1,60,0,0
84461,-133.333333333333,4,3,2,60,0,0
86252,-133.333333333333,4,3,1,60,0,0
92745,-33.3333333333333,4,2,1,50,0,0
93416,-100,4,1,1,80,0,0
122073,-100,4,1,1,80,0,1
136401,-133.333333333333,4,2,1,60,0,0
143566,-111.111111111111,4,2,1,60,0,0
148939,-111.111111111111,4,3,1,50,0,0
150058,-33.3333333333333,4,2,1,50,0,0
150730,-100,4,1,1,80,0,0
179386,-100,4,2,1,60,0,0
180506,-33.3333333333333,4,2,1,50,0,0

[Colours]
Combo1 : 255,0,0
Combo2 : 255,204,0
Combo3 : 255,128,255
Combo4 : 111,55,0

[HitObjects]
156,148,58,5,0,0:0:0:0:
156,148,170,1,0,0:0:0:0:
156,148,282,5,0,0:0:0:0:
156,148,506,1,0,0:0:0:0:
156,148,730,1,0,0:0:0:0:
156,148,842,1,0,0:0:0:0:
156,148,954,1,0,0:0:0:0:
156,148,1177,1,0,0:0:0:0:
156,148,1401,1,0,0:0:0:0:
156,148,1625,1,0,0:0:0:0:
156,148,1849,1,0,0:0:0:0:
156,148,2073,5,0,0:0:0:0:
156,148,2297,1,0,0:0:0:0:
156,148,2521,1,0,0:0:0:0:
156,148,2633,1,0,0:0:0:0:
156,148,2745,1,0,0:0:0:0:
156,148,2969,1,0,0:0:0:0:
156,148,3192,1,0,0:0:0:0:
156,148,3416,1,0,0:0:0:0:
156,148,3640,1,0,0:0:0:0:
156,148,3864,5,0,0:0:0:0:
156,148,4088,1,0,0:0:0:0:
156,148,4312,1,0,0:0:0:0:
156,148,4424,1,0,0:0:0:0:
156,148,4536,1,0,0:0:0:0:
156,148,4760,1,0,0:0:0:0:
156,148,4871,1,0,0:0:0:0:
156,148,4983,1,0,0:0:0:0:
156,148,5207,1,0,0:0:0:0:
156,148,5431,1,0,0:0:0:0:
351,98,5655,5,4,0:0:0:0:
351,98,6103,1,4,0:0:0:0:
351,98,6551,1,4,0:0:0:0:
351,98,6998,1,4,0:0:0:0:
136,111,7446,5,8,0:0:0:0:
351,98,7670,1,2,0:0:0:0:
136,111,7894,1,8,0:0:0:0:
351,98,8118,1,2,0:0:0:0:
136,111,8342,1,8,0:0:0:0:
351,98,8566,1,2,0:0:0:0:
136,111,8790,1,8,0:0:0:0:
351,98,9013,1,2,0:0:0:0:
136,111,9237,5,8,0:0:0:0:
351,98,9461,1,2,0:0:0:0:
136,111,9685,1,8,0:0:0:0:
351,98,9909,1,2,0:0:0:0:
136,111,10133,1,8,0:0:0:0:
351,98,10357,1,2,0:0:0:0:
136,111,10581,1,8,0:0:0:0:
351,98,10805,1,2,0:0:0:0:
136,111,11028,5,8,0:0:0:0:
351,98,11252,1,2,0:0:0:0:
136,111,11476,1,8,0:0:0:0:
351,98,11700,1,2,0:0:0:0:
136,111,11924,1,8,0:0:0:0:
351,98,12148,5,2,0:0:0:0:
136,111,12372,1,8,0:0:0:0:
351,98,12596,1,2,0:0:0:0:
85,329,12819,5,8,0:0:0:0:
85,329,12931,1,8,0:0:0:0:
85,329,13043,1,8,0:0:0:0:
85,329,13267,5,8,0:0:0:0:
85,329,13379,1,8,0:0:0:0:
85,329,13491,1,8,0:0:0:0:
85,329,13715,5,8,0:0:0:0:
229,133,13939,5,4,0:0:0:0:
306,139,14163,1,4,0:0:0:0:
136,111,14610,5,8,0:0:0:0:
351,98,14834,1,2,0:0:0:0:
136,111,15058,1,8,0:0:0:0:
351,98,15282,1,2,0:0:0:0:
136,111,15506,1,8,0:0:0:0:
351,98,15730,1,2,0:0:0:0:
136,111,15954,1,8,0:0:0:0:
351,98,16177,1,2,0:0:0:0:
136,111,16401,5,8,0:0:0:0:
351,98,16625,1,2,0:0:0:0:
136,111,16849,1,8,0:0:0:0:
351,98,17073,1,2,0:0:0:0:
136,111,17297,1,8,0:0:0:0:
351,98,17521,1,2,0:0:0:0:
136,111,17745,1,8,0:0:0:0:
351,98,17969,1,2,0:0:0:0:
136,111,18192,5,8,0:0:0:0:
351,98,18416,1,2,0:0:0:0:
136,111,18640,1,8,0:0:0:0:
351,98,18864,1,2,0:0:0:0:
136,111,19088,1,8,0:0:0:0:
351,98,19312,1,2,0:0:0:0:
136,111,19536,1,8,0:0:0:0:
351,98,19760,1,2,0:0:0:0:
351,98,19983,1,4,0:0:0:0:
351,98,20431,1,4,0:0:0:0:
351,98,20879,1,4,0:0:0:0:
351,98,21327,1,4,0:0:0:0:
136,111,21774,5,8,0:0:0:0:
351,98,21998,1,2,0:0:0:0:
136,111,22222,1,8,0:0:0:0:
351,98,22446,1,2,0:0:0:0:
136,111,22670,1,8,0:0:0:0:
351,98,22894,1,2,0:0:0:0:
136,111,23118,1,8,0:0:0:0:
351,98,23341,1,2,0:0:0:0:
136,111,23565,5,8,0:0:0:0:
351,98,23789,1,2,0:0:0:0:
136,111,24013,1,8,0:0:0:0:
351,98,24237,1,2,0:0:0:0:
136,111,24461,1,8,0:0:0:0:
351,98,24685,1,2,0:0:0:0:
136,111,24909,1,8,0:0:0:0:
351,98,25133,1,2,0:0:0:0:
136,111,25356,5,8,0:0:0:0:
351,98,25580,1,2,0:0:0:0:
136,111,25804,1,8,0:0:0:0:
351,98,26028,1,2,0:0:0:0:
136,111,26252,1,8,0:0:0:0:
351,98,26476,5,2,0:0:0:0:
136,111,26700,1,8,0:0:0:0:
351,98,26924,1,2,0:0:0:0:
351,98,27148,1,4,0:0:0:0:
351,98,27595,1,4,0:0:0:0:
351,98,28043,1,4,0:0:0:0:
351,98,28491,1,4,0:0:0:0:
268,253,28939,5,2,0:0:0:0:
268,253,29274,1,2,0:0:0:0:
268,253,29610,1,2,0:0:0:0:
268,253,29946,1,2,0:0:0:0:
268,253,30058,1,2,0:0:0:0:
268,253,30282,1,2,0:0:0:0:
268,253,30730,5,2,0:0:0:0:
268,253,31066,1,2,0:0:0:0:
268,253,31401,1,2,0:0:0:0:
136,253,31625,1,2,0:0:0:0:
136,111,32521,5,8,0:0:0:0:
351,98,32745,1,2,0:0:0:0:
136,111,32969,1,8,0:0:0:0:
351,98,33192,1,2,0:0:0:0:
136,111,33416,1,8,0:0:0:0:
351,98,33640,1,2,0:0:0:0:
136,111,33864,1,8,0:0:0:0:
351,98,34088,1,2,0:0:0:0:
268,253,34312,5,2,0:0:0:0:
268,253,34648,1,2,0:0:0:0:
268,253,34983,1,2,0:0:0:0:
268,253,35319,1,2,0:0:0:0:
268,253,35431,1,2,0:0:0:0:
268,253,35655,1,2,0:0:0:0:
136,111,36103,5,8,0:0:0:0:
351,98,36327,1,2,0:0:0:0:
136,111,36551,1,8,0:0:0:0:
351,98,36774,1,2,0:0:0:0:
136,111,36998,1,8,0:0:0:0:
351,98,37222,1,2,0:0:0:0:
136,111,37446,1,8,0:0:0:0:
351,98,37670,1,2,0:0:0:0:
268,253,37894,5,2,0:0:0:0:
268,253,38230,1,2,0:0:0:0:
268,253,38566,1,2,0:0:0:0:
268,253,38901,1,2,0:0:0:0:
268,253,39013,1,2,0:0:0:0:
268,253,39237,1,2,0:0:0:0:
136,111,39685,5,8,0:0:0:0:
351,98,39909,1,2,0:0:0:0:
136,111,40133,1,8,0:0:0:0:
351,98,40356,1,2,0:0:0:0:
351,98,40357,1,4,0:0:0:0:
136,111,40580,1,8,0:0:0:0:
351,98,40804,1,2,0:0:0:0:
136,111,41028,1,8,0:0:0:0:
351,98,41252,1,2,0:0:0:0:
268,253,41476,5,2,0:0:0:0:
268,253,41812,1,2,0:0:0:0:
268,253,42148,1,2,0:0:0:0:
268,253,42483,1,2,0:0:0:0:
268,253,42595,1,2,0:0:0:0:
268,253,42819,1,2,0:0:0:0:
136,111,43267,5,8,0:0:0:0:
351,98,43491,1,2,0:0:0:0:
136,111,43715,1,8,0:0:0:0:
351,98,43938,1,2,0:0:0:0:
351,98,43939,1,4,0:0:0:0:
136,111,44162,1,8,0:0:0:0:
136,111,44163,1,8,0:0:0:0:
351,98,44386,1,2,0:0:0:0:
136,111,44610,1,8,0:0:0:0:
351,98,44834,1,2,0:0:0:0:
268,253,45058,5,2,0:0:0:0:
268,253,45394,1,2,0:0:0:0:
268,253,45730,1,2,0:0:0:0:
229,133,46177,5,4,0:0:0:0:
306,139,46401,1,4,0:0:0:0:
136,111,46849,5,8,0:0:0:0:
351,98,47073,1,2,0:0:0:0:
136,111,47297,1,8,0:0:0:0:
351,98,47521,1,2,0:0:0:0:
136,111,47745,1,8,0:0:0:0:
351,98,47969,1,2,0:0:0:0:
136,111,48192,1,8,0:0:0:0:
351,98,48416,1,2,0:0:0:0:
136,111,48640,5,8,0:0:0:0:
351,98,48864,1,2,0:0:0:0:
136,111,49088,1,8,0:0:0:0:
351,98,49312,1,2,0:0:0:0:
136,111,49536,1,8,0:0:0:0:
351,98,49760,1,2,0:0:0:0:
136,111,49983,1,8,0:0:0:0:
351,98,50207,1,2,0:0:0:0:
136,111,50431,5,8,0:0:0:0:
351,98,50655,1,2,0:0:0:0:
136,111,50879,1,8,0:0:0:0:
351,98,51103,1,2,0:0:0:0:
136,111,51327,1,8,0:0:0:0:
351,98,51551,1,2,0:0:0:0:
136,111,51774,1,8,0:0:0:0:
351,98,51998,1,2,0:0:0:0:
351,98,52222,1,4,0:0:0:0:
351,98,52670,1,4,0:0:0:0:
351,98,53118,1,4,0:0:0:0:
351,98,53566,1,4,0:0:0:0:
136,111,54013,5,8,0:0:0:0:
351,98,54237,1,2,0:0:0:0:
136,111,54461,1,8,0:0:0:0:
351,98,54685,1,2,0:0:0:0:
136,111,54909,1,8,0:0:0:0:
351,98,55133,1,2,0:0:0:0:
136,111,55357,1,8,0:0:0:0:
351,98,55580,1,2,0:0:0:0:
136,111,55804,5,8,0:0:0:0:
351,98,56028,1,2,0:0:0:0:
136,111,56252,1,8,0:0:0:0:
351,98,56476,1,2,0:0:0:0:
136,111,56700,1,8,0:0:0:0:
351,98,56924,1,2,0:0:0:0:
136,111,57148,1,8,0:0:0:0:
351,98,57371,1,2,0:0:0:0:
136,111,57595,5,8,0:0:0:0:
351,98,57819,1,2,0:0:0:0:
136,111,58043,1,8,0:0:0:0:
351,98,58267,1,2,0:0:0:0:
136,111,58491,1,8,0:0:0:0:
351,98,58715,1,2,0:0:0:0:
136,111,58939,1,8,0:0:0:0:
351,98,59163,1,2,0:0:0:0:
351,98,59386,5,4,0:0:0:0:
351,98,59834,1,4,0:0:0:0:
351,98,60282,1,4,0:0:0:0:
351,98,60730,1,4,0:0:0:0:
136,111,61177,5,8,0:0:0:0:
351,98,61401,1,2,0:0:0:0:
136,111,61625,1,8,0:0:0:0:
351,98,61849,1,2,0:0:0:0:
136,111,62073,1,8,0:0:0:0:
351,98,62297,1,2,0:0:0:0:
136,111,62521,1,8,0:0:0:0:
351,98,62744,1,2,0:0:0:0:
136,111,62968,5,8,0:0:0:0:
351,98,63192,1,2,0:0:0:0:
136,111,63416,1,8,0:0:0:0:
351,98,63640,1,2,0:0:0:0:
136,111,63864,1,8,0:0:0:0:
351,98,64088,1,2,0:0:0:0:
136,111,64312,1,8,0:0:0:0:
351,98,64535,1,2,0:0:0:0:
136,111,64760,5,8,0:0:0:0:
351,98,64984,1,2,0:0:0:0:
136,111,65208,1,8,0:0:0:0:
351,98,65432,1,2,0:0:0:0:
136,111,65656,1,8,0:0:0:0:
351,98,65880,1,2,0:0:0:0:
136,111,66104,1,8,0:0:0:0:
351,98,66327,1,2,0:0:0:0:
136,111,66551,5,8,0:0:0:0:
351,98,66775,1,2,0:0:0:0:
136,111,66999,1,8,0:0:0:0:
351,98,67223,1,2,0:0:0:0:
136,111,67447,1,8,0:0:0:0:
351,98,67671,1,2,0:0:0:0:
136,111,67895,1,8,0:0:0:0:
351,98,68118,1,2,0:0:0:0:
268,253,68342,5,2,0:0:0:0:
268,253,68677,1,2,0:0:0:0:
268,253,69013,1,2,0:0:0:0:
268,253,69349,1,2,0:0:0:0:
268,253,69461,1,2,0:0:0:0:
268,253,69685,1,2,0:0:0:0:
268,253,70133,5,2,0:0:0:0:
268,253,70469,1,2,0:0:0:0:
268,253,70804,1,2,0:0:0:0:
268,253,71028,1,2,0:0:0:0:
136,111,71924,5,8,0:0:0:0:
351,98,72148,1,2,0:0:0:0:
136,111,72371,1,8,0:0:0:0:
351,98,72595,1,2,0:0:0:0:
136,111,72819,1,8,0:0:0:0:
351,98,73043,1,2,0:0:0:0:
136,111,73267,1,8,0:0:0:0:
351,98,73491,1,2,0:0:0:0:
268,253,73715,5,2,0:0:0:0:
268,253,74051,1,2,0:0:0:0:
268,253,74386,1,2,0:0:0:0:
268,253,74722,1,2,0:0:0:0:
268,253,74834,1,2,0:0:0:0:
268,253,75058,1,2,0:0:0:0:
136,111,75506,5,8,0:0:0:0:
351,98,75730,1,2,0:0:0:0:
136,111,75953,1,8,0:0:0:0:
351,98,76177,1,2,0:0:0:0:
136,111,76401,1,8,0:0:0:0:
351,98,76625,1,2,0:0:0:0:
136,111,76849,1,8,0:0:0:0:
351,98,77073,1,2,0:0:0:0:
268,253,77297,5,2,0:0:0:0:
268,253,77633,1,2,0:0:0:0:
268,253,77969,1,2,0:0:0:0:
268,253,78304,1,2,0:0:0:0:
268,253,78416,1,2,0:0:0:0:
268,253,78640,1,2,0:0:0:0:
136,111,79088,5,8,0:0:0:0:
351,98,79312,1,2,0:0:0:0:
136,111,79535,1,8,0:0:0:0:
351,98,79759,1,2,0:0:0:0:
136,111,79983,1,8,0:0:0:0:
351,98,80207,1,2,0:0:0:0:
136,111,80431,1,8,0:0:0:0:
351,98,80655,1,2,0:0:0:0:
268,253,80879,5,2,0:0:0:0:
268,253,81215,1,2,0:0:0:0:
268,253,81551,1,2,0:0:0:0:
268,253,81886,1,2,0:0:0:0:
268,253,81998,1,2,0:0:0:0:
268,253,82222,1,2,0:0:0:0:
136,111,82670,5,8,0:0:0:0:
351,98,82894,1,2,0:0:0:0:
136,111,83117,1,8,0:0:0:0:
351,98,83341,1,2,0:0:0:0:
136,111,83565,1,8,0:0:0:0:
351,98,83789,1,2,0:0:0:0:
136,111,84013,1,8,0:0:0:0:
351,98,84237,1,2,0:0:0:0:
268,253,84461,5,2,0:0:0:0:
268,253,84797,1,2,0:0:0:0:
268,253,85133,1,2,0:0:0:0:
268,253,85469,1,2,0:0:0:0:
268,253,85580,1,2,0:0:0:0:
268,253,85804,1,2,0:0:0:0:
136,111,86252,5,8,0:0:0:0:
351,98,86476,1,2,0:0:0:0:
136,111,86699,1,8,0:0:0:0:
351,98,86923,1,2,0:0:0:0:
136,111,87147,1,8,0:0:0:0:
351,98,87371,1,2,0:0:0:0:
136,111,87595,1,8,0:0:0:0:
351,98,87819,1,2,0:0:0:0:
136,111,88043,5,8,0:0:0:0:
351,98,88267,1,2,0:0:0:0:
136,111,88490,1,8,0:0:0:0:
351,98,88714,1,2,0:0:0:0:
136,111,88938,1,8,0:0:0:0:
351,98,89162,1,2,0:0:0:0:
136,111,89386,1,8,0:0:0:0:
351,98,89610,1,2,0:0:0:0:
136,111,89834,5,8,0:0:0:0:
351,98,90058,1,2,0:0:0:0:
136,111,90281,1,8,0:0:0:0:
351,98,90505,1,2,0:0:0:0:
136,111,90729,1,8,0:0:0:0:
351,98,90953,1,2,0:0:0:0:
136,111,91177,1,8,0:0:0:0:
351,98,91401,1,2,0:0:0:0:
136,111,91625,5,8,0:0:0:0:
351,98,91849,1,2,0:0:0:0:
136,111,92072,1,8,0:0:0:0:
351,98,92296,1,2,0:0:0:0:
136,111,92520,1,8,0:0:0:0:
229,133,92745,5,4,0:0:0:0:
306,139,92969,1,4,0:0:0:0:
136,111,93416,5,8,0:0:0:0:
351,98,93640,1,2,0:0:0:0:
136,111,93863,1,8,0:0:0:0:
351,98,94087,1,2,0:0:0:0:
136,111,94311,1,8,0:0:0:0:
351,98,94535,1,2,0:0:0:0:
136,111,94759,1,8,0:0:0:0:
351,98,94983,1,2,0:0:0:0:
136,111,95207,5,8,0:0:0:0:
351,98,95431,1,2,0:0:0:0:
136,111,95654,1,8,0:0:0:0:
351,98,95878,1,2,0:0:0:0:
136,111,96102,1,8,0:0:0:0:
351,98,96327,1,2,0:0:0:0:
136,111,96550,1,8,0:0:0:0:
351,98,96774,1,2,0:0:0:0:
136,111,96998,5,8,0:0:0:0:
351,98,97222,1,2,0:0:0:0:
136,111,97445,1,8,0:0:0:0:
351,98,97669,1,2,0:0:0:0:
136,111,97893,1,8,0:0:0:0:
351,98,98117,1,2,0:0:0:0:
136,111,98341,1,8,0:0:0:0:
351,98,98565,1,2,0:0:0:0:
351,98,98789,1,4,0:0:0:0:
351,98,99237,1,4,0:0:0:0:
351,98,99685,1,4,0:0:0:0:
351,98,100133,1,4,0:0:0:0:
136,111,100580,5,8,0:0:0:0:
351,98,100804,1,2,0:0:0:0:
136,111,101027,1,8,0:0:0:0:
351,98,101251,1,2,0:0:0:0:
136,111,101475,1,8,0:0:0:0:
351,98,101699,1,2,0:0:0:0:
136,111,101923,1,8,0:0:0:0:
351,98,102147,1,2,0:0:0:0:
136,111,102371,5,8,0:0:0:0:
351,98,102595,1,2,0:0:0:0:
136,111,102818,1,8,0:0:0:0:
351,98,103042,1,2,0:0:0:0:
136,111,103266,1,8,0:0:0:0:
351,98,103491,1,2,0:0:0:0:
136,111,103714,1,8,0:0:0:0:
351,98,103938,1,2,0:0:0:0:
136,111,104162,5,8,0:0:0:0:
351,98,104386,1,2,0:0:0:0:
136,111,104609,1,8,0:0:0:0:
351,98,104833,1,2,0:0:0:0:
136,111,105057,1,8,0:0:0:0:
351,98,105281,5,2,0:0:0:0:
136,111,105505,1,8,0:0:0:0:
351,98,105729,1,2,0:0:0:0:
351,98,105954,1,4,0:0:0:0:
351,98,106401,1,4,0:0:0:0:
351,98,106849,1,4,0:0:0:0:
351,98,107297,1,4,0:0:0:0:
136,111,107745,5,8,0:0:0:0:
351,98,107969,1,2,0:0:0:0:
136,111,108192,1,8,0:0:0:0:
351,98,108416,1,2,0:0:0:0:
136,111,108640,1,8,0:0:0:0:
351,98,108864,1,2,0:0:0:0:
136,111,109088,1,8,0:0:0:0:
351,98,109312,1,2,0:0:0:0:
136,111,109536,5,8,0:0:0:0:
351,98,109760,1,2,0:0:0:0:
136,111,109983,1,8,0:0:0:0:
351,98,110207,1,2,0:0:0:0:
136,111,110431,1,8,0:0:0:0:
351,98,110656,1,2,0:0:0:0:
136,111,110879,1,8,0:0:0:0:
351,98,111103,1,2,0:0:0:0:
136,111,111327,5,8,0:0:0:0:
351,98,111551,1,2,0:0:0:0:
136,111,111774,1,8,0:0:0:0:
351,98,111998,1,2,0:0:0:0:
136,111,112222,1,8,0:0:0:0:
351,98,112446,5,2,0:0:0:0:
136,111,112670,1,8,0:0:0:0:
351,98,112894,1,2,0:0:0:0:
136,111,113118,5,8,0:0:0:0:
351,98,113342,1,2,0:0:0:0:
136,111,113565,1,8,0:0:0:0:
351,98,113789,1,2,0:0:0:0:
136,111,114013,1,8,0:0:0:0:
351,98,114237,1,2,0:0:0:0:
136,111,114461,1,8,0:0:0:0:
351,98,114685,1,2,0:0:0:0:
136,111,114909,5,8,0:0:0:0:
351,98,115133,1,2,0:0:0:0:
136,111,115356,1,8,0:0:0:0:
351,98,115580,1,2,0:0:0:0:
136,111,115804,1,8,0:0:0:0:
351,98,116029,1,2,0:0:0:0:
136,111,116252,1,8,0:0:0:0:
351,98,116476,1,2,0:0:0:0:
136,111,116700,5,8,0:0:0:0:
351,98,116924,1,2,0:0:0:0:
136,111,117147,1,8,0:0:0:0:
351,98,117371,1,2,0:0:0:0:
136,111,117595,1,8,0:0:0:0:
351,98,117819,5,2,0:0:0:0:
136,111,118043,1,8,0:0:0:0:
351,98,118267,1,2,0:0:0:0:
136,111,118491,5,8,0:0:0:0:
351,98,118715,1,2,0:0:0:0:
136,111,118938,1,8,0:0:0:0:
351,98,119162,1,2,0:0:0:0:
136,111,119386,1,8,0:0:0:0:
351,98,119610,1,2,0:0:0:0:
136,111,119834,1,8,0:0:0:0:
351,98,120058,1,2,0:0:0:0:
136,111,120282,5,8,0:0:0:0:
351,98,120506,1,2,0:0:0:0:
136,111,120729,1,8,0:0:0:0:
351,98,120953,1,2,0:0:0:0:
136,111,121177,1,8,0:0:0:0:
351,98,121402,1,2,0:0:0:0:
136,111,121625,1,8,0:0:0:0:
351,98,121849,1,2,0:0:0:0:
468,316,122073,5,4,0:0:0:0:
412,217,123864,5,4,0:0:0:0:
412,217,125655,5,4,0:0:0:0:
412,217,127446,5,4,0:0:0:0:
412,217,129237,5,4,0:0:0:0:
412,217,131028,5,4,0:0:0:0:
412,217,132819,5,4,0:0:0:0:
412,217,134610,5,4,0:0:0:0:
412,217,136401,5,4,0:0:0:0:
412,217,139983,5,4,0:0:0:0:
240,157,143342,5,8,0:0:0:0:
240,157,143566,5,12,0:0:0:0:
240,157,144013,1,8,0:0:0:0:
240,157,144461,1,8,0:0:0:0:
240,157,144909,1,8,0:0:0:0:
240,157,145357,1,8,0:0:0:0:
240,157,145804,1,8,0:0:0:0:
240,157,146252,1,8,0:0:0:0:
240,157,146700,1,8,0:0:0:0:
240,157,147148,1,12,0:0:0:0:
240,157,147595,1,8,0:0:0:0:
240,157,148043,1,8,0:0:0:0:
240,157,148491,1,8,0:0:0:0:
240,157,148939,5,8,0:0:0:0:
240,157,149051,1,8,0:0:0:0:
240,157,149163,1,8,0:0:0:0:
240,157,149386,1,8,0:0:0:0:
240,157,149498,1,8,0:0:0:0:
240,157,149610,1,8,0:0:0:0:
240,157,149834,1,8,0:0:0:0:
229,133,150058,5,4,0:0:0:0:
306,139,150282,1,4,0:0:0:0:
136,111,150730,5,8,0:0:0:0:
351,98,150954,1,2,0:0:0:0:
136,111,151177,1,8,0:0:0:0:
351,98,151401,1,2,0:0:0:0:
136,111,151625,1,8,0:0:0:0:
351,98,151849,1,2,0:0:0:0:
136,111,152073,1,8,0:0:0:0:
351,98,152297,1,2,0:0:0:0:
136,111,152521,5,8,0:0:0:0:
351,98,152745,1,2,0:0:0:0:
136,111,152968,1,8,0:0:0:0:
351,98,153192,1,2,0:0:0:0:
136,111,153416,1,8,0:0:0:0:
351,98,153641,1,2,0:0:0:0:
136,111,153864,1,8,0:0:0:0:
351,98,154088,1,2,0:0:0:0:
136,111,154312,5,8,0:0:0:0:
351,98,154536,1,2,0:0:0:0:
136,111,154759,1,8,0:0:0:0:
351,98,154983,1,2,0:0:0:0:
136,111,155207,1,8,0:0:0:0:
351,98,155431,1,2,0:0:0:0:
136,111,155655,1,8,0:0:0:0:
351,98,155879,1,2,0:0:0:0:
351,98,156103,5,4,0:0:0:0:
351,98,156551,1,4,0:0:0:0:
351,98,156998,1,4,0:0:0:0:
351,98,157446,1,4,0:0:0:0:
136,111,157894,5,8,0:0:0:0:
351,98,158118,1,2,0:0:0:0:
136,111,158341,1,8,0:0:0:0:
351,98,158565,1,2,0:0:0:0:
136,111,158789,1,8,0:0:0:0:
351,98,159013,1,2,0:0:0:0:
136,111,159237,1,8,0:0:0:0:
351,98,159461,1,2,0:0:0:0:
136,111,159685,5,8,0:0:0:0:
351,98,159909,1,2,0:0:0:0:
136,111,160132,1,8,0:0:0:0:
351,98,160356,1,2,0:0:0:0:
136,111,160580,1,8,0:0:0:0:
351,98,160804,1,2,0:0:0:0:
136,111,161028,1,8,0:0:0:0:
351,98,161252,1,2,0:0:0:0:
136,111,161476,5,8,0:0:0:0:
351,98,161700,1,2,0:0:0:0:
136,111,161923,1,8,0:0:0:0:
351,98,162147,1,2,0:0:0:0:
136,111,162371,1,8,0:0:0:0:
351,98,162595,1,2,0:0:0:0:
136,111,162819,1,8,0:0:0:0:
351,98,163043,1,2,0:0:0:0:
351,98,163267,5,4,0:0:0:0:
351,98,163715,1,4,0:0:0:0:
351,98,164163,1,4,0:0:0:0:
351,98,164610,1,4,0:0:0:0:
136,111,165058,5,8,0:0:0:0:
351,98,165282,1,2,0:0:0:0:
136,111,165505,1,8,0:0:0:0:
351,98,165729,1,2,0:0:0:0:
136,111,165953,1,8,0:0:0:0:
351,98,166177,1,2,0:0:0:0:
136,111,166401,1,8,0:0:0:0:
351,98,166625,1,2,0:0:0:0:
136,111,166849,5,8,0:0:0:0:
351,98,167073,1,2,0:0:0:0:
136,111,167296,1,8,0:0:0:0:
351,98,167520,1,2,0:0:0:0:
136,111,167744,1,8,0:0:0:0:
351,98,167968,1,2,0:0:0:0:
136,111,168192,1,8,0:0:0:0:
351,98,168416,1,2,0:0:0:0:
136,111,168640,5,8,0:0:0:0:
351,98,168864,1,2,0:0:0:0:
136,111,169087,1,8,0:0:0:0:
351,98,169311,1,2,0:0:0:0:
136,111,169535,1,8,0:0:0:0:
351,98,169759,1,2,0:0:0:0:
136,111,169983,1,8,0:0:0:0:
351,98,170207,1,2,0:0:0:0:
136,111,170431,5,8,0:0:0:0:
351,98,170655,1,2,0:0:0:0:
136,111,170878,1,8,0:0:0:0:
351,98,171102,1,2,0:0:0:0:
136,111,171326,1,8,0:0:0:0:
351,98,171550,1,2,0:0:0:0:
136,111,171774,1,8,0:0:0:0:
351,98,171998,1,2,0:0:0:0:
136,111,172222,5,8,0:0:0:0:
351,98,172446,1,2,0:0:0:0:
136,111,172669,1,8,0:0:0:0:
351,98,172893,1,2,0:0:0:0:
136,111,173117,1,8,0:0:0:0:
351,98,173341,1,2,0:0:0:0:
136,111,173565,1,8,0:0:0:0:
351,98,173789,1,2,0:0:0:0:
136,111,174013,5,8,0:0:0:0:
351,98,174237,1,2,0:0:0:0:
136,111,174460,1,8,0:0:0:0:
351,98,174684,1,2,0:0:0:0:
136,111,174908,1,8,0:0:0:0:
351,98,175132,1,2,0:0:0:0:
136,111,175356,1,8,0:0:0:0:
351,98,175580,1,2,0:0:0:0:
136,111,175804,5,8,0:0:0:0:
351,98,176028,1,2,0:0:0:0:
136,111,176251,1,8,0:0:0:0:
351,98,176475,1,2,0:0:0:0:
136,111,176699,1,8,0:0:0:0:
351,98,176923,1,2,0:0:0:0:
136,111,177147,1,8,0:0:0:0:
351,98,177371,1,2,0:0:0:0:
136,111,177595,5,8,0:0:0:0:
351,98,177819,1,2,0:0:0:0:
136,111,178042,1,8,0:0:0:0:
351,98,178266,1,2,0:0:0:0:
136,111,178490,1,8,0:0:0:0:
351,98,178714,1,2,0:0:0:0:
136,111,178938,1,8,0:0:0:0:
351,98,179162,1,2,0:0:0:0:
236,232,179386,5,8,0:0:0:0:
236,232,179610,1,0,0:0:0:0:
236,232,179834,1,0,0:0:0:0:
236,232,179946,1,0,0:0:0:0:
236,232,180058,1,0,0:0:0:0:
236,232,180282,1,0,0:0:0:0:
329,254,180506,5,4,0:0:0:0:
406,260,180730,1,4,0:0:0:0:
