osu file format v14

[General]
AudioFilename: audio.mp3
AudioLeadIn: 0
PreviewTime: 14163
Countdown: 0
SampleSet: Soft
StackLeniency: 0.7
Mode: 0
LetterboxInBreaks: 0
WidescreenStoryboard: 0

[Editor]
DistanceSpacing: 3
BeatDivisor: 2
GridSize: 8
TimelineZoom: 1.700001

[Metadata]
Title:Diddley-Dee
TitleUnicode:Diddley-Dee
Artist:Cartoons
ArtistUnicode:Cartoons
Creator:kongehund
Version:Insane
Source:
Tags:Country Pop Eurodance Danish English Toontastic Guitar Bass Saxophone Kiss
BeatmapID:2875873
BeatmapSetID:1393023

[Difficulty]
HPDrainRate:6
CircleSize:4
OverallDifficulty:7.5
ApproachRate:8.5
SliderMultiplier:1.5
SliderTickRate:1

[Events]
//Background and Video events
0,0,"cartoons.jpg",0,0
//Break Periods
//Storyboard Layer 0 (Background)
//Storyboard Layer 1 (Fail)
//Storyboard Layer 2 (Pass)
//Storyboard Layer 3 (Foreground)
//Storyboard Layer 4 (Overlay)
//Storyboard Sound Samples

[TimingPoints]
282,447.761194029851,4,1,1,50,1,0
5655,-100,4,1,1,50,0,0
7446,-66.6666666666667,4,1,1,80,0,0
12819,-66.6666666666667,4,3,1,50,0,0
13938,-33.3333333333333,4,2,1,60,0,0
14610,-66.6666666666667,4,1,1,80,0,0
19983,-66.6666666666667,4,1,1,80,0,0
21774,-66.6666666666667,4,1,1,80,0,0
27148,-66.6666666666667,4,1,1,80,0,0
28938,-100,4,3,2,60,0,0
32521,-100,4,3,1,60,0,0
34312,-100,4,3,2,60,0,0
36103,-100,4,3,1,60,0,0
37894,-100,4,3,2,60,0,0
39685,-100,4,3,1,60,0,0
41476,-100,4,3,2,60,0,0
43267,-100,4,3,1,60,0,0
45058,-100,4,3,2,60,0,0
46177,-33.3333333333333,4,2,1,50,0,0
46849,-66.6666666666667,4,1,1,80,0,0
52222,-66.6666666666667,4,1,1,80,0,0
54013,-66.6666666666667,4,1,1,80,0,0
59386,-66.6666666666667,4,1,1,80,0,0
61177,-66.6666666666667,4,1,1,80,0,0
68341,-100,4,3,2,60,0,0
71924,-100,4,3,1,60,0,0
73715,-100,4,3,2,60,0,0
75506,-100,4,3,1,60,0,0
77297,-100,4,3,2,60,0,0
79088,-100,4,3,1,60,0,0
80879,-100,4,3,2,60,0,0
82670,-100,4,3,1,60,0,0
84461,-100,4,3,2,60,0,0
86252,-100,4,3,1,60,0,0
92744,-33.3333333333333,4,2,1,50,0,0
93416,-66.6666666666667,4,1,1,80,0,0
98789,-66.6666666666667,4,1,1,80,0,0
100580,-66.6666666666667,4,1,1,80,0,0
105954,-66.6666666666667,4,1,1,80,0,0
107745,-66.6666666666667,4,1,1,80,0,0
122073,-66.6666666666667,4,1,1,80,0,1
136401,-100,4,2,1,60,0,0
143565,-83.3333333333333,4,2,1,60,0,0
148939,-83.3333333333333,4,3,1,50,0,0
150058,-33.3333333333333,4,2,1,50,0,0
150729,-66.6666666666667,4,1,1,80,0,0
156103,-66.6666666666667,4,1,1,80,0,0
157894,-66.6666666666667,4,1,1,80,0,0
163267,-66.6666666666667,4,1,1,80,0,0
165058,-66.6666666666667,4,1,1,80,0,0
167968,-133.333333333333,4,1,1,80,0,0
168640,-66.6666666666667,4,1,1,80,0,0
175132,-133.333333333333,4,1,1,80,0,0
175804,-66.6666666666667,4,1,1,80,0,0
179386,-66.6666666666667,4,2,1,60,0,0
180505,-33.3333333333333,4,2,1,50,0,0

[Colours]
Combo1 : 255,0,0
Combo2 : 255,204,0
Combo3 : 255,128,255
Combo4 : 111,55,0

[HitObjects]
92,83,58,5,0,0:0:0:0:
92,83,170,1,0,0:0:0:0:
92,83,282,2,0,P|77:118|90:168,1,75,0|0,0:0|0:0,0:0:0:0:
177,280,729,5,0,0:0:0:0:
177,280,841,1,0,0:0:0:0:
177,280,953,1,0,0:0:0:0:
310,212,1177,5,0,0:0:0:0:
169,159,1401,1,0,0:0:0:0:
311,112,1625,1,0,0:0:0:0:
170,58,1849,1,0,0:0:0:0:
316,25,2073,6,0,P|358:41|382:69,1,75,0|0,0:0|0:0,0:0:0:0:
255,137,2520,5,0,0:0:0:0:
255,137,2632,1,0,0:0:0:0:
255,137,2744,1,0,0:0:0:0:
115,191,2968,5,0,0:0:0:0:
253,247,3192,1,0,0:0:0:0:
111,297,3416,1,0,0:0:0:0:
252,347,3640,1,0,0:0:0:0:
410,254,3864,6,0,P|398:282|374:296,1,37.5,0|0,0:0|0:0,0:0:0:0:
305,339,4087,1,0,0:0:0:0:
207,280,4311,5,0,0:0:0:0:
207,280,4423,1,0,0:0:0:0:
207,280,4535,1,0,0:0:0:0:
299,160,4759,5,0,0:0:0:0:
299,160,4871,1,0,0:0:0:0:
299,160,4983,1,0,0:0:0:0:
154,195,5207,1,0,0:0:0:0:
245,75,5431,1,0,0:0:0:0:
255,224,5655,6,0,P|297:237|340:219,1,75,4|0,0:0|0:0,0:0:0:0:
460,160,6102,2,0,P|410:144|373:157,1,75,4|0,0:0|0:0,0:0:0:0:
231,234,6550,1,4,0:0:0:0:
346,328,6774,1,0,0:0:0:0:
454,224,6998,1,4,0:0:0:0:
328,141,7222,1,0,0:0:0:0:
328,141,7334,1,0,0:0:0:0:
328,141,7446,6,0,P|299:162|270:165,1,56.2500021457673,8|0,0:0|0:0,0:0:0:0:
189,163,7670,1,2,0:0:0:0:
412,58,7893,5,8,0:0:0:0:
412,58,8005,1,0,0:0:0:0:
412,58,8117,1,2,0:0:0:0:
236,104,8341,5,8,0:0:0:0:
405,171,8565,1,2,0:0:0:0:
183,205,8789,1,8,0:0:0:0:
396,277,9013,1,2,0:0:0:0:
174,317,9237,6,0,P|205:315|239:299,1,56.2500021457673,8|0,0:0|0:0,0:0:0:0:
305,265,9461,1,2,0:0:0:0:
374,88,9684,5,8,0:0:0:0:
374,88,9796,1,0,0:0:0:0:
374,88,9908,1,2,0:0:0:0:
170,123,10132,5,8,0:0:0:0:
219,286,10356,1,2,0:0:0:0:
290,79,10580,1,8,0:0:0:0:
408,267,10804,1,2,0:0:0:0:
455,92,11028,6,0,P|423:76|392:76,1,56.2500021457673,8|0,0:0|0:0,0:0:0:0:
313,82,11252,1,2,0:0:0:0:
395,255,11476,5,8,0:0:0:0:
395,255,11587,1,0,0:0:0:0:
395,255,11699,1,2,0:0:0:0:
353,71,11923,5,8,0:0:0:0:
353,71,12035,1,0,0:0:0:0:
353,71,12147,1,2,0:0:0:0:
276,322,12371,6,0,P|213:337|162:325,1,112.500004291535,8|2,0:0|0:0,0:0:0:0:
237,222,12819,6,0,L|184:179,2,56.2500021457673,8|8|8,0:0|0:0|0:0,0:0:0:0:
322,183,13267,2,0,L|266:139,2,56.2500021457673,8|8|8,0:0|0:0|0:0,0:0:0:0:
386,246,13714,1,8,0:0:0:0:
145,278,13938,6,0,B|116:248|116:248|86:234|91:204|120:196|134:223,1,112.500004291535,4|0,0:0|0:0,0:0:0:0:
160,216,14162,2,0,B|166:198|195:206|200:236|170:250|170:250|144:277,1,112.500004291535,4|0,0:0|0:0,0:0:0:0:
234,297,14386,1,0,0:0:0:0:
234,297,14498,1,0,0:0:0:0:
234,297,14610,6,0,P|251:267|261:234,1,56.2500021457673,8|0,0:0|0:0,0:0:0:0:
305,118,14834,1,2,0:0:0:0:
456,203,15058,5,8,0:0:0:0:
456,203,15170,1,0,0:0:0:0:
456,203,15282,1,2,0:0:0:0:
294,86,15505,5,8,0:0:0:0:
437,53,15729,1,2,0:0:0:0:
251,151,15953,1,8,0:0:0:0:
483,124,16177,1,2,0:0:0:0:
253,230,16401,6,0,P|226:234|191:229,1,56.2500021457673,8|0,0:0|0:0,0:0:0:0:
118,209,16625,1,2,0:0:0:0:
340,202,16849,5,8,0:0:0:0:
340,202,16961,1,0,0:0:0:0:
340,202,17073,1,2,0:0:0:0:
208,80,17296,5,8,0:0:0:0:
159,235,17520,1,2,0:0:0:0:
77,43,17744,1,8,0:0:0:0:
37,253,17968,1,2,0:0:0:0:
206,120,18192,6,0,P|242:110|276:116,1,56.2500021457673,8|0,0:0|0:0,0:0:0:0:
343,136,18416,1,2,0:0:0:0:
184,315,18640,5,8,0:0:0:0:
184,315,18752,1,0,0:0:0:0:
184,315,18864,1,2,0:0:0:0:
378,202,19087,5,8,0:0:0:0:
378,202,19199,1,0,0:0:0:0:
378,202,19311,1,2,0:0:0:0:
163,132,19535,6,0,P|133:130|106:140,1,56.2500021457673,8|0,0:0|0:0,0:0:0:0:
40,185,19759,1,2,0:0:0:0:
351,292,19983,6,0,L|216:281,1,112.500004291535,4|0,0:0|0:0,0:0:0:0:
244,59,20431,2,0,L|364:67,1,112.500004291535,4|0,0:0|0:0,0:0:0:0:
357,295,20879,2,0,L|219:288,1,112.500004291535,4|0,0:0|0:0,0:0:0:0:
250,62,21326,2,0,L|319:66,1,56.2500021457673,4|0,0:0|0:0,0:0:0:0:
392,90,21550,1,0,0:0:0:0:
392,90,21662,1,0,0:0:0:0:
392,90,21774,6,0,P|427:102|453:121,1,56.2500021457673,8|0,0:0|0:0,0:0:0:0:
498,174,21998,1,2,0:0:0:0:
233,164,22222,5,8,0:0:0:0:
233,164,22334,1,0,0:0:0:0:
233,164,22446,1,2,0:0:0:0:
396,198,22670,5,8,0:0:0:0:
249,272,22893,1,2,0:0:0:0:
459,313,23117,1,8,0:0:0:0:
227,347,23341,2,0,P|193:352|158:342,1,56.2500021457673,2|0,0:0|0:0,0:0:0:0:
101,308,23565,6,0,P|69:287|49:259,1,56.2500021457673,8|0,0:0|0:0,0:0:0:0:
21,197,23789,1,2,0:0:0:0:
191,121,24013,5,8,0:0:0:0:
191,121,24125,1,0,0:0:0:0:
191,121,24237,1,2,0:0:0:0:
234,309,24461,5,8,0:0:0:0:
293,150,24684,1,2,0:0:0:0:
343,338,24908,1,8,0:0:0:0:
390,138,25132,1,2,0:0:0:0:
436,357,25356,6,0,P|444:326|444:292,1,56.2500021457673,8|0,0:0|0:0,0:0:0:0:
445,210,25580,1,2,0:0:0:0:
259,148,25804,5,8,0:0:0:0:
259,148,25916,1,0,0:0:0:0:
259,148,26028,1,2,0:0:0:0:
496,76,26252,5,8,0:0:0:0:
496,76,26364,1,0,0:0:0:0:
496,76,26476,1,2,0:0:0:0:
248,44,26699,1,8,0:0:0:0:
68,191,26923,2,0,P|57:222|59:248,1,56.2500021457673,2|0,0:0|0:0,0:0:0:0:
106,316,27147,6,0,L|234:328,1,112.500004291535,4|0,0:0|0:0,0:0:0:0:
364,124,27595,2,0,L|235:111,1,112.500004291535,4|0,0:0|0:0,0:0:0:0:
359,336,28043,2,0,L|368:217,1,112.500004291535,4|0,0:0|0:0,0:0:0:0:
145,112,28490,2,0,L|134:242,1,112.500004291535,4|0,0:0|0:0,0:0:0:0:
272,317,28938,6,2,B|312:330|312:330|343:303,1,75,2|0,0:0|0:0,0:0:0:0:
371,271,29274,2,2,B|372:226|372:226|336:193,1,75,2|0,0:0|0:0,0:0:0:0:
307,185,29610,2,2,B|263:184|263:184|227:214,1,75,2|0,0:0|0:0,0:0:0:0:
125,254,29946,1,2,0:0:0:0:
125,254,30058,2,2,B|138:273|138:273|164:278,1,37.5,2|0,0:0|0:0,0:0:0:0:
197,244,30282,2,2,B|178:212|178:212|140:202,1,75,2|0,0:0|0:0,0:0:0:0:
348,323,30729,6,2,B|391:319|391:319|412:289,1,75,2|0,0:0|0:0,0:0:0:0:
421,245,31065,2,2,B|422:203|422:203|381:173,1,75,2|0,0:0|0:0,0:0:0:0:
350,168,31401,2,0,B|287:167|287:167|267:166|288:231|213:248,1,150,2|0,0:0|0:0,0:0:0:0:
75,249,32073,6,0,P|49:202|56:155,1,75,0|0,0:0|0:0,0:0:0:0:
196,103,32520,5,8,0:0:0:0:
314,279,32744,1,2,0:0:0:0:
275,87,32968,1,8,0:0:0:0:
235,295,33192,1,2,0:0:0:0:
343,132,33416,1,8,0:0:0:0:
167,250,33640,1,2,0:0:0:0:
359,211,33864,1,8,0:0:0:0:
151,171,34087,1,2,0:0:0:0:
366,137,34311,6,2,B|406:146|406:146|419:185,1,75,2|0,0:0|0:0,0:0:0:0:
408,253,34647,2,2,B|385:292|385:292|337:301,1,75,2|0,0:0|0:0,0:0:0:0:
283,282,34983,2,2,B|248:254|248:254|240:208,1,75,2|0,0:0|0:0,0:0:0:0:
285,156,35319,1,2,0:0:0:0:
285,156,35431,2,2,B|305:146|305:146|330:155,1,37.5,2|0,0:0|0:0,0:0:0:0:
389,183,35655,2,2,B|370:215|370:215|332:225,1,75,2|0,0:0|0:0,0:0:0:0:
259,221,35990,1,0,0:0:0:0:
259,221,36102,5,8,0:0:0:0:
417,157,36326,1,2,0:0:0:0:
267,281,36550,1,8,0:0:0:0:
366,94,36774,1,2,0:0:0:0:
347,289,36998,1,8,0:0:0:0:
286,87,37222,1,2,0:0:0:0:
286,87,37334,2,0,L|314:137,1,37.5,0|8,0:0|0:0,0:0:0:0:
402,271,37670,2,0,P|389:288|362:301,1,37.5,2|0,0:0|0:0,0:0:0:0:
281,317,37893,6,2,B|239:326|239:326|210:296,1,75,2|0,0:0|0:0,0:0:0:0:
193,228,38229,2,2,B|177:185|177:185|133:166,1,75,2|0,0:0|0:0,0:0:0:0:
76,177,38565,2,2,B|36:197|36:197|19:241,1,75,2|0,0:0|0:0,0:0:0:0:
41,303,38901,1,2,0:0:0:0:
41,303,39013,2,2,B|46:325|46:325|69:338,1,37.5,2|0,0:0|0:0,0:0:0:0:
129,367,39237,2,2,B|161:384|161:384|199:372,1,75,2|0,0:0|0:0,0:0:0:0:
355,226,39684,5,8,0:0:0:0:
155,156,39908,1,2,0:0:0:0:
301,286,40132,1,8,0:0:0:0:
209,96,40356,1,2,0:0:0:0:
220,291,40580,1,8,0:0:0:0:
290,91,40804,1,2,0:0:0:0:
160,237,41028,1,8,0:0:0:0:
160,237,41140,2,0,P|193:219|228:204,1,75,0|0,0:0|0:0,0:0:0:0:
313,153,41476,6,2,B|354:148|354:148|379:181,1,75,2|0,0:0|0:0,0:0:0:0:
420,252,41811,2,2,B|408:296|408:296|365:318,1,75,2|0,0:0|0:0,0:0:0:0:
296,305,42147,2,2,B|269:271|269:271|277:224,1,75,2|0,0:0|0:0,0:0:0:0:
351,174,42483,1,2,0:0:0:0:
351,174,42595,2,2,B|336:156|336:156|310:152,1,37.5,2|0,0:0|0:0,0:0:0:0:
234,120,42819,2,2,B|201:138|201:138|191:175,1,75,2|0,0:0|0:0,0:0:0:0:
273,193,43155,1,0,0:0:0:0:
273,193,43267,5,8,0:0:0:0:
77,275,43490,1,2,0:0:0:0:
214,136,43714,1,8,0:0:0:0:
135,332,43938,1,2,0:0:0:0:
133,137,44162,1,8,0:0:0:0:
216,332,44386,1,2,0:0:0:0:
76,194,44610,1,8,0:0:0:0:
76,194,44722,1,0,0:0:0:0:
319,49,45058,38,2,B|360:44|360:44|385:77,1,75,2|0,0:0|0:0,0:0:0:0:
298,161,45393,2,2,B|252:160|252:160|221:123,1,75,2|0,0:0|0:0,0:0:0:0:
387,160,45729,2,2,B|394:203|394:203|362:241,1,75,2|0,0:0|0:0,0:0:0:0:
166,91,46177,22,0,B|137:61|137:61|107:47|112:17|141:9|155:36,1,112.500004291535,4|0,0:0|0:0,0:0:0:0:
181,29,46401,2,0,B|187:11|216:19|221:49|191:63|191:63|165:90,1,112.500004291535,4|0,0:0|0:0,0:0:0:0:
254,122,46625,1,0,0:0:0:0:
254,122,46737,1,0,0:0:0:0:
254,122,46849,6,0,P|229:137|211:169,1,56.2500021457673,8|0,0:0|0:0,0:0:0:0:
192,240,47073,1,2,0:0:0:0:
444,215,47296,5,8,0:0:0:0:
444,215,47408,1,0,0:0:0:0:
444,215,47520,1,2,0:0:0:0:
323,91,47744,5,8,0:0:0:0:
161,120,47968,1,2,0:0:0:0:
308,210,48192,1,8,0:0:0:0:
112,267,48416,2,0,P|146:289|179:294,1,56.2500021457673,2|0,0:0|0:0,0:0:0:0:
256,317,48640,6,0,P|291:324|322:317,1,56.2500021457673,8|0,0:0|0:0,0:0:0:0:
404,313,48864,1,2,0:0:0:0:
246,230,49087,5,8,0:0:0:0:
246,230,49199,1,0,0:0:0:0:
246,230,49311,1,2,0:0:0:0:
285,82,49535,5,8,0:0:0:0:
329,248,49759,1,2,0:0:0:0:
374,43,49983,1,8,0:0:0:0:
409,263,50207,1,2,0:0:0:0:
466,31,50431,6,0,P|462:66|442:97,1,56.2500021457673,8|0,0:0|0:0,0:0:0:0:
403,159,50655,1,2,0:0:0:0:
241,90,50879,5,8,0:0:0:0:
241,90,50990,1,0,0:0:0:0:
241,90,51102,1,2,0:0:0:0:
322,299,51326,5,8,0:0:0:0:
322,299,51438,1,0,0:0:0:0:
322,299,51550,1,2,0:0:0:0:
112,220,51774,1,8,0:0:0:0:
322,140,51998,2,0,P|355:145|380:162,1,56.2500021457673,2|0,0:0|0:0,0:0:0:0:
429,237,52222,6,0,L|422:362,1,112.500004291535,4|0,0:0|0:0,0:0:0:0:
183,288,52670,2,0,L|192:153,1,112.500004291535,4|0,0:0|0:0,0:0:0:0:
414,219,53117,2,0,L|403:367,1,112.500004291535,4|0,0:0|0:0,0:0:0:0:
184,295,53565,2,0,L|190:221,1,56.2500021457673,4|0,0:0|0:0,0:0:0:0:
202,163,53789,1,0,0:0:0:0:
202,163,53901,1,0,0:0:0:0:
202,163,54013,6,0,P|205:126|220:95,1,56.2500021457673,8|0,0:0|0:0,0:0:0:0:
280,51,54237,1,2,0:0:0:0:
350,279,54461,5,8,0:0:0:0:
350,279,54573,1,0,0:0:0:0:
350,279,54684,1,2,0:0:0:0:
303,101,54908,5,8,0:0:0:0:
234,244,55132,1,2,0:0:0:0:
183,44,55356,1,8,0:0:0:0:
118,247,55580,1,2,0:0:0:0:
85,57,55804,6,0,P|65:80|53:111,1,56.2500021457673,8|0,0:0|0:0,0:0:0:0:
44,182,56028,1,2,0:0:0:0:
270,84,56252,5,8,0:0:0:0:
270,84,56364,1,0,0:0:0:0:
270,84,56476,1,2,0:0:0:0:
457,113,56699,5,8,0:0:0:0:
295,165,56923,1,2,0:0:0:0:
498,221,57147,1,8,0:0:0:0:
274,252,57371,1,2,0:0:0:0:
489,294,57595,6,0,P|461:311|421:317,1,56.2500021457673,8|0,0:0|0:0,0:0:0:0:
361,330,57819,1,2,0:0:0:0:
162,297,58043,5,8,0:0:0:0:
162,297,58155,1,0,0:0:0:0:
162,297,58267,1,2,0:0:0:0:
236,84,58490,5,8,0:0:0:0:
236,84,58602,1,0,0:0:0:0:
236,84,58714,1,2,0:0:0:0:
303,298,58938,5,8,0:0:0:0:
446,124,59162,2,0,P|441:91|419:64,1,56.2500021457673,2|0,0:0|0:0,0:0:0:0:
360,39,59386,6,0,L|237:47,1,112.500004291535,4|0,0:0|0:0,0:0:0:0:
448,196,59834,2,0,L|439:70,1,112.500004291535,4|0,0:0|0:0,0:0:0:0:
265,227,60282,2,0,L|399:214,1,112.500004291535,4|0,0:0|0:0,0:0:0:0:
234,40,60729,2,0,L|250:173,1,112.500004291535,4|0,0:0|0:0,0:0:0:0:
466,101,61177,6,0,P|482:129|467:150,2,56.2500021457673,8|0|2,0:0|0:0|0:0,0:0:0:0:
231,219,61625,2,0,P|215:191|230:170,2,56.2500021457673,8|0|2,0:0|0:0|0:0,0:0:0:0:
331,33,62073,2,0,P|360:20|379:37,2,56.2500021457673,8|0|2,0:0|0:0|0:0,0:0:0:0:
361,263,62520,1,8,0:0:0:0:
238,91,62744,1,2,0:0:0:0:
185,203,62968,6,0,P|312:298|209:182,1,450.000017166138,8|8,0:0|0:0,0:0:0:0:
299,324,64087,21,2,0:0:0:0:
407,235,64311,1,8,0:0:0:0:
237,170,64535,1,2,0:0:0:0:
412,79,64759,6,0,P|399:49|374:48,2,56.2500021457673,8|0|2,0:0|0:0|0:0,0:0:0:0:
138,152,65207,2,0,P|125:175|139:198,2,56.2500021457673,8|0|2,0:0|0:0|0:0,0:0:0:0:
360,292,65655,2,0,P|358:318|334:331,2,56.2500021457673,8|0|2,0:0|0:0|0:0,0:0:0:0:
229,113,66102,1,0,0:0:0:0:
178,305,66326,1,2,0:0:0:0:
285,133,66550,6,0,P|426:205|276:163,1,450.000017166138,8|8,0:0|0:0,0:0:0:0:
207,79,67670,1,2,0:0:0:0:
134,188,67893,2,0,B|106:237|106:237|127:293,1,112.500004291535,0|2,0:0|0:0,0:0:0:0:
272,105,68341,6,2,B|312:92|312:92|343:119,1,75,2|0,0:0|0:0,0:0:0:0:
384,170,68677,2,2,B|385:215|385:215|349:248,1,75,2|0,0:0|0:0,0:0:0:0:
292,263,69013,2,2,B|248:264|248:264|212:234,1,75,2|0,0:0|0:0,0:0:0:0:
125,168,69349,1,2,0:0:0:0:
125,168,69461,2,2,B|138:149|138:149|164:144,1,37.5,2|0,0:0|0:0,0:0:0:0:
213,199,69684,2,2,B|194:231|194:231|156:241,1,75,2|0,0:0|0:0,0:0:0:0:
217,43,70132,6,2,B|238:5|238:5|274:-1,1,75,2|0,0:0|0:0,0:0:0:0:
346,10,70468,2,2,B|384:26|384:26|395:75,1,75,2|0,0:0|0:0,0:0:0:0:
366,134,70804,2,0,B|341:191|341:191|334:210|283:165|237:226,1,150,2|0,0:0|0:0,0:0:0:0:
139,124,71476,2,0,P|135:80|162:47,1,75,0|0,0:0|0:0,0:0:0:0:
359,65,71923,5,8,0:0:0:0:
241,241,72147,1,2,0:0:0:0:
280,49,72371,1,8,0:0:0:0:
320,257,72595,1,2,0:0:0:0:
212,94,72819,1,8,0:0:0:0:
387,212,73043,1,2,0:0:0:0:
196,174,73267,1,8,0:0:0:0:
403,133,73490,1,2,0:0:0:0:
274,294,73714,6,2,B|314:307|314:307|345:280,1,75,2|0,0:0|0:0,0:0:0:0:
413,215,74050,2,2,B|414:170|414:170|378:137,1,75,2|0,0:0|0:0,0:0:0:0:
290,173,74386,2,2,B|246:172|246:172|210:202,1,75,2|0,0:0|0:0,0:0:0:0:
181,292,74722,1,2,0:0:0:0:
181,292,74834,2,2,B|194:311|194:311|220:316,1,37.5,2|0,0:0|0:0,0:0:0:0:
186,196,75058,2,2,B|167:164|167:164|129:154,1,75,2|0,0:0|0:0,0:0:0:0:
46,180,75393,1,0,0:0:0:0:
46,180,75505,6,0,P|47:157|60:134,1,37.5,8|0,0:0|0:0,0:0:0:0:
100,81,75729,1,2,0:0:0:0:
100,81,75841,2,0,P|123:68|156:66,1,37.5,0|8,0:0|0:0,0:0:0:0:
236,53,76065,1,0,0:0:0:0:
236,53,76177,1,2,0:0:0:0:
338,242,76401,5,8,0:0:0:0:
163,124,76625,1,2,0:0:0:0:
354,163,76849,1,8,0:0:0:0:
147,202,77073,1,2,0:0:0:0:
279,305,77296,6,2,B|311:278|311:278|305:237,1,75,2|0,0:0|0:0,0:0:0:0:
262,159,77632,2,2,B|237:120|237:120|250:74,1,75,2|0,0:0|0:0,0:0:0:0:
332,30,77968,2,2,B|373:11|373:11|417:25,1,75,2|0,0:0|0:0,0:0:0:0:
485,101,78304,1,2,0:0:0:0:
485,101,78416,2,2,B|499:119|499:119|495:145,1,37.5,2|0,0:0|0:0,0:0:0:0:
474,237,78640,2,2,B|467:273|467:273|435:295,1,75,2|0,0:0|0:0,0:0:0:0:
251,131,79087,5,8,0:0:0:0:
368,306,79311,1,2,0:0:0:0:
330,114,79535,1,8,0:0:0:0:
289,322,79759,1,2,0:0:0:0:
397,159,79983,1,8,0:0:0:0:
223,277,80207,1,2,0:0:0:0:
413,239,80431,1,8,0:0:0:0:
206,198,80655,1,2,0:0:0:0:
357,135,80879,6,2,B|383:154|383:154|379:196,1,75,2|0,0:0|0:0,0:0:0:0:
297,264,81214,2,2,B|272:225|272:225|285:179,1,75,2|0,0:0|0:0,0:0:0:0:
286,103,81550,2,2,B|285:58|285:58|314:22,1,75,2|0,0:0|0:0,0:0:0:0:
392,44,81886,1,2,0:0:0:0:
392,44,81998,2,2,B|406:62|406:62|402:88,1,37.5,2|0,0:0|0:0,0:0:0:0:
425,159,82222,2,2,B|418:195|418:195|386:217,1,75,2|0,0:0|0:0,0:0:0:0:
325,248,82558,1,0,0:0:0:0:
325,248,82670,5,8,0:0:0:0:
229,38,82893,1,2,0:0:0:0:
354,188,83117,1,8,0:0:0:0:
166,89,83341,1,2,0:0:0:0:
361,108,83565,1,8,0:0:0:0:
159,169,83789,1,2,0:0:0:0:
310,45,84013,1,8,0:0:0:0:
211,231,84237,1,2,0:0:0:0:
371,248,84461,6,2,B|403:221|403:221|397:180,1,75,2|0,0:0|0:0,0:0:0:0:
348,117,84796,2,2,B|334:74|334:74|290:53,1,75,2|0,0:0|0:0,0:0:0:0:
214,75,85132,2,2,B|185:66|185:66|144:84,1,75,2|0,0:0|0:0,0:0:0:0:
82,166,85468,1,2,0:0:0:0:
82,166,85580,2,2,B|67:147|67:147|71:121,1,37.5,2|0,0:0|0:0,0:0:0:0:
118,59,85804,2,2,B|111:22|111:22|79:0,1,75,2|0,0:0|0:0,0:0:0:0:
155,223,86252,6,0,L|162:328,1,75,8|2,0:0|0:0,0:0:0:0:
205,115,86699,2,0,L|211:33,1,75,8|2,0:0|0:0,0:0:0:0:
270,218,87147,2,0,L|280:319,1,75,8|2,0:0|0:0,0:0:0:0:
314,108,87595,2,0,L|321:7,1,75,8|2,0:0|0:0,0:0:0:0:
411,197,88043,5,8,0:0:0:0:
204,107,88267,1,2,0:0:0:0:
411,197,88490,1,8,0:0:0:0:
243,46,88714,1,2,0:0:0:0:
410,196,88938,1,8,0:0:0:0:
355,106,89162,1,2,0:0:0:0:
315,198,89386,1,8,0:0:0:0:
260,103,89610,1,2,0:0:0:0:
223,324,89834,6,0,B|200:324|179:312,1,37.5,8|0,0:0|0:0,0:0:0:0:
95,233,90058,2,0,P|109:216|128:205,1,37.5,2|0,0:0|0:0,0:0:0:0:
306,179,90282,1,8,0:0:0:0:
66,164,90505,1,2,0:0:0:0:
312,188,90729,6,0,P|305:172|290:160,1,37.5,8|0,0:0|0:0,0:0:0:0:
162,137,90953,2,0,P|162:156|169:175,1,37.5,2|0,0:0|0:0,0:0:0:0:
254,273,91177,1,8,0:0:0:0:
274,72,91401,1,2,0:0:0:0:
320,206,91625,5,8,0:0:0:0:
134,61,91849,1,2,0:0:0:0:
248,254,92073,1,8,0:0:0:0:
212,29,92296,1,2,0:0:0:0:
348,184,92520,2,0,P|341:207|325:225,1,37.5,8|0,0:0|0:0,0:0:0:0:
291,128,92744,6,0,B|262:98|262:98|232:84|237:54|266:46|280:73,1,112.500004291535,4|0,0:0|0:0,0:0:0:0:
306,66,92968,2,0,B|312:48|341:56|346:86|316:100|316:100|290:127,1,112.500004291535,4|0,0:0|0:0,0:0:0:0:
229,187,93192,1,0,0:0:0:0:
229,187,93304,1,0,0:0:0:0:
229,187,93416,6,0,P|207:212|201:245,1,56.2500021457673,8|0,0:0|0:0,0:0:0:0:
207,324,93640,1,2,0:0:0:0:
408,222,93864,5,8,0:0:0:0:
408,222,93976,1,0,0:0:0:0:
408,222,94087,1,2,0:0:0:0:
204,86,94311,5,8,0:0:0:0:
357,121,94535,1,2,0:0:0:0:
139,177,94759,1,8,0:0:0:0:
357,227,94983,2,0,P|336:246|300:263,1,56.2500021457673,2|0,0:0|0:0,0:0:0:0:
224,284,95207,2,0,P|194:291|152:282,1,56.2500021457673,8|0,0:0|0:0,0:0:0:0:
85,251,95431,1,2,0:0:0:0:
217,87,95655,5,8,0:0:0:0:
217,87,95767,1,0,0:0:0:0:
217,87,95879,1,2,0:0:0:0:
248,253,96102,5,8,0:0:0:0:
319,91,96326,1,2,0:0:0:0:
366,311,96550,1,8,0:0:0:0:
414,92,96774,2,0,P|428:116|430:149,1,56.2500021457673,2|0,0:0|0:0,0:0:0:0:
404,230,96998,6,0,P|394:254|366:277,1,56.2500021457673,8|0,0:0|0:0,0:0:0:0:
282,305,97222,1,2,0:0:0:0:
111,157,97446,5,8,0:0:0:0:
111,157,97558,1,0,0:0:0:0:
111,157,97670,1,2,0:0:0:0:
316,64,97893,5,8,0:0:0:0:
316,64,98005,1,0,0:0:0:0:
316,64,98117,1,2,0:0:0:0:
111,157,98341,1,8,0:0:0:0:
316,64,98565,2,0,P|281:52|246:53,1,56.2500021457673,2|0,0:0|0:0,0:0:0:0:
170,63,98789,6,0,L|161:189,1,112.500004291535,4|0,0:0|0:0,0:0:0:0:
386,202,99237,2,0,L|399:65,1,112.500004291535,4|0,0:0|0:0,0:0:0:0:
192,236,99684,2,0,L|319:242,1,112.500004291535,4|0,0:0|0:0,0:0:0:0:
323,16,100132,2,0,L|251:9,1,56.2500021457673,4|0,0:0|0:0,0:0:0:0:
171,29,100356,1,0,0:0:0:0:
171,29,100468,1,0,0:0:0:0:
171,29,100580,6,0,P|204:14|238:12,1,56.2500021457673,8|0,0:0|0:0,0:0:0:0:
316,27,100804,1,2,0:0:0:0:
235,237,101028,1,8,0:0:0:0:
235,237,101140,1,0,0:0:0:0:
235,237,101252,1,2,0:0:0:0:
149,67,101476,5,8,0:0:0:0:
110,247,101699,1,2,0:0:0:0:
69,25,101923,1,8,0:0:0:0:
21,245,102147,2,0,P|23:278|35:302,1,56.2500021457673,2|0,0:0|0:0,0:0:0:0:
95,351,102371,6,0,P|116:373|151:381,1,56.2500021457673,8|0,0:0|0:0,0:0:0:0:
244,377,102595,1,2,0:0:0:0:
435,258,102819,5,8,0:0:0:0:
435,258,102931,1,0,0:0:0:0:
435,258,103043,1,2,0:0:0:0:
268,192,103267,5,8,0:0:0:0:
436,141,103490,1,2,0:0:0:0:
217,88,103714,1,8,0:0:0:0:
436,38,103938,1,2,0:0:0:0:
216,7,104162,6,0,P|180:5|151:15,1,56.2500021457673,8|0,0:0|0:0,0:0:0:0:
82,56,104386,2,0,P|54:78|39:111,1,56.2500021457673,2|0,0:0|0:0,0:0:0:0:
24,187,104610,5,8,0:0:0:0:
24,187,104722,1,0,0:0:0:0:
24,187,104834,1,2,0:0:0:0:
265,191,105058,5,8,0:0:0:0:
265,191,105170,1,0,0:0:0:0:
265,191,105282,1,2,0:0:0:0:
24,187,105505,1,8,0:0:0:0:
265,191,105729,2,0,P|301:199|324:222,1,56.2500021457673,2|0,0:0|0:0,0:0:0:0:
381,294,105953,6,0,L|260:302,1,112.500004291535,4|0,0:0|0:0,0:0:0:0:
394,114,106401,2,0,L|405:238,1,112.500004291535,4|0,0:0|0:0,0:0:0:0:
221,92,106849,2,0,L|336:84,1,112.500004291535,4|0,0:0|0:0,0:0:0:0:
198,266,107296,2,0,L|184:146,1,112.500004291535,4|0,0:0|0:0,0:0:0:0:
429,98,107744,6,0,P|445:126|430:147,2,56.2500021457673,8|0|2,0:0|0:0|0:0,0:0:0:0:
109,101,108192,2,0,P|85:114|85:141,2,56.2500021457673,8|0|2,0:0|0:0|0:0,0:0:0:0:
425,239,108640,2,0,P|429:270|408:285,2,56.2500021457673,8|0|2,0:0|0:0|0:0,0:0:0:0:
97,262,109087,1,8,0:0:0:0:
250,326,109311,1,2,0:0:0:0:
166,305,109535,6,0,P|172:146|197:299,1,450.000017166138,8|8,0:0|0:0,0:0:0:0:
425,362,110655,5,2,0:0:0:0:
306,293,110879,1,8,0:0:0:0:
433,159,111102,1,2,0:0:0:0:
276,22,111326,6,0,P|252:8|229:22,2,56.2500021457673,8|0|2,0:0|0:0|0:0,0:0:0:0:
221,318,111774,2,0,P|197:331|174:317,2,56.2500021457673,8|0|2,0:0|0:0|0:0,0:0:0:0:
132,25,112222,2,0,P|108:11|85:25,2,56.2500021457673,8|0|2,0:0|0:0|0:0,0:0:0:0:
90,305,112670,1,8,0:0:0:0:
182,105,112893,1,2,0:0:0:0:
172,221,113117,6,0,P|320:271|193:178,1,450.000017166138,8|8,0:0|0:0,0:0:0:0:
338,234,114237,1,2,0:0:0:0:
421,110,114461,6,0,B|428:49|428:49|367:41,1,112.500004291535,8|2,0:0|0:0,0:0:0:0:
133,82,114908,6,0,P|110:96|111:123,2,56.2500021457673,8|0|2,0:0|0:0|0:0,0:0:0:0:
395,278,115356,2,0,P|397:304|374:320,2,56.2500021457673,8|0|2,0:0|0:0|0:0,0:0:0:0:
249,34,115804,2,0,P|272:20|296:34,2,56.2500021457673,8|0|2,0:0|0:0|0:0,0:0:0:0:
235,339,116252,1,8,0:0:0:0:
335,101,116476,1,2,0:0:0:0:
242,212,116699,6,0,P|93:160|250:165,1,450.000017166138,8|8,0:0|0:0,0:0:0:0:
97,343,117819,5,2,0:0:0:0:
215,274,118043,1,8,0:0:0:0:
47,151,118267,1,2,0:0:0:0:
218,37,118490,6,0,P|241:24|264:36,2,56.2500021457673,8|0|2,0:0|0:0|0:0,0:0:0:0:
415,228,118938,2,0,P|431:206|420:181,2,56.2500021457673,8|0|2,0:0|0:0|0:0,0:0:0:0:
147,314,119386,2,0,P|165:333|191:327,2,56.2500021457673,8|0|2,0:0|0:0|0:0,0:0:0:0:
337,117,119834,1,8,0:0:0:0:
90,202,120058,1,2,0:0:0:0:
186,119,120282,6,0,P|309:215|162:160,1,450.000017166138,8|8,0:0|0:0,0:0:0:0:
200,283,121625,6,0,B|223:261|223:261|205:239,1,56.2500021457673,8|0,0:0|0:0,0:0:0:0:
121,196,121849,1,2,0:0:0:0:
121,196,121961,1,0,0:0:0:0:
121,196,122073,5,4,0:0:0:0:
121,196,122184,2,0,P|68:179|17:149,2,112.500004291535,0|0|0,0:0|0:0|0:0,0:0:0:0:
258,224,122856,1,0,0:0:0:0:
308,228,122968,1,0,0:0:0:0:
357,223,123080,1,0,0:0:0:0:
409,210,123192,1,0,0:0:0:0:
300,95,123416,1,0,0:0:0:0:
12,152,123864,5,4,0:0:0:0:
31,105,123976,2,0,P|48:77|75:60,1,56.2500021457673,0|0,0:0|0:0,0:0:0:0:
111,38,124199,2,0,P|134:30|164:25,1,56.2500021457673,0|0,0:0|0:0,0:0:0:0:
215,38,124423,2,0,P|244:53|273:76,1,56.2500021457673,0|0,0:0|0:0,0:0:0:0:
286,112,124647,1,0,0:0:0:0:
284,162,124759,2,0,P|280:199|270:225,1,56.2500021457673,0|0,0:0|0:0,0:0:0:0:
253,256,124983,2,0,P|232:284|206:305,1,56.2500021457673,0|0,0:0|0:0,0:0:0:0:
175,328,125207,1,0,0:0:0:0:
369,311,125431,1,0,0:0:0:0:
369,311,125543,1,0,0:0:0:0:
369,311,125655,5,4,0:0:0:0:
407,277,125767,2,0,P|426:251|433:220,1,56.2500021457673,0|0,0:0|0:0,0:0:0:0:
444,180,125990,2,0,P|444:154|438:125,1,56.2500021457673,0|0,0:0|0:0,0:0:0:0:
410,81,126214,2,0,P|385:58|354:38,1,56.2500021457673,0|0,0:0|0:0,0:0:0:0:
316,38,126438,1,0,0:0:0:0:
269,55,126550,1,0,0:0:0:0:
226,81,126662,1,0,0:0:0:0:
191,117,126774,2,0,P|170:145|158:177,1,56.2500021457673,0|0,0:0|0:0,0:0:0:0:
149,213,126998,1,0,0:0:0:0:
511,303,127446,5,4,0:0:0:0:
475,339,127558,2,0,P|448:358|417:364,1,56.2500021457673,0|0,0:0|0:0,0:0:0:0:
376,371,127782,2,0,P|351:369|321:363,1,56.2500021457673,0|0,0:0|0:0,0:0:0:0:
280,332,128005,2,0,P|258:307|240:275,1,56.2500021457673,0|0,0:0|0:0,0:0:0:0:
241,237,128229,1,0,0:0:0:0:
262,191,128341,2,0,P|279:158|298:137,1,56.2500021457673,0|0,0:0|0:0,0:0:0:0:
326,116,128565,2,0,P|355:97|387:88,1,56.2500021457673,0|0,0:0|0:0,0:0:0:0:
425,78,128789,1,0,0:0:0:0:
272,119,129013,1,0,0:0:0:0:
272,119,129125,1,0,0:0:0:0:
272,119,129237,5,4,0:0:0:0:
222,110,129349,2,0,P|190:111|161:125,1,56.2500021457673,0|0,0:0|0:0,0:0:0:0:
123,143,129573,2,0,P|103:159|84:182,1,56.2500021457673,0|0,0:0|0:0,0:0:0:0:
68,231,129796,2,0,P|66:264|70:301,1,56.2500021457673,0|0,0:0|0:0,0:0:0:0:
93,331,130020,1,0,0:0:0:0:
136,357,130132,1,0,0:0:0:0:
183,374,130244,1,0,0:0:0:0:
233,379,130356,2,0,P|268:377|300:366,1,56.2500021457673,0|0,0:0|0:0,0:0:0:0:
335,351,130580,1,0,0:0:0:0:
12,152,131028,5,4,0:0:0:0:
31,105,131140,2,0,P|48:77|75:60,1,56.2500021457673,0|0,0:0|0:0,0:0:0:0:
111,38,131364,2,0,P|134:30|164:25,1,56.2500021457673,0|0,0:0|0:0,0:0:0:0:
215,38,131587,2,0,P|244:53|273:76,1,56.2500021457673,0|0,0:0|0:0,0:0:0:0:
286,112,131811,1,0,0:0:0:0:
284,162,131923,2,0,P|280:199|270:225,1,56.2500021457673,0|0,0:0|0:0,0:0:0:0:
253,256,132147,2,0,P|232:284|206:305,1,56.2500021457673,0|0,0:0|0:0,0:0:0:0:
175,328,132371,1,0,0:0:0:0:
369,311,132595,1,0,0:0:0:0:
369,311,132707,1,0,0:0:0:0:
369,311,132819,5,4,0:0:0:0:
407,277,132931,2,0,P|426:251|433:220,1,56.2500021457673,0|0,0:0|0:0,0:0:0:0:
444,180,133155,2,0,P|444:154|438:125,1,56.2500021457673,0|0,0:0|0:0,0:0:0:0:
410,81,133379,2,0,P|385:58|354:38,1,56.2500021457673,0|0,0:0|0:0,0:0:0:0:
316,38,133602,1,0,0:0:0:0:
269,55,133714,1,0,0:0:0:0:
226,81,133826,1,0,0:0:0:0:
191,117,133938,2,0,P|170:145|158:177,1,56.2500021457673,0|0,0:0|0:0,0:0:0:0:
149,213,134162,1,0,0:0:0:0:
511,303,134610,5,4,0:0:0:0:
475,339,134722,2,0,P|448:358|417:364,1,56.2500021457673,0|0,0:0|0:0,0:0:0:0:
376,371,134946,2,0,P|351:369|321:363,1,56.2500021457673,0|0,0:0|0:0,0:0:0:0:
280,332,135170,2,0,P|258:307|240:275,1,56.2500021457673,0|0,0:0|0:0,0:0:0:0:
241,237,135393,1,0,0:0:0:0:
262,191,135505,2,0,P|279:158|298:137,1,56.2500021457673,0|0,0:0|0:0,0:0:0:0:
326,116,135729,2,0,P|355:97|387:88,1,56.2500021457673,0|0,0:0|0:0,0:0:0:0:
425,78,135953,1,0,0:0:0:0:
369,160,136401,6,0,P|382:182|370:198,2,37.5,4|0|0,0:0|0:0|0:0,0:0:0:0:
288,136,136849,2,0,P|279:117|292:100,2,37.5,0|0|0,0:0|0:0|0:0,0:0:0:0:
310,216,137296,2,0,P|288:228|272:217,2,37.5,0|0|0,0:0|0:0|0:0,0:0:0:0:
374,132,137744,1,0,0:0:0:0:
261,112,137968,1,0,0:0:0:0:
326,199,138192,6,0,P|425:159|316:167,1,300,0|0,0:0|0:0,0:0:0:0:
272,295,139311,1,0,0:0:0:0:
195,239,139535,1,0,0:0:0:0:
283,168,139759,1,0,0:0:0:0:
147,126,139983,6,0,P|143:108|154:94,2,37.5,4|0|0,0:0|0:0|0:0,0:0:0:0:
228,159,140431,2,0,P|240:180|228:196,2,37.5,0|0|0,0:0|0:0|0:0,0:0:0:0:
209,88,140879,2,0,P|223:68|242:72,2,37.5,0|0|0,0:0|0:0|0:0,0:0:0:0:
164,186,141326,1,0,0:0:0:0:
265,123,141550,1,0,0:0:0:0:
146,123,141774,6,0,P|119:18|184:104,1,300,0|0,0:0|0:0,0:0:0:0:
226,236,143117,2,0,B|257:264|257:264|286:233,1,75,0|8,0:0|0:0,0:0:0:0:
349,64,143565,6,0,P|333:47|310:49,2,44.999998626709,12|0|0,0:0|0:0|0:0,0:0:0:0:
354,209,144013,2,0,P|374:222|396:213,2,44.999998626709,8|0|0,0:0|0:0|0:0,0:0:0:0:
198,95,144461,2,0,P|176:104|171:127,2,44.999998626709,8|0|0,0:0|0:0|0:0,0:0:0:0:
403,116,144908,1,8,0:0:0:0:
287,12,145132,1,0,0:0:0:0:
318,158,145356,6,0,P|448:147|322:130,1,359.999989013672,8|8,0:0|0:0,0:0:0:0:
247,203,146476,5,0,0:0:0:0:
169,110,146699,1,8,0:0:0:0:
88,245,146923,1,0,0:0:0:0:
42,81,147147,6,0,P|58:66|80:70,2,44.999998626709,12|0|0,0:0|0:0|0:0,0:0:0:0:
135,287,147595,2,0,P|155:294|174:283,2,44.999998626709,8|0|0,0:0|0:0|0:0,0:0:0:0:
210,69,148043,2,0,P|231:64|248:77,2,44.999998626709,8|0|0,0:0|0:0|0:0,0:0:0:0:
262,295,148490,1,8,0:0:0:0:
310,66,148714,1,0,0:0:0:0:
358,244,148938,38,0,L|407:289,2,44.999998626709,8|8|8,0:0|0:0|0:0,0:0:0:0:
416,183,149386,2,0,L|461:225,2,44.999998626709,8|8|8,0:0|0:0|0:0,0:0:0:0:
480,124,149834,1,8,0:0:0:0:
357,102,150058,38,0,B|328:72|328:72|298:58|303:28|332:20|346:47,1,112.500004291535,4|0,0:0|0:0,0:0:0:0:
372,40,150282,2,0,B|378:22|407:30|412:60|382:74|382:74|356:101,1,112.500004291535,4|0,0:0|0:0,0:0:0:0:
281,152,150505,1,0,0:0:0:0:
281,152,150617,1,0,0:0:0:0:
281,152,150729,2,0,P|255:169|239:202,1,56.2500021457673,8|0,0:0|0:0,0:0:0:0:
220,277,150953,1,2,0:0:0:0:
436,220,151177,5,8,0:0:0:0:
436,220,151289,1,0,0:0:0:0:
436,220,151401,1,2,0:0:0:0:
259,162,151625,5,8,0:0:0:0:
437,117,151849,1,2,0:0:0:0:
217,68,152073,1,8,0:0:0:0:
438,28,152296,2,0,P|469:37|482:56,1,56.2500021457673,2|0,0:0|0:0,0:0:0:0:
510,136,152520,6,0,P|513:166|503:204,1,56.2500021457673,8|0,0:0|0:0,0:0:0:0:
479,272,152744,1,2,0:0:0:0:
355,83,152968,5,8,0:0:0:0:
355,83,153080,1,0,0:0:0:0:
355,83,153192,1,2,0:0:0:0:
270,247,153416,5,8,0:0:0:0:
211,82,153640,1,2,0:0:0:0:
121,278,153864,1,8,0:0:0:0:
61,76,154087,1,2,0:0:0:0:
14,291,154311,6,0,P|25:322|50:341,1,56.2500021457673,8|0,0:0|0:0,0:0:0:0:
124,370,154535,1,2,0:0:0:0:
265,356,154759,5,8,0:0:0:0:
265,356,154871,1,0,0:0:0:0:
265,356,154983,1,2,0:0:0:0:
178,148,155207,5,8,0:0:0:0:
178,148,155319,1,0,0:0:0:0:
178,148,155431,1,2,0:0:0:0:
108,342,155655,5,8,0:0:0:0:
248,181,155879,2,0,P|260:146|252:112,1,56.2500021457673,2|0,0:0|0:0,0:0:0:0:
177,63,156102,6,0,L|38:58,1,112.500004291535,4|0,0:0|0:0,0:0:0:0:
181,252,156550,2,0,L|293:256,1,112.500004291535,4|0,0:0|0:0,0:0:0:0:
177,63,156998,2,0,L|38:58,1,112.500004291535,4|0,0:0|0:0,0:0:0:0:
181,252,157446,6,0,L|268:256,1,56.2500021457673,4|0,0:0|0:0,0:0:0:0:
335,258,157670,1,0,0:0:0:0:
335,258,157782,1,0,0:0:0:0:
335,258,157893,6,0,P|302:275|265:280,1,56.2500021457673,8|0,0:0|0:0,0:0:0:0:
195,298,158117,1,2,0:0:0:0:
67,224,158341,5,8,0:0:0:0:
67,224,158453,1,0,0:0:0:0:
67,224,158565,1,2,0:0:0:0:
239,180,158789,5,8,0:0:0:0:
70,129,159013,1,2,0:0:0:0:
290,81,159237,1,8,0:0:0:0:
70,29,159461,2,0,P|39:40|21:65,1,56.2500021457673,2|0,0:0|0:0,0:0:0:0:
3,136,159684,2,0,P|-1:172|10:217,1,56.2500021457673,8|0,0:0|0:0,0:0:0:0:
19,279,159908,1,2,0:0:0:0:
232,207,160132,5,8,0:0:0:0:
232,207,160244,1,0,0:0:0:0:
232,207,160356,1,2,0:0:0:0:
307,50,160580,5,8,0:0:0:0:
395,214,160804,1,2,0:0:0:0:
475,3,161028,1,8,0:0:0:0:
503,226,161252,2,0,P|498:265|481:296,1,56.2500021457673,2|0,0:0|0:0,0:0:0:0:
424,336,161476,6,0,P|396:353|358:358,1,56.2500021457673,8|0,0:0|0:0,0:0:0:0:
286,367,161699,1,2,0:0:0:0:
381,163,161923,5,8,0:0:0:0:
381,163,162035,1,0,0:0:0:0:
381,163,162147,1,2,0:0:0:0:
197,292,162371,5,8,0:0:0:0:
197,292,162483,1,0,0:0:0:0:
197,292,162595,1,2,0:0:0:0:
299,91,162819,1,8,0:0:0:0:
197,292,163043,2,0,P|190:328|204:357,1,56.2500021457673,2|0,0:0|0:0,0:0:0:0:
308,362,163267,6,0,L|422:353,1,112.500004291535,4|0,0:0|0:0,0:0:0:0:
251,202,163714,2,0,L|261:319,1,112.500004291535,4|0,0:0|0:0,0:0:0:0:
423,156,164162,2,0,L|297:169,1,112.500004291535,4|0,0:0|0:0,0:0:0:0:
474,322,164610,2,0,L|470:248,1,56.2500021457673,4|0,0:0|0:0,0:0:0:0:
467,182,164834,1,0,0:0:0:0:
467,182,164946,1,0,0:0:0:0:
467,182,165058,6,0,P|471:214|461:247,1,56.2500021457673,8|0,0:0|0:0,0:0:0:0:
430,319,165282,1,2,0:0:0:0:
278,340,165505,1,8,0:0:0:0:
278,340,165617,1,0,0:0:0:0:
278,340,165729,1,2,0:0:0:0:
103,256,165953,5,8,0:0:0:0:
267,179,166177,1,2,0:0:0:0:
61,121,166401,1,8,0:0:0:0:
269,35,166625,2,0,P|301:33|330:43,1,56.2500021457673,2|0,0:0|0:0,0:0:0:0:
401,131,166849,6,0,P|297:252|350:101,1,450.000017166138,8|8,0:0|0:0,0:0:0:0:
454,178,167968,6,0,B|514:213|441:249|498:289,1,112.500004291535,2|2,0:0|0:0,0:0:0:0:
405,131,168640,5,8,0:0:0:0:
364,300,168864,1,2,0:0:0:0:
315,103,169087,5,8,0:0:0:0:
315,103,169199,1,0,0:0:0:0:
315,103,169311,1,2,0:0:0:0:
263,266,169535,5,8,0:0:0:0:
216,98,169759,1,2,0:0:0:0:
162,292,169983,1,8,0:0:0:0:
121,96,170207,2,0,P|93:95|69:108,1,56.2500021457673,2|0,0:0|0:0,0:0:0:0:
7,202,170431,6,0,P|122:310|54:166,1,450.000017166138,8|8,0:0|0:0,0:0:0:0:
123,102,171550,1,2,0:0:0:0:
177,26,171774,2,0,B|203:12|203:12|222:36,1,56.2500021457673,8|0,0:0|0:0,0:0:0:0:
250,112,171998,1,2,0:0:0:0:
250,112,172110,1,0,0:0:0:0:
250,112,172222,6,0,P|240:143|218:169,1,56.2500021457673,8|0,0:0|0:0,0:0:0:0:
161,225,172446,1,2,0:0:0:0:
58,310,172670,5,8,0:0:0:0:
58,310,172782,1,0,0:0:0:0:
58,310,172893,1,2,0:0:0:0:
227,278,173117,5,8,0:0:0:0:
134,149,173341,1,2,0:0:0:0:
347,200,173565,1,8,0:0:0:0:
216,79,173789,2,0,P|188:60|156:52,1,56.2500021457673,2|0,0:0|0:0,0:0:0:0:
82,134,174013,6,0,P|160:272|137:114,1,450.000017166138,8|8,0:0|0:0,0:0:0:0:
261,52,175132,6,0,B|304:-1|329:75|377:25,1,112.500004291535,2|2,0:0|0:0,0:0:0:0:
391,189,175804,5,8,0:0:0:0:
271,85,176028,1,2,0:0:0:0:
181,234,176252,5,8,0:0:0:0:
181,234,176364,1,0,0:0:0:0:
181,234,176476,1,2,0:0:0:0:
26,112,176699,5,8,0:0:0:0:
250,114,176923,1,2,0:0:0:0:
26,112,177147,1,8,0:0:0:0:
200,46,177371,2,0,P|236:43|275:57,1,56.2500021457673,2|0,0:0|0:0,0:0:0:0:
334,129,177595,6,0,P|255:267|278:109,1,450.000017166138,8|8,0:0|0:0,0:0:0:0:
392,233,178714,1,2,0:0:0:0:
241,311,178938,2,0,B|215:316|215:316|209:286,1,56.2500021457673,8|0,0:0|0:0,0:0:0:0:
233,215,179162,1,2,0:0:0:0:
233,215,179274,1,0,0:0:0:0:
233,215,179386,6,0,P|263:223|281:241,1,56.2500021457673,8|0,0:0|0:0,0:0:0:0:
315,320,179610,1,0,0:0:0:0:
165,330,179834,5,0,0:0:0:0:
165,330,179946,1,0,0:0:0:0:
165,330,180058,1,0,0:0:0:0:
160,223,180282,22,0,P|152:190|134:168,1,56.2500021457673,0|0,0:0|0:0,0:0:0:0:
76,111,180505,38,0,B|47:81|47:81|17:67|22:37|51:29|65:56,1,112.500004291535,4|0,0:0|0:0,0:0:0:0:
91,49,180729,2,0,B|97:31|126:39|131:69|101:83|101:83|75:110,1,112.500004291535,4|0,0:0|0:0,0:0:0:0:
