osu file format v14

[General]
AudioFilename: audio.mp3
AudioLeadIn: 0
PreviewTime: 87772
Countdown: 0
SampleSet: Normal
StackLeniency: 0.4
Mode: 0
LetterboxInBreaks: 0
EpilepsyWarning: 1
WidescreenStoryboard: 1

[Editor]
Bookmarks: 116401
DistanceSpacing: 1.04
BeatDivisor: 4
GridSize: 4
TimelineZoom: 2.2

[Metadata]
Title:Why We Lose (ft. Coleman Trapp)
TitleUnicode:Why We Lose (ft. Coleman Trapp)
Artist:Cartoon
ArtistUnicode:Cartoon
Creator:Plaudible
Version:Yamicchi's Insane
Source:
Tags:ncs nocopyrightsounds liquid dnb drum and bass cut short ver yamicchi hobbes2 hokichi a_r_m_i_n armin
BeatmapID:1291658
BeatmapSetID:611956

[Difficulty]
HPDrainRate:6
CircleSize:4
OverallDifficulty:8
ApproachRate:9
SliderMultiplier:1.65
SliderTickRate:1

[Events]
//Background and Video events
0,0,"background-.jpg",0,0
//Break Periods
//Storyboard Layer 0 (Background)
//Storyboard Layer 1 (Fail)
//Storyboard Layer 2 (Pass)
//Storyboard Layer 3 (Foreground)
//Storyboard Sound Samples

[TimingPoints]
19201,342.857142857143,4,2,1,50,1,0
21601,-125,4,2,1,20,0,0
21943,-125,4,2,1,50,0,0
43029,-125,4,2,1,20,0,0
43201,-125,4,2,2,60,0,0
43372,-125,4,2,1,60,0,0
43886,-133.333333333333,4,2,1,70,0,0
46201,-133.333333333333,4,2,1,5,0,0
46286,-133.333333333333,4,2,1,70,0,0
46543,-133.333333333333,4,2,1,5,0,0
46629,-133.333333333333,4,2,1,70,0,0
48943,-133.333333333333,4,2,1,5,0,0
49029,-133.333333333333,4,2,1,70,0,0
49286,-133.333333333333,4,2,1,5,0,0
49372,-133.333333333333,4,2,1,70,0,0
51686,-133.333333333333,4,2,1,5,0,0
51772,-133.333333333333,4,2,1,70,0,0
52029,-133.333333333333,4,2,1,5,0,0
52115,-133.333333333333,4,2,1,70,0,0
57172,-133.333333333333,4,2,1,5,0,0
57258,-133.333333333333,4,2,1,70,0,0
57515,-133.333333333333,4,2,1,5,0,0
57601,-133.333333333333,4,2,1,70,0,0
59915,-133.333333333333,4,2,1,5,0,0
60001,-133.333333333333,4,2,1,70,0,0
60258,-133.333333333333,4,2,1,5,0,0
60343,-133.333333333333,4,2,1,70,0,0
62658,-133.333333333333,4,2,1,5,0,0
62743,-133.333333333333,4,2,1,70,0,0
63001,-133.333333333333,4,2,1,5,0,0
63086,-133.333333333333,4,2,1,70,0,0
65829,-166.666666666667,4,2,1,60,0,0
76801,-111.111111111111,4,2,1,70,0,0
82286,-111.111111111111,4,2,1,80,0,0
85715,-83.3333333333333,4,2,1,80,0,0
87772,-86.9565217391304,4,1,1,100,0,1
90172,-68.9655172413793,4,1,1,100,0,1
90429,-68.9655172413793,4,1,1,5,0,1
90515,-86.9565217391304,4,1,1,100,0,1
95658,-68.9655172413793,4,1,1,100,0,1
95915,-68.9655172413793,4,1,1,5,0,1
96001,-86.9565217391304,4,1,1,100,0,1
99001,-86.9565217391304,4,1,1,5,0,1
99086,-86.9565217391304,4,1,1,100,0,1
101143,-68.9655172413793,4,1,1,100,0,1
101401,-68.9655172413793,4,1,1,5,0,1
101486,-86.9565217391304,4,1,1,100,0,1
101743,-86.9565217391304,4,1,1,5,0,1
101829,-86.9565217391304,4,1,1,100,0,1
106972,-105.263157894737,4,1,1,100,0,1
109372,-86.9565217391304,4,1,1,100,0,1
109715,-90.9090909090909,4,1,1,80,0,0
120943,-90.9090909090909,4,1,1,5,0,0
121029,-90.9090909090909,4,1,1,80,0,0
122315,-90.9090909090909,4,1,1,5,0,0
122401,-90.9090909090909,4,1,1,80,0,0
123686,-90.9090909090909,4,1,1,5,0,0
123772,-90.9090909090909,4,1,1,80,0,0
125058,-90.9090909090909,4,1,1,5,0,0
125143,-90.9090909090909,4,1,1,80,0,0
126429,-90.9090909090909,4,1,1,5,0,0
126515,-90.9090909090909,4,1,1,80,0,0
127115,-90.9090909090909,4,1,1,5,0,0
127201,-90.9090909090909,4,1,1,80,0,0
127801,-90.9090909090909,4,1,1,5,0,0
127886,-90.9090909090909,4,1,1,80,0,0
128486,-90.9090909090909,4,1,1,5,0,0
128572,-90.9090909090909,4,1,1,80,0,0
131658,-90.9090909090909,4,1,1,5,0,0

[Colours]
Combo1 : 176,176,255
Combo2 : 167,167,167
Combo3 : 255,111,111
Combo4 : 255,255,145

[HitObjects]
256,192,19201,12,0,21601,0:0:0:0:
152,112,21943,6,0,P|236:64|320:116,1,198,0|0,3:0|0:0,0:0:0:0:
352,194,22629,2,0,P|287:198|236:160,1,132,0|0,3:0|0:0,0:0:0:0:
319,43,23143,2,0,L|315:119,1,66,0|0,0:0|3:0,0:0:0:0:
352,194,23486,2,0,L|348:270,1,66
304,344,23828,1,0,0:0:0:0:
435,343,24001,2,0,B|367:355|367:355|295:343,1,132,0|0,3:0|0:0,0:0:0:0:
72,220,24686,6,0,B|108:180|168:184|168:184|192:236|180:288,1,198,0|0,3:0|0:0,0:0:0:0:
268,308,25372,2,0,P|272:236|256:160,1,132,0|0,3:0|0:0,0:0:0:0:
212,96,25886,2,0,P|168:92|124:96,1,66,0|0,0:0|3:0,0:0:0:0:
100,176,26229,2,0,P|144:180|188:176,1,66
303,64,26571,1,0,0:0:0:0:
261,177,26743,2,0,P|304:128|292:44,1,132,0|0,3:0|0:0,0:0:0:0:
344,224,27429,6,0,B|496:216|496:216|444:236,1,198,0|0,3:0|0:0,0:0:0:0:
328,304,28115,2,0,B|432:300|432:300|400:312,1,132,0|0,3:0|0:0,0:0:0:0:
312,384,28629,2,0,L|240:380,1,66,0|0,0:0|3:0,0:0:0:0:
168,328,28972,2,0,L|96:332,1,66
11,381,29314,1,0,0:0:0:0:
40,260,29486,2,0,P|44:324|8:384,1,132,0|0,3:0|0:0,0:0:0:0:
224,192,30171,6,0,B|180:156|104:176|104:176|84:216|44:228,1,198,0|0,3:0|0:0,0:0:0:0:
20,136,30858,2,0,L|28:0,1,132,0|0,3:0|0:0,0:0:0:0:
112,52,31371,2,0,L|194:55,1,66,0|0,0:0|3:0,0:0:0:0:
260,8,31715,2,0,L|342:5,1,66
396,72,32057,1,0,0:0:0:0:
267,91,32229,2,0,B|360:88|360:88|396:72,1,132,0|0,3:0|0:0,0:0:0:0:
80,72,32914,6,0,B|48:128|80:176|80:176|112:224|80:280,1,198,0|0,3:0|0:0,0:0:0:0:
16,312,33600,2,0,B|64:296|64:296|168:304,1,132,0|0,3:0|0:0,0:0:0:0:
232,264,34114,2,0,P|240:224|240:192,1,66,0|0,0:0|3:0,0:0:0:0:
351,259,34457,2,0,P|334:287|312:312,1,66,0|0,0:0|0:0,0:0:0:0:
168,336,34800,1,0,0:0:0:0:
135,209,34972,2,0,P|142:275|168:336,1,132,0|0,3:0|0:0,0:0:0:0:
8,160,35658,6,0,P|64:80|168:104,1,198,0|0,3:0|0:0,0:0:0:0:
240,64,36343,2,0,P|232:136|169:182,1,132,0|0,3:0|0:0,0:0:0:0:
148,256,36857,2,0,P|112:224|101:182,1,66,0|0,0:0|3:0,0:0:0:0:
52,134,37200,2,0,P|97:118|139:130,1,66,0|0,0:0|0:0,0:0:0:0:
189,172,37543,1,0,0:0:0:0:
179,52,37715,2,0,P|207:111|189:174,1,132,0|0,3:0|0:0,0:0:0:0:
464,340,38400,6,0,B|472:304|472:304|460:256|460:256|480:196|452:144,1,198,0|0,3:0|0:0,0:0:0:0:
380,88,39086,2,0,L|240:92,1,132,0|0,3:0|0:0,0:0:0:0:
156,72,39600,2,0,P|152:36|152:0,1,66,0|0,0:0|3:0,0:0:0:0:
60,12,39943,2,0,P|60:44|64:81,1,66,0|0,0:0|0:0,0:0:0:0:
132,164,40285,1,0,0:0:0:0:
156,72,40457,1,0,3:0:0:0:
160,256,40800,1,0,0:0:0:0:
317,160,41143,5,0,3:0:0:0:
256,192,41228,12,0,43029,0:0:0:0:
328,248,43201,5,8,0:3:0:0:
396,88,43372,1,0,3:0:0:0:
404,112,43715,1,0,3:0:0:0:
196,116,43886,6,0,L|203:319,1,185.625007081032,6|0,0:0|0:0,0:0:0:0:
79,305,44572,2,0,L|217:300,1,123.750004720688,2|0,0:0|0:0,0:0:0:0:
360,360,45086,2,0,L|298:357,1,61.875002360344,2|0,0:0|0:0,0:0:0:0:
299,246,45429,2,0,L|360:248,1,61.875002360344,2|0,0:0|0:0,0:0:0:0:
202,300,45772,1,2,0:0:0:0:
76,212,45943,2,0,L|72:95,1,92.812503540516,2|0,0:0|0:0,0:0:0:0:
116,48,46286,2,0,L|120:165,1,92.812503540516,2|0,0:0|0:0,0:0:0:0:
192,184,46629,5,2,0:0:0:0:
192,184,47315,2,0,L|328:176,1,123.750004720688,2|0,0:0|0:0,0:0:0:0:
408,124,47829,2,0,P|424:96|428:56,1,61.875002360344,2|0,0:0|0:0,0:0:0:0:
406,230,48172,2,0,P|422:257|454:281,1,61.875002360344,2|0,0:0|0:0,0:0:0:0:
315,176,48515,1,2,0:0:0:0:
248,316,48686,2,0,P|200:328|144:308,1,92.812503540516,2|0,0:0|0:0,0:0:0:0:
156,232,49029,2,0,P|204:220|260:240,1,92.812503540516,2|0,0:0|0:0,0:0:0:0:
320,272,49372,6,0,B|328:216|328:216|316:176|316:176|328:72,1,185.625007081032,2|0,0:0|0:0,0:0:0:0:
438,53,50058,2,0,P|392:85|326:89,1,123.750004720688,2|0,0:0|0:0,0:0:0:0:
200,48,50572,2,0,P|240:44|272:48,1,61.875002360344,2|0,0:0|0:0,0:0:0:0:
88,108,50915,2,0,P|128:112|160:108,1,61.875002360344,2|0,0:0|0:0,0:0:0:0:
24,52,51258,1,2,0:0:0:0:
81,200,51429,2,0,L|89:80,1,92.812503540516,2|0,0:0|0:0,0:0:0:0:
172,116,51772,2,0,L|165:208,1,92.812503540516,2|0,0:0|0:0,0:0:0:0:
116,276,52115,5,2,0:0:0:0:
116,276,52801,2,0,B|176:240|264:268,1,123.750004720688,2|0,0:0|0:0,0:0:0:0:
324,348,53315,2,0,L|328:280,1,61.875002360344,2|0,0:0|0:0,0:0:0:0:
404,188,53658,2,0,L|400:120,1,61.875002360344,2|0,0:0|0:0,0:0:0:0:
320,32,54001,1,2,0:0:0:0:
248,132,54172,2,0,P|252:68|300:24,1,123.750004720688,2|2,0:0|0:0,0:0:0:0:
296,220,54858,6,0,B|272:224|236:216|236:216|184:248|104:240,1,185.625007081032,6|0,0:0|0:0,0:0:0:0:
0,200,55543,2,0,P|61:211|115:241,1,123.750004720688,2|0,0:0|0:0,0:0:0:0:
204,328,56058,2,0,P|184:348|148:364,1,61.875002360344,2|0,0:0|0:0,0:0:0:0:
232,212,56401,2,0,P|259:219|291:242,1,61.875002360344,2|0,0:0|0:0,0:0:0:0:
322,354,56743,1,0,0:0:0:0:
388,152,56915,2,0,P|436:148|492:184,1,92.812503540516,2|0,0:0|0:0,0:0:0:0:
420,232,57258,2,0,P|372:236|316:200,1,92.812503540516,2|0,0:0|0:0,0:0:0:0:
310,145,57601,5,2,0:0:0:0:
310,145,58286,2,0,L|316:16,1,123.750004720688,2|0,0:0|0:0,0:0:0:0:
384,104,58801,2,0,L|456:96,1,61.875002360344,2|0,0:0|0:0,0:0:0:0:
484,220,59143,2,0,L|412:212,1,61.875002360344,2|0,0:0|0:0,0:0:0:0:
310,145,59486,1,2,0:0:0:0:
244,292,59658,2,0,P|200:300|144:284,1,92.812503540516,2|0,0:0|0:0,0:0:0:0:
63,292,60001,2,0,P|107:300|163:284,1,92.812503540516,2|0,0:0|0:0,0:0:0:0:
180,196,60343,6,0,B|192:64|192:64|156:120,1,185.625007081032,2|0,0:0|0:0,0:0:0:0:
264,168,61029,2,0,P|328:176|392:144,1,123.750004720688,2|0,0:0|0:0,0:0:0:0:
192,64,61543,2,0,L|186:129,1,61.875002360344,2|0,0:0|0:0,0:0:0:0:
80,212,61886,2,0,L|74:150,1,61.875002360344,2|0,0:0|0:0,0:0:0:0:
228,248,62229,1,2,0:0:0:0:
64,308,62401,2,0,P|104:284|168:292,1,92.812503540516,2|0,0:0|0:0,0:0:0:0:
208,344,62743,2,0,P|253:343|293:320,1,92.812503540516,2|0,0:0|0:0,0:0:0:0:
320,240,63086,5,2,0:0:0:0:
320,240,63772,2,0,B|312:176|312:176|324:108,1,123.750004720688,2|0,0:0|0:0,0:0:0:0:
220,36,64286,2,0,L|228:120,1,61.875002360344,2|0,0:0|0:0,0:0:0:0:
156,208,64629,2,0,L|150:146,1,61.875002360344,2|0,0:0|0:0,0:0:0:0:
72,40,64972,1,2,0:0:0:0:
33,166,65143,2,0,P|94:171|150:146,1,123.750004720688,2|2,0:0|0:0,0:0:0:0:
336,24,65829,6,0,B|344:96|344:96|320:144|320:144|332:236,1,197.99999395752,4|0,0:0|0:0,0:0:0:0:
373,308,66858,1,0,0:0:0:0:
285,364,67201,1,2,0:0:0:0:
181,356,67543,1,0,0:0:0:0:
189,252,67886,1,2,0:0:0:0:
293,260,68229,1,0,0:0:0:0:
72,336,68572,6,0,B|56:120|56:120|96:208,1,296.99999093628,2|0,0:0|0:0,0:0:0:0:
184,240,69943,1,2,0:0:0:0:
288,232,70285,1,0,0:0:0:0:
280,128,70628,1,2,0:0:0:0:
176,136,70971,1,0,0:0:0:0:
392,224,71315,6,0,B|408:8|408:8|368:96,1,296.99999093628,2|0,0:0|0:0,0:0:0:0:
280,128,72686,1,2,0:0:0:0:
176,120,73028,1,0,0:0:0:0:
184,16,73371,1,2,0:0:0:0:
288,24,73714,1,0,0:0:0:0:
164,224,74058,6,0,B|196:184|172:120|172:120|116:112|92:160,2,197.99999395752,2|2|2,0:0|0:0|0:0,0:0:0:0:
97,289,75601,2,0,P|147:316|209:305,1,98.9999969787599
254,246,76115,1,2,0:0:0:0:
97,289,76458,1,2,0:0:0:0:
322,295,76801,6,0,P|327:331|320:368,1,74.2499977340699,2|0,3:2|3:2,3:2:0:0:
413,199,77143,2,0,P|408:235|416:272,1,74.2499977340699,2|0,3:2|3:2,3:2:0:0:
322,103,77486,2,0,P|327:139|320:176,1,74.2499977340699,2|0,3:2|3:2,3:2:0:0:
413,7,77829,2,0,P|408:43|416:80,1,74.2499977340699,2|0,3:2|3:2,3:2:0:0:
224,136,78172,6,0,L|144:128,1,74.2499977340699,2|0,3:2|3:2,3:2:0:0:
32,208,78515,2,0,L|112:200,1,74.2499977340699,2|0,3:2|3:2,3:2:0:0:
224,280,78858,2,0,L|144:272,1,74.2499977340699,2|0,3:2|3:2,3:2:0:0:
32,352,79201,2,0,L|112:344,1,74.2499977340699,2|0,3:2|3:2,3:2:0:0:
349,208,79543,6,0,B|364:244|364:244|368:288,1,74.2499977340699,2|0,3:2|3:2,3:2:0:0:
232,364,79886,2,0,B|217:328|217:328|213:284,1,74.2499977340699,2|0,3:2|3:2,3:2:0:0:
368,200,80229,2,0,B|383:236|383:236|387:280,1,74.2499977340699,2|0,3:2|3:2,3:2:0:0:
216,376,80572,2,0,B|201:340|201:340|197:296,1,74.2499977340699,2|0,3:2|3:2,3:2:0:0:
312,116,80915,6,0,L|400:120,1,74.2499977340699,2|0,3:2|3:2,3:2:0:0:
476,292,81258,2,0,L|401:295,1,74.2499977340699,2|0,3:2|3:2,3:2:0:0:
304,96,81601,2,0,L|392:100,1,74.2499977340699,2|0,3:2|3:2,3:2:0:0:
468,312,81943,2,0,L|380:316,1,74.2499977340699,2|0,3:2|3:2,3:2:0:0:
224,160,82286,5,2,3:2:0:0:
204,248,82458,1,0,3:2:0:0:
320,352,82629,2,0,L|324:276,1,74.2499977340699,2|0,3:2|3:2,3:2:0:0:
204,168,82972,5,2,3:2:0:0:
184,256,83144,1,0,3:2:0:0:
300,360,83315,2,0,L|304:284,1,74.2499977340699,2|0,3:2|3:2,3:2:0:0:
184,176,83658,5,2,3:2:0:0:
88,192,83829,1,0,3:2:0:0:
246,252,84001,1,2,3:2:0:0:
150,268,84172,1,0,3:2:0:0:
220,84,84343,5,2,3:2:0:0:
124,100,84514,1,0,3:2:0:0:
280,160,84686,1,2,3:2:0:0:
184,176,84857,1,0,3:2:0:0:
272,336,85029,5,2,3:2:0:0:
298,333,85114,1,0,3:2:0:0:
324,331,85201,1,2,3:2:0:0:
351,329,85286,1,0,3:2:0:0:
377,327,85371,1,2,3:2:0:0:
404,324,85457,1,0,3:2:0:0:
430,322,85543,1,2,3:2:0:0:
456,320,85629,1,0,3:2:0:0:
484,316,85715,6,0,L|488:260,1,49.4999984893799,2|0,3:2|3:2,3:2:0:0:
436,144,85886,2,0,L|432:193,1,49.4999984893799,2|0,3:2|3:2,3:2:0:0:
377,327,86058,2,0,L|381:271,1,49.4999984893799,2|0,3:2|3:2,3:2:0:0:
318,138,86229,2,0,L|314:187,1,49.4999984893799,2|0,3:2|3:2,3:2:0:0:
272,336,86401,5,8,3:0:0:0:
272,336,87772,6,0,L|268:236,1,94.8750018095971,0|0,3:0|0:0,0:0:0:0:
400,64,88115,1,8,0:3:0:0:
338,198,88286,1,0,0:0:0:0:
486,185,88458,2,0,P|448:156|384:148,1,94.8750018095971,0|0,0:0|3:0,0:0:0:0:
256,324,88801,1,8,0:3:0:0:
172,184,88972,5,0,0:0:0:0:
164,284,89143,1,0,3:0:0:0:
184,80,89315,1,0,0:0:0:0:
192,180,89486,1,8,0:3:0:0:
48,232,89658,5,0,0:0:0:0:
212,176,89829,1,0,0:0:0:0:
20,148,90001,1,0,3:0:0:0:
76,316,90172,2,0,B|220:304|220:304|192:300|168:288,1,179.437505475998,8|0,0:3|0:0,0:0:0:0:
272,240,90515,6,0,P|300:280|300:328,1,94.8750018095971,0|0,3:0|0:0,0:0:0:0:
384,148,90858,1,8,0:3:0:0:
388,280,91029,1,0,0:0:0:0:
272,218,91201,2,0,L|268:120,1,94.8750018095971,0|0,0:0|3:0,0:0:0:0:
447,32,91543,1,8,0:3:0:0:
368,156,91715,5,0,0:0:0:0:
376,40,91886,1,0,3:0:0:0:
360,280,92058,1,0,0:0:0:0:
352,164,92229,1,8,0:3:0:0:
500,288,92401,5,0,0:0:0:0:
336,172,92572,1,0,0:0:0:0:
512,160,92743,1,0,3:0:0:0:
324,300,92915,1,8,0:3:0:0:
72,164,93258,6,0,L|80:272,1,94.8750018095971,0|0,3:0|0:0,0:0:0:0:
284,288,93601,1,8,0:3:0:0:
184,172,93772,1,0,0:0:0:0:
128,364,93943,2,0,L|240:356,1,94.8750018095971,0|0,0:0|3:0,0:0:0:0:
296,180,94286,1,8,0:3:0:0:
396,296,94458,6,0,P|408:248|400:200,1,94.8750018095971,0|0,0:0|3:0,0:0:0:0:
456,64,94801,2,0,P|408:77|370:108,1,94.8750018095971,0|8,0:0|0:3,0:0:0:0:
280,212,95143,1,0,0:0:0:0:
248,72,95315,1,0,0:0:0:0:
264,244,95486,1,0,3:0:0:0:
88,176,95658,6,0,B|176:156|136:184|224:164|224:164|196:176|184:212,1,179.437505475998,8|0,0:3|0:0,0:0:0:0:
28,236,96001,6,0,P|4:188|24:120,1,94.8750018095971,0|0,3:0|0:0,0:0:0:0:
180,20,96343,1,8,0:3:0:0:
193,191,96515,1,0,0:0:0:0:
36,256,96686,2,0,B|84:248|84:248|144:260,1,94.8750018095971,0|0,0:0|3:0,0:0:0:0:
328,384,97029,1,8,0:3:0:0:
200,208,97201,6,0,L|204:324,1,94.8750018095971,0|0,0:0|3:0,0:0:0:0:
333,133,97543,2,0,L|329:249,1,94.8750018095971,0|8,0:0|0:3,0:0:0:0:
200,56,97886,1,0,0:0:0:0:
324,48,98058,1,0,0:0:0:0:
160,132,98229,1,0,3:0:0:0:
308,24,98401,2,0,L|420:16,1,94.8750018095971,8|0,0:3|0:0,0:0:0:0:
472,164,98743,6,0,L|353:157,1,94.8750018095971,0|0,3:0|0:0,0:0:0:0:
244,148,99086,1,8,0:3:0:0:
376,236,99258,1,0,0:0:0:0:
234,307,99429,2,0,P|212:264|216:208,1,94.8750018095971,0|0,0:0|3:0,0:0:0:0:
456,140,99772,1,8,0:3:0:0:
300,264,99943,5,0,0:0:0:0:
412,240,100115,1,0,3:0:0:0:
176,220,100286,1,0,0:0:0:0:
288,244,100458,1,8,0:3:0:0:
80,284,100629,5,0,0:0:0:0:
276,224,100801,1,0,0:0:0:0:
144,380,100972,1,0,3:0:0:0:
173,173,101143,2,0,B|152:244|192:296|192:296|176:328|184:368,1,179.437505475998,8|0,0:3|0:0,0:0:0:0:
280,344,101486,6,0,L|388:340,1,94.8750018095971,0|0,3:0|0:0,0:0:0:0:
500,368,101829,1,8,0:3:0:0:
404,156,102001,1,0,0:0:0:0:
512,268,102172,2,0,P|515:219|503:172,1,94.8750018095971,0|0,0:0|3:0,0:0:0:0:
280,104,102515,1,8,0:3:0:0:
392,164,102686,5,0,0:0:0:0:
384,56,102858,1,0,3:0:0:0:
372,280,103029,1,0,0:0:0:0:
380,172,103201,1,8,0:3:0:0:
500,276,103372,5,0,0:0:0:0:
368,180,103543,1,0,0:0:0:0:
376,380,103715,1,0,3:0:0:0:
496,184,103886,1,8,0:3:0:0:
192,328,104229,6,0,L|286:321,1,94.8750018095971,0|0,3:0|0:0,0:0:0:0:
138,237,104572,1,8,0:3:0:0:
101,381,104743,1,0,0:0:0:0:
244,236,104915,2,0,P|249:188|240:136,1,94.8750018095971,0|0,0:0|3:0,0:0:0:0:
32,238,105258,1,8,0:3:0:0:
188,344,105429,6,0,L|282:337,1,94.8750018095971,0|0,0:0|3:0,0:0:0:0:
344,116,105772,2,0,L|250:123,1,94.8750018095971,0|8,0:0|0:3,0:0:0:0:
44,244,106115,1,0,0:0:0:0:
232,232,106286,1,0,0:0:0:0:
68,148,106458,1,0,3:0:0:0:
208,328,106629,2,0,B|260:336|260:336|328:324,1,94.8750018095971,8|0,0:3|0:0,0:0:0:0:
432,152,106972,5,8,0:3:0:0:
376,248,107143,2,0,L|379:326,1,78.3749979071618,0|0,0:0|0:0,0:0:0:0:
448,144,107486,5,8,0:3:0:0:
392,240,107657,2,0,L|395:318,1,78.3749979071618,0|0,0:0|0:0,0:0:0:0:
464,136,108001,6,0,L|460:57,1,78.3749979071618,8|0,0:3|0:0,0:0:0:0:
408,232,108343,5,8,0:3:0:0:
480,128,108515,2,0,L|476:49,1,78.3749979071618,0|0,0:0|0:0,0:0:0:0:
424,224,108858,5,8,0:3:0:0:
440,216,109029,1,0,0:0:0:0:
456,208,109201,1,0,3:0:0:0:
320,268,109372,2,0,L|220:264,1,94.8750018095971,8|0,0:3|0:0,0:0:0:0:
88,80,109715,6,0,P|64:172|128:244,1,181.500005538941,0|8,3:0|0:3,0:0:0:0:
224,144,110229,5,0,0:0:0:0:
192,140,110401,1,0,0:0:0:0:
161,149,110572,1,0,3:0:0:0:
316,192,110743,2,0,P|328:160|316:92,1,90.7500027694703,8|0,0:3|0:0,0:0:0:0:
497,88,111086,6,0,B|449:112|449:112|317:104,1,181.500005538941,0|8,3:0|0:3,0:0:0:0:
156,72,111601,5,0,0:0:0:0:
187,63,111772,1,0,0:0:0:0:
219,67,111944,1,0,3:0:0:0:
406,198,112115,2,0,L|316:192,1,90.7500027694703,8|0,0:3|0:0,0:0:0:0:
224,240,112458,6,0,B|256:236|288:212|288:212|432:222,1,181.500005538941,0|8,3:0|0:3,0:0:0:0:
472,372,112972,5,0,0:0:0:0:
480,340,113143,1,0,0:0:0:0:
477,307,113315,1,0,3:0:0:0:
324,168,113486,2,0,L|414:174,1,90.7500027694703,8|0,0:3|0:0,0:0:0:0:
224,240,113829,6,0,P|200:152|252:64,1,181.500005538941,0|8,3:0|0:3,0:0:0:0:
324,168,114343,5,0,0:0:0:0:
331,135,114515,1,0,0:0:0:0:
328,102,114686,1,0,3:0:0:0:
336,290,114858,2,0,P|384:300|432:288,1,90.7500027694703,8|0,0:3|0:0,0:0:0:0:
212,232,115201,6,0,B|120:208|120:208|28:236,1,181.500005538941,0|8,3:0|0:3,0:0:0:0:
124,352,115715,5,0,0:0:0:0:
144,324,115886,1,0,0:0:0:0:
110,321,116058,1,0,3:0:0:0:
324,300,116229,2,0,L|320:200,1,90.7500027694703,8|0,0:3|0:0,0:0:0:0:
156,76,116572,6,0,B|214:54|272:81|272:81|307:66|336:76,1,181.500005538941,0|8,3:0|0:3,0:0:0:0:
320,209,117086,5,0,0:0:0:0:
316,176,117258,1,0,0:0:0:0:
346,189,117429,1,0,3:0:0:0:
164,296,117601,2,0,L|59:287,1,90.7500027694703,8|0,0:3|0:0,0:0:0:0:
294,229,117943,6,0,P|264:316|324:384,1,181.500005538941,0|8,3:0|0:3,0:0:0:0:
359,269,118458,5,0,0:0:0:0:
381,291,118630,1,0,0:0:0:0:
350,299,118801,1,0,3:0:0:0:
464,224,118972,2,0,P|472:172|456:124,1,90.7500027694703,8|0,0:3|0:0,0:0:0:0:
283,143,119315,6,0,B|343:155|343:155|463:135,1,181.500005538941,0|8,3:0|0:3,0:0:0:0:
304,68,119829,5,0,0:0:0:0:
336,74,120001,1,0,0:0:0:0:
326,44,120172,1,0,3:0:0:0:
262,218,120343,2,0,B|268:316,1,90.7500027694703,8|0,0:3|0:0,0:0:0:0:
204,164,120686,6,0,P|136:136|52:152,1,136.125004154205,0|0,3:0|0:0,0:0:0:0:
16,212,121029,1,8,0:3:0:0:
124,368,121201,1,0,0:0:0:0:
120,260,121372,1,0,0:0:0:0:
124,368,121543,1,0,3:0:0:0:
206,197,121715,2,0,P|224:240|217:295,1,90.7500027694703,8|0,0:3|0:0,0:0:0:0:
420,280,122058,6,0,P|360:244|280:260,1,136.125004154205,0|0,3:0|0:0,0:0:0:0:
221,283,122401,1,8,0:3:0:0:
416,364,122572,1,0,0:0:0:0:
288,332,122743,1,0,0:0:0:0:
416,364,122915,1,0,3:0:0:0:
212,365,123086,2,0,L|204:265,1,90.7500027694703,8|0,0:3|0:0,0:0:0:0:
268,76,123429,6,0,L|260:220,1,136.125004154205,0|0,3:0|0:0,0:0:0:0:
237,291,123772,1,8,0:3:0:0:
88,176,123943,1,0,0:0:0:0:
216,144,124115,1,0,0:0:0:0:
88,176,124286,1,0,3:0:0:0:
253,299,124458,2,0,L|350:293,1,90.7500027694703,8|0,0:3|0:0,0:0:0:0:
479,126,124801,6,0,P|511:184|494:249,1,136.125004154205,0|0,3:0|0:0,0:0:0:0:
424,288,125143,1,8,0:3:0:0:
288,168,125315,1,0,0:0:0:0:
424,196,125486,1,0,0:0:0:0:
288,168,125658,1,0,3:0:0:0:
176,344,125829,2,0,P|164:300|184:240,1,90.7500027694703,8|0,0:3|0:0,0:0:0:0:
424,196,126172,6,0,B|376:208|376:208|280:196,1,136.125004154205,0|0,3:0|0:0,0:0:0:0:
256,120,126515,2,0,L|360:132,1,90.7500027694703,8|0,0:3|0:0,0:0:0:0:
190,197,126858,6,0,B|178:149|178:149|190:53,1,136.125004154205,0|0,3:0|0:0,0:0:0:0:
266,29,127201,2,0,L|254:133,1,90.7500027694703,8|0,0:3|0:0,0:0:0:0:
204,296,127543,6,0,L|52:280,1,136.125004154205,0|0,3:0|0:0,0:0:0:0:
80,192,127886,2,0,P|128:216|152:256,1,90.7500027694703,8|0,0:3|0:0,0:0:0:0:
256,356,128229,6,0,L|408:340,1,136.125004154205,0|0,3:0|0:0,0:0:0:0:
380,252,128572,2,0,P|332:276|308:316,1,90.7500027694703,8|0,0:3|0:0,0:0:0:0:
460,284,128915,5,0,3:0:0:0:
448,188,129086,1,0,3:0:0:0:
472,380,129258,1,8,0:3:0:0:
472,276,129429,5,0,3:0:0:0:
460,180,129600,1,0,3:0:0:0:
448,84,129772,1,0,3:0:0:0:
484,372,129943,1,8,0:3:0:0:
256,192,130286,12,4,131658,0:1:0:0:
