osu file format v14

[General]
AudioFilename: audio.mp3
AudioLeadIn: 0
PreviewTime: 87772
Countdown: 0
SampleSet: Soft
StackLeniency: 0.7
Mode: 0
LetterboxInBreaks: 0
EpilepsyWarning: 1
WidescreenStoryboard: 1

[Editor]
Bookmarks: 22045,43988,65931,76903,87874,109817,131760
DistanceSpacing: 1.2
BeatDivisor: 4
GridSize: 32
TimelineZoom: 1

[Metadata]
Title:Why We Lose (ft. Coleman Trapp)
TitleUnicode:Why We Lose (ft. Coleman Trapp)
Artist:Cartoon
ArtistUnicode:Cartoon
Creator:Plaudible
Version:Easy
Source:
Tags:ncs nocopyrightsounds liquid dnb drum and bass cut short ver yamicchi hobbes2 hokichi a_r_m_i_n armin
BeatmapID:1291654
BeatmapSetID:611956

[Difficulty]
HPDrainRate:2
CircleSize:2
OverallDifficulty:3
ApproachRate:3
SliderMultiplier:0.999999999999999
SliderTickRate:1

[Events]
//Background and Video events
0,0,"background-.jpg",0,0
//Break Periods
//Storyboard Layer 0 (Background)
//Storyboard Layer 1 (Fail)
//Storyboard Layer 2 (Pass)
//Storyboard Layer 3 (Foreground)
//Storyboard Sound Samples

[TimingPoints]
19201,342.857142857143,4,2,1,100,1,0
21943,-133.333333333333,4,2,1,50,0,0
43886,-133.333333333333,4,2,1,75,0,0
65829,-133.333333333333,4,2,1,50,0,0
76801,-133.333333333333,4,2,1,25,0,0
79543,-133.333333333333,4,2,1,35,0,0
82286,-133.333333333333,4,2,1,50,0,0
83658,-133.333333333333,4,2,1,65,0,0
84343,-133.333333333333,4,2,1,75,0,0
85029,-133.333333333333,4,1,1,85,0,0
87772,-133.333333333333,4,1,1,100,0,1
109715,-133.333333333333,4,1,1,100,0,0
130286,-133.333333333333,4,2,1,75,0,0
131658,-133.333333333333,4,2,1,5,0,0

[Colours]
Combo1 : 176,176,255
Combo2 : 167,167,167
Combo3 : 255,111,111
Combo4 : 255,255,145

[HitObjects]
289,277,21943,6,0,L|135:281,1,150.000005722046,2|2,0:1|0:1,0:1:0:0:
75,218,22972,1,0,0:1:0:0:
129,145,23315,2,0,P|132:76|131:61,2,75.000002861023,2|0|2,0:1|0:1|0:1,0:1:0:0:
186,315,24686,6,0,P|273:339|331:315,1,150.000005722046,2|2,0:1|0:1,0:1:0:0:
394,260,25715,1,0,0:1:0:0:
476,295,26058,2,0,L|481:385,2,75.000002861023,2|0|2,0:1|0:1|0:1,0:1:0:0:
471,205,27086,1,0,0:1:0:0:
388,168,27429,6,0,B|320:146|319:188|233:160,1,150.000005722046,2|2,0:1|0:1,0:1:0:0:
159,122,28458,1,0,0:1:0:0:
92,183,28801,2,0,L|101:340,2,150.000005722046,2|2|2,0:1|0:1|0:1,0:1:0:0:
228,65,30858,5,2,0:1:0:0:
304,111,31201,2,0,P|344:118|391:109,2,75.000002861023,0|2|0,0:1|0:1|0:1,0:1:0:0:
228,65,32229,2,0,P|179:60|145:67,1,75.000002861023,2|0,0:1|0:1,0:1:0:0:
84,121,32915,6,0,P|85:256|87:285,1,150.000005722046,2|2,0:1|0:1,0:1:0:0:
159,323,33943,1,0,0:1:0:0:
235,275,34286,2,0,P|276:267|321:279,2,75.000002861023,2|0|2,0:1|0:1|0:1,0:1:0:0:
72,352,35658,6,0,P|72:275|73:202,1,150.000005722046,2|2,0:1|0:1,0:1:0:0:
142,143,36686,1,0,0:1:0:0:
215,194,37029,2,0,P|275:199|297:193,1,75.000002861023,2|0,0:1|0:1,0:1:0:0:
367,151,37715,2,0,P|427:146|449:152,1,75.000002861023,2|0,0:1|0:1,0:1:0:0:
504,213,38401,6,0,P|502:296|502:369,2,150.000005722046,2|2|2,0:1|0:1|0:1,0:1:0:0:
440,149,40115,1,0,0:1:0:0:
363,196,40458,2,0,L|199:203,1,150.000005722046,2|2,0:1|0:1,0:1:0:0:
86,74,41829,5,2,0:1:0:0:
15,129,42172,2,0,L|13:204,2,75.000002861023,0|2|0,0:1|0:1|0:1,0:1:0:0:
86,74,43201,1,2,0:1:0:0:
210,203,43886,6,0,P|312:214|347:187,1,150.000005722046,4|2,0:1|0:0,0:0:0:0:
424,78,45086,1,2,0:0:0:0:
481,147,45429,2,0,L|476:268,1,112.500004291534,2|2,0:0|0:0,0:0:0:0:
472,349,46286,1,2,0:0:0:0:
382,360,46629,6,0,B|339:362|339:362|302:345|302:345|235:349,1,150.000005722046,2|2,0:0|0:0,0:0:0:0:
113,293,47829,1,2,0:0:0:0:
43,350,48172,2,0,P|23:293|43:236,1,112.500004291534,2|2,0:0|0:0,0:0:0:0:
89,172,49029,1,2,0:0:0:0:
59,86,49372,6,0,L|217:77,1,150.000005722046,2|2,0:0|0:0,0:0:0:0:
332,23,50572,1,2,0:0:0:0:
398,83,50915,2,0,P|411:129|384:197,1,112.500004291534,2|2,0:0|0:0,0:0:0:0:
327,252,51772,1,2,0:0:0:0:
237,248,52115,6,0,L|88:241,1,150.000005722046,2|2,0:0|0:0,0:0:0:0:
35,115,53315,1,2,0:0:0:0:
101,54,53658,2,0,L|225:58,1,112.500004291534,2|2,0:0|0:0,0:0:0:0:
276,121,54515,1,2,0:0:0:0:
342,60,54858,6,0,P|365:137|325:197,1,150.000005722046,6|2,0:0|0:0,0:0:0:0:
200,159,56058,1,2,0:0:0:0:
133,219,56401,2,0,P|110:208|24:223,1,112.500004291534,2|2,0:0|0:0,0:0:0:0:
5,308,57258,1,2,0:0:0:0:
73,366,57601,6,0,L|224:361,1,150.000005722046,2|2,0:0|0:0,0:0:0:0:
331,279,58801,1,2,0:0:0:0:
401,335,59143,2,0,P|419:260|398:220,1,112.500004291534,2|2,0:0|0:0,0:0:0:0:
331,179,60001,1,2,0:0:0:0:
243,198,60343,6,0,B|238:92|238:92|270:40,1,150.000005722046,2|2,0:0|0:0,0:0:0:0:
395,31,61543,1,2,0:0:0:0:
457,95,61886,2,0,P|470:154|440:214,1,112.500004291534,2|2,0:0|0:0,0:0:0:0:
390,267,62743,1,2,0:0:0:0:
321,326,63086,6,0,L|165:335,1,150.000005722046,2|2,0:0|0:0,0:0:0:0:
99,220,64286,1,2,0:0:0:0:
8,221,64629,2,0,P|25:162|81:129,1,112.500004291534,2|2,0:0|0:0,0:0:0:0:
143,88,65486,1,2,0:0:0:0:
226,125,65829,6,0,B|308:105|310:146|383:127,1,150.000005722046,4|0,0:1|0:0,0:0:0:0:
448,78,66858,1,2,0:0:0:0:
510,142,67201,2,0,L|508:222,2,75.000002861023,2|2|2,0:0|0:0|0:0,0:0:0:0:
448,78,68229,1,2,0:0:0:0:
371,125,68572,6,0,P|265:136|221:114,1,150.000005722046,2|0,0:0|0:0,0:0:0:0:
99,245,69943,2,0,L|17:242,2,75.000002861023,2|2|2,0:0|0:0|0:0,0:0:0:0:
165,306,70972,1,2,0:0:0:0:
226,371,71315,6,0,P|253:303|217:236,1,150.000005722046,2|0,0:0|0:0,0:0:0:0:
101,103,72686,2,0,L|99:28,2,75.000002861023,2|2|2,0:0|0:0|0:0,0:0:0:0:
165,166,73715,1,2,0:0:0:0:
243,122,74058,6,0,B|277:121|277:121|309:125|309:125|337:110|337:110|359:116|359:116|394:115,2,150.000005722046,2|2|2,0:0|0:0|0:0,0:0:0:0:
218,300,76115,2,0,P|227:356|219:381,1,75.000002861023,2|2,0:0|0:0,0:0:0:0:
138,340,76801,6,0,L|50:337,2,75.000002861023,2|2|2,0:1|0:1|0:1,0:0:0:0:
218,300,77829,1,2,0:1:0:0:
165,226,78172,2,0,P|156:182|164:142,1,75.000002861023,2|2,0:1|0:1,0:0:0:0:
216,81,78858,2,0,P|259:72|299:80,1,75.000002861023,2|2,0:1|0:1,0:0:0:0:
345,146,79543,6,0,L|510:138,2,150.000005722046,2|2|2,0:1|0:1|0:1,0:0:0:0:
258,120,81258,1,2,0:1:0:0:
192,181,81601,2,0,P|149:188|111:182,1,75.000002861023,2|2,0:1|0:1,0:0:0:0:
49,125,82286,6,0,P|42:82|48:44,2,75.000002861023,2|2|2,0:1|0:1|0:1,0:0:0:0:
118,183,83315,1,2,0:1:0:0:
82,265,83658,2,0,P|124:273|161:264,1,75.000002861023,2|2,0:1|0:1,0:0:0:0:
238,232,84343,1,2,0:1:0:0:
314,278,84686,1,2,0:1:0:0:
381,217,85029,6,0,B|405:148|360:150|389:72|389:72|314:95|316:55|238:73,1,300.000011444092,2|12,0:1|0:3,0:0:0:0:
240,73,87772,6,0,L|160:71,2,75.000002861023,6|8|0,0:1|0:0|0:0,0:0:0:0:
302,135,88801,1,8,0:0:0:0:
243,203,89143,2,0,P|234:257|242:290,1,75.000002861023,2|8,0:0|0:0,0:0:0:0:
290,349,89829,2,0,P|344:358|377:350,1,75.000002861023,0|8,0:0|0:1,0:0:0:0:
430,294,90515,6,0,L|511:297,2,75.000002861023,2|8|0,0:0|0:0|0:0,0:0:0:0:
373,223,91543,1,8,0:0:0:0:
297,271,91886,2,0,P|237:273|215:267,1,75.000002861023,2|8,0:0|0:0,0:0:0:0:
153,212,92572,2,0,P|147:175|151:137,1,75.000002861023,0|8,0:0|0:1,0:0:0:0:
216,75,93258,6,0,B|275:74|275:74|307:94|307:94|369:93,1,150.000005722046,2|0,0:0|0:0,0:0:0:0:
450,89,94286,1,8,0:0:0:0:
491,168,94629,2,0,L|486:244,1,75.000002861023,2|8,0:0|0:0,0:0:0:0:
443,322,95315,2,0,P|397:330|359:321,1,75.000002861023,0|8,0:0|0:1,0:0:0:0:
299,267,96001,6,0,L|144:270,1,150.000005722046,2|0,0:0|0:0,0:0:0:0:
74,319,97029,1,8,0:0:0:0:
2,264,97372,2,0,P|-6:217|2:184,1,75.000002861023,2|8,0:0|0:0,0:0:0:0:
54,119,98058,2,0,P|101:111|134:119,1,75.000002861023,0|8,0:0|0:0,0:0:0:0:
189,181,98743,6,0,L|185:272,2,75.000002861023,2|8|0,0:0|0:0|0:0,0:0:0:0:
263,129,99772,1,8,0:0:0:0:
318,199,100115,2,0,P|370:206|407:197,1,75.000002861023,2|8,0:0|0:0,0:0:0:0:
455,138,100801,2,0,P|459:100|451:64,1,75.000002861023,0|8,0:0|0:1,0:0:0:0:
380,10,101486,6,0,L|288:6,2,75.000002861023,2|8|0,0:0|0:0|0:0,0:0:0:0:
451,64,102515,1,8,0:0:0:0:
395,135,102858,2,0,L|392:213,1,75.000002861023,2|8,0:0|0:0,0:0:0:0:
335,280,103543,2,0,P|289:287|248:275,1,75.000002861023,0|8,0:0|0:1,0:0:0:0:
209,207,104229,6,0,L|50:213,1,150.000005722046,2|0,0:0|0:0,0:0:0:0:
9,137,105258,1,8,0:0:0:0:
60,63,105601,2,0,P|96:55|133:60,1,75.000002861023,2|8,0:0|0:0,0:0:0:0:
216,94,106286,2,0,P|268:97|299:87,1,75.000002861023,0|8,0:0|0:1,0:0:0:0:
378,76,106972,6,0,L|376:166,1,75.000002861023,8|0,0:0|0:0,0:0:0:0:
332,230,107658,1,2,0:0:0:0:
242,223,108001,1,8,0:0:0:0:
186,293,108343,2,0,L|103:294,1,75.000002861023,8|0,0:0|0:0,0:0:0:0:
29,254,109029,2,0,P|21:203|37:169,1,75.000002861023,2|8,0:0|0:0,0:0:0:0:
104,130,109715,6,0,L|102:54,2,75.000002861023,2|8|0,0:0|0:0|0:0,0:0:0:0:
162,198,110743,1,8,0:0:0:0:
236,148,111086,2,0,P|317:119|383:148,1,150.000005722046,2|0,0:0|0:0,0:0:0:0:
431,209,112115,1,8,0:0:0:0:
464,292,112458,6,0,L|469:378,2,75.000002861023,0|8|0,0:0|0:0|0:0,0:0:0:0:
431,209,113486,1,8,0:0:0:0:
348,244,113829,2,0,P|291:251|264:244,1,75.000002861023,2|8,0:0|0:0,0:0:0:0:
192,208,114515,2,0,P|135:201|108:208,1,75.000002861023,0|8,0:0|0:0,0:0:0:0:
35,240,115201,6,0,L|40:328,2,75.000002861023,2|8|0,0:0|0:0|0:0,0:0:0:0:
31,150,116229,1,8,0:0:0:0:
92,84,116572,2,0,P|162:61|244:87,1,150.000005722046,2|0,0:0|0:0,0:0:0:0:
306,133,117601,1,8,0:0:0:0:
386,93,117943,6,0,L|392:7,2,75.000002861023,2|8|0,0:0|0:0|0:0,0:0:0:0:
446,159,118972,1,8,0:0:0:0:
401,237,119315,2,0,P|350:244|315:236,1,75.000002861023,2|8,0:0|0:0,0:0:0:0:
243,207,120001,2,0,P|192:200|157:208,1,75.000002861023,0|8,0:0|0:0,0:0:0:0:
83,232,120686,6,0,L|79:142,2,75.000002861023,2|8|0,0:0|0:0|0:0,0:0:0:0:
135,305,121715,1,8,0:0:0:0:
220,276,122058,2,0,B|278:273|278:273|306:288|306:288|381:284,1,150.000005722046,2|0,0:0|0:0,0:0:0:0:
423,215,123086,1,8,0:0:0:0:
365,145,123429,6,0,P|359:94|371:63,2,75.000002861023,0|8|0,0:0|0:0|0:0,0:0:0:0:
423,215,124458,1,8,0:0:0:0:
365,284,124801,2,0,L|280:281,1,75.000002861023,2|8,0:0|0:0,0:0:0:0:
209,240,125486,2,0,L|124:243,1,75.000002861023,0|8,0:0|0:0,0:0:0:0:
53,282,126172,6,0,L|51:368,2,75.000002861023,2|8|2,0:0|0:0|0:1,0:0:0:0:
8,203,127201,1,8,0:0:0:0:
64,133,127543,2,0,B|88:116|88:116|184:114|184:114|211:137,1,150.000005722046,2|2,0:0|0:1,0:0:0:0:
278,178,128572,1,8,0:0:0:0:
363,148,128915,6,0,P|368:201|357:226,2,75.000002861023,2|8|2,0:0|0:0|0:0,0:0:0:0:
297,86,129943,1,8,0:0:0:0:
256,192,130286,12,4,131658,0:1:0:0:
