osu file format v14

[General]
AudioFilename: audio.mp3
AudioLeadIn: 0
PreviewTime: 87772
Countdown: 0
SampleSet: Soft
StackLeniency: 0.4
Mode: 0
LetterboxInBreaks: 0
EpilepsyWarning: 1
WidescreenStoryboard: 1

[Editor]
Bookmarks: 21943,33017,43988,54858,65829,76903,87874,98845,109817,120788,131760
DistanceSpacing: 1.1
BeatDivisor: 4
GridSize: 8
TimelineZoom: 1

[Metadata]
Title:Why We Lose (ft. Coleman Trapp)
TitleUnicode:Why We Lose (ft. Coleman Trapp)
Artist:Cartoon
ArtistUnicode:Cartoon
Creator:Plaudible
Version:Hobbes2's Light Insane
Source:
Tags:ncs nocopyrightsounds liquid dnb drum and bass cut short ver yamicchi hobbes2 hokichi a_r_m_i_n armin
BeatmapID:1291655
BeatmapSetID:611956

[Difficulty]
HPDrainRate:5.3
CircleSize:3.6
OverallDifficulty:7.3
ApproachRate:9
SliderMultiplier:1.6
SliderTickRate:1

[Events]
//Background and Video events
0,0,"background-.jpg",0,0
//Break Periods
//Storyboard Layer 0 (Background)
//Storyboard Layer 1 (Fail)
//Storyboard Layer 2 (Pass)
//Storyboard Layer 3 (Foreground)
//Storyboard Sound Samples

[TimingPoints]
19201,342.857142857143,4,2,1,100,1,0
21943,-133.333333333333,4,2,1,50,0,0
43029,-133.333333333333,4,2,1,5,0,0
43201,-133.333333333333,4,2,1,75,0,0
43886,-117.647058823529,4,2,1,75,0,0
45686,-117.647058823529,4,2,1,5,0,0
45772,-117.647058823529,4,2,1,75,0,0
48429,-117.647058823529,4,2,1,5,0,0
48515,-117.647058823529,4,2,1,75,0,0
51172,-117.647058823529,4,2,1,5,0,0
51258,-117.647058823529,4,2,1,75,0,0
53915,-117.647058823529,4,2,1,5,0,0
54001,-117.647058823529,4,2,1,75,0,0
56658,-117.647058823529,4,2,1,5,0,0
56744,-117.647058823529,4,2,1,75,0,0
59401,-117.647058823529,4,2,1,5,0,0
59487,-117.647058823529,4,2,1,75,0,0
62143,-117.647058823529,4,2,1,5,0,0
62229,-117.647058823529,4,2,1,75,0,0
64886,-117.647058823529,4,2,1,5,0,0
64972,-117.647058823529,4,2,1,75,0,0
65829,-133.333333333333,4,2,1,75,0,0
76801,-117.647058823529,4,2,1,25,0,0
79543,-117.647058823529,4,2,1,35,0,0
82286,-111.111111111111,4,2,1,50,0,0
83658,-111.111111111111,4,2,1,65,0,0
84343,-111.111111111111,4,2,1,75,0,0
85029,-111.111111111111,4,2,1,85,0,0
85372,-111.111111111111,4,2,1,85,0,0
87772,-90.9090909090909,4,1,1,100,0,1
90172,-90.9090909090909,4,2,1,100,0,1
90515,-90.9090909090909,4,1,1,100,0,1
92915,-90.9090909090909,4,2,1,100,0,1
93258,-90.9090909090909,4,1,1,100,0,1
95658,-90.9090909090909,4,2,1,100,0,1
96001,-90.9090909090909,4,1,1,100,0,1
101143,-90.9090909090909,4,2,1,100,0,1
101486,-90.9090909090909,4,1,1,100,0,1
103886,-90.9090909090909,4,2,1,100,0,1
104229,-90.9090909090909,4,1,1,100,0,1
106629,-90.9090909090909,4,2,1,100,0,1
106972,-90.9090909090909,4,1,1,100,0,1
109715,-100,4,1,1,100,0,0
110229,-100,4,2,1,100,0,0
110743,-100,4,1,1,100,0,0
111601,-100,4,2,1,100,0,0
112115,-100,4,1,1,100,0,0
112972,-100,4,2,1,100,0,0
113486,-100,4,1,1,100,0,0
114343,-100,4,2,1,100,0,0
114857,-100,4,1,1,100,0,0
115715,-100,4,2,1,100,0,0
116229,-100,4,1,1,100,0,0
117086,-100,4,2,1,100,0,0
117600,-100,4,1,1,100,0,0
118458,-100,4,2,1,100,0,0
118972,-100,4,1,1,100,0,0
121201,-100,4,2,1,100,0,0
121715,-100,4,1,1,100,0,0
122572,-100,4,2,1,100,0,0
123086,-100,4,1,1,100,0,0
123943,-100,4,2,1,100,0,0
124457,-100,4,1,1,100,0,0
125315,-100,4,2,1,100,0,0
125829,-100,4,1,1,100,0,0
126429,-100,4,1,1,5,0,0
126515,-100,4,1,1,100,0,0
126686,-100,4,1,1,100,0,0
127200,-100,4,1,1,100,0,0
127801,-100,4,1,1,5,0,0
127886,-100,4,1,1,100,0,0
128058,-100,4,1,1,100,0,0
128572,-100,4,1,1,100,0,0
130115,-100,4,2,1,5,0,0
130286,-117.647058823529,4,2,1,85,0,0
130629,-117.647058823529,4,2,1,70,0,0
130972,-117.647058823529,4,2,1,55,0,0
131315,-117.647058823529,4,2,1,35,0,0
131658,-100,4,2,1,5,0,0

[Colours]
Combo1 : 176,176,255
Combo2 : 167,167,167
Combo3 : 255,111,111
Combo4 : 255,255,145

[HitObjects]
468,236,21943,6,0,B|437:186|437:186|452:65,1,180.000006866455,2|0,0:1|0:0,0:0:0:0:
357,111,22629,2,0,B|364:51,1,60.0000022888184,2|0,0:1|0:0,0:0:0:0:
269,97,22972,2,0,B|276:37,1,60.0000022888184,0|0,0:1|0:1,0:0:0:0:
173,140,23315,5,2,0:1:0:0:
173,140,23486,2,0,L|188:21,1,120.000004577637,2|0,0:2|0:1,0:0:0:0:
86,156,24001,2,0,P|116:207|171:228,1,120.000004577637,2|0,0:1|0:1,0:0:0:0:
340,89,24686,6,0,B|280:96|280:96|232:132|232:132|172:139,1,180.000006866455,2|0,0:1|0:0,0:0:0:0:
173,139,25372,1,2,0:1:0:0:
414,170,25715,6,0,B|354:177,1,60.0000022888184,0|0,0:1|0:1,0:0:0:0:
400,82,26058,2,0,B|340:89,1,60.0000022888184,2|0,0:1|0:1,0:0:0:0:
159,51,26401,2,0,B|219:44,1,60.0000022888184,0|0,0:0|0:1,0:0:0:0:
173,139,26744,2,0,B|233:132,1,60.0000022888184,2|0,0:1|0:1,0:0:0:0:
187,227,27086,1,0,0:1:0:0:
187,227,27429,6,0,B|218:177|218:177|203:56,1,180.000006866455,2|0,0:1|0:0,0:0:0:0:
298,102,28115,2,0,B|291:42,1,60.0000022888184,2|0,0:1|0:0,0:0:0:0:
122,130,28458,2,0,B|115:70,1,60.0000022888184,0|0,0:1|0:1,0:0:0:0:
217,175,28801,5,2,0:1:0:0:
217,175,28972,2,0,B|203:56,1,120.000004577637,0|0,0:1|0:1,0:0:0:0:
131,235,29486,1,2,0:1:0:0:
313,221,29829,1,0,0:1:0:0:
463,117,30172,6,0,L|477:296,1,180.000006866455,2|0,0:1|0:0,0:0:0:0:
477,296,30858,1,2,0:1:0:0:
375,103,31201,2,0,B|382:43,1,60.0000022888184,0|0,0:1|0:1,0:0:0:0:
463,117,31543,6,0,P|409:185|323:176,1,180.000006866455,2|0,0:1|0:1,0:0:0:0:
361,46,32229,2,0,P|373:73|375:103,1,60.0000022888184,2|0,0:1|0:1,0:0:0:0:
242,133,32572,2,0,P|259:109|285:93,1,60.0000022888184,0|0,0:1|0:1,0:0:0:0:
147,178,32915,6,0,B|169:-14,1,180.000006866455,2|0,0:1|0:0,0:0:0:0:
316,20,33601,2,0,B|256:13,1,60.0000022888184,2|0,0:1|0:0,0:0:0:0:
302,108,33943,2,0,B|242:101,1,60.0000022888184,0|0,0:1|0:1,0:0:0:0:
318,194,34286,6,0,P|368:165|389:110,2,120.000004577637,2|0|2,0:1|0:0|0:1,0:0:0:0:
316,20,35315,1,0,0:1:0:0:
447,118,35658,6,0,P|361:120|318:195,1,180.000006866455,2|0,0:1|0:0,0:0:0:0:
318,194,36343,1,2,0:1:0:0:
87,70,36686,6,0,L|48:138,1,60.0000022888184,0|0,0:1|0:1,0:0:0:0:
175,84,37029,2,0,L|227:54,1,60.0000022888184,2|0,0:1|0:1,0:0:0:0:
356,110,37372,2,0,L|296:110,1,60.0000022888184,0|0,0:0|0:1,0:0:0:0:
386,192,37715,2,0,L|439:222,1,60.0000022888184,2|0,0:1|0:1,0:0:0:0:
356,110,38059,1,0,0:1:0:0:
356,110,38401,6,0,B|304:80|304:80|184:99,1,180.000006866455,2|0,0:1|0:0,0:0:0:0:
257,179,39086,2,0,L|197:188,1,60.0000022888184,2|0,0:1|0:0,0:0:0:0:
270,267,39429,2,0,L|210:274,1,60.0000022888184,0|0,0:1|0:1,0:0:0:0:
35,206,39772,6,0,L|96:198,1,60.0000022888184,2|0,0:1|0:1,0:0:0:0:
47,293,40115,2,0,L|108:285,1,60.0000022888184,0|0,0:0|0:1,0:0:0:0:
21,117,40458,2,0,B|140:99,1,120.000004577637,2|0,0:1|0:1,0:0:0:0:
177,267,41143,6,0,P|90:274|35:207,1,180.000006866455,2|0,0:0|0:0,0:0:0:0:
35,207,41829,1,0,0:0:0:0:
245,212,42172,2,0,L|280:289,1,60.0000022888184,0|0,0:0|0:0,0:0:0:0:
296,141,42515,6,0,P|211:134|159:203,1,180.000006866455,0|0,0:0|0:1,0:0:0:0:
159,203,43201,1,2,0:1:0:0:
307,349,43372,1,2,0:1:0:0:
307,349,43715,1,2,0:1:0:0:
296,141,43886,6,0,L|288:5|288:5|325:61,1,204.000003890991,4|0,0:1|0:0,0:0:0:0:
200,147,44572,2,0,L|191:-4,1,136.000002593994,2|0,0:0|0:0,0:0:0:0:
104,153,45086,2,0,L|100:85,1,68.0000012969971,2|0,0:0|0:0,0:0:0:0:
8,159,45429,2,0,L|4:91,1,68.0000012969971,2|0,0:0|0:0,0:0:0:0:
104,153,45772,1,2,0:0:0:0:
15,294,45943,1,2,0:0:0:0:
208,282,46286,1,2,0:0:0:0:
208,282,46629,6,0,B|277:278|277:278|334:239|334:239|399:236,1,204.000003890991,2|0,0:0|0:0,0:0:0:0:
441,150,47315,2,0,P|487:197|490:264,1,136.000002593994,2|0,0:0|0:0,0:0:0:0:
345,131,47829,2,0,P|357:99|380:74,1,68.0000012969971,2|0,0:0|0:0,0:0:0:0:
399,236,48172,2,0,P|387:267|364:292,1,68.0000012969971,2|0,0:0|0:0,0:0:0:0:
303,216,48515,1,2,0:0:0:0:
441,150,48686,1,2,0:0:0:0:
249,111,49029,1,2,0:0:0:0:
248,111,49372,6,0,P|186:187|205:285,1,204.000003890991,2|0,0:0|0:0,0:0:0:0:
340,296,50058,2,0,L|204:284,1,136.000002593994,2|0,0:0|0:0,0:0:0:0:
117,196,50572,2,0,L|185:191,1,68.0000012969971,2|0,0:0|0:0,0:0:0:0:
272,102,50915,2,0,L|204:96,1,68.0000012969971,2|0,0:0|0:0,0:0:0:0:
117,7,51258,1,2,0:0:0:0:
117,197,51429,1,2,0:0:0:0:
117,7,51772,1,2,0:0:0:0:
307,197,52115,5,2,0:0:0:0:
307,197,52801,1,2,0:0:0:0:
307,197,53315,1,2,0:0:0:0:
307,197,53658,1,2,0:0:0:0:
387,47,54001,1,2,0:0:0:0:
307,197,54172,1,2,0:0:0:0:
218,53,54515,1,2,0:0:0:0:
218,53,54858,6,0,B|161:90|161:90|147:224,1,204.000003890991,6|0,0:0|0:0,0:0:0:0:
283,238,55543,2,0,L|147:224,1,136.000002593994,2|0,0:0|0:0,0:0:0:0:
141,292,56058,2,0,L|147:224,1,68.0000012969971,2|0,0:0|0:0,0:0:0:0:
80,218,56401,2,0,L|147:224,1,68.0000012969971,2|0,0:0|0:0,0:0:0:0:
283,238,56743,1,2,0:0:0:0:
218,53,56915,1,2,0:0:0:0:
283,238,57258,1,2,0:0:0:0:
283,238,57601,6,0,P|364:184|449:231,1,204.000003890991,2|0,0:0|0:0,0:0:0:0:
368,279,58286,2,0,L|360:119,1,136.000002593994,2|0,0:0|0:0,0:0:0:0:
268,120,58801,2,0,L|264:187,1,68.0000012969971,2|0,0:0|0:0,0:0:0:0:
168,279,59143,2,0,L|164:211,1,68.0000012969971,2|0,0:0|0:0,0:0:0:0:
258,325,59486,1,2,0:0:0:0:
81,333,59658,1,2,0:0:0:0:
160,109,60001,1,2,0:0:0:0:
160,109,60343,6,0,B|215:104|246:62|246:62|269:108|333:118,1,204.000003890991,2|0,0:0|0:0,0:0:0:0:
240,198,61029,2,0,L|246:62,1,136.000002593994,2|0,0:0|0:0,0:0:0:0:
286,288,61543,2,0,L|322:230,1,68.0000012969971,2|0,0:0|0:0,0:0:0:0:
186,283,61886,2,0,L|154:222,1,68.0000012969971,2|0,0:0|0:0,0:0:0:0:
240,198,62229,1,2,0:0:0:0:
232,373,62401,1,2,0:0:0:0:
240,198,62743,1,2,0:0:0:0:
378,145,63086,5,2,0:0:0:0:
378,145,63772,1,2,0:0:0:0:
378,145,64286,1,2,0:0:0:0:
378,145,64629,1,2,0:0:0:0:
238,61,64972,1,2,0:0:0:0:
378,145,65143,1,2,0:0:0:0:
236,225,65486,1,2,0:0:0:0:
236,225,65829,6,0,B|157:316|157:316|87:218,1,240.000009155274,2|2,0:0|0:0,0:0:0:0:
309,52,66858,5,2,0:0:0:0:
339,130,67201,1,0,0:0:0:0:
369,208,67543,1,2,0:0:0:0:
399,286,67886,1,2,0:0:0:0:
429,364,68229,1,2,0:0:0:0:
202,259,68572,6,0,B|160:261|146:252|133:231|109:199|129:168|157:129|207:139|233:170|233:170|195:130|189:95|213:40,1,360.000013732911,2|0,0:0|0:0,0:0:0:0:
350,297,69943,5,2,0:0:0:0:
409,237,70286,1,2,0:0:0:0:
350,178,70629,1,2,0:0:0:0:
290,237,70972,1,2,0:0:0:0:
433,335,71315,6,0,B|317:295|198:351|198:351|226:291|195:238,1,360.000013732911,2|0,0:0|0:0,0:0:0:0:
32,136,72686,5,2,0:0:0:0:
99,85,73029,1,2,0:0:0:0:
167,133,73372,1,2,0:0:0:0:
234,82,73715,1,2,0:0:0:0:
101,314,74058,6,0,B|69:257|69:257|99:85,3,240.000009155274,2|2|2|2,0:0|0:0|0:0|0:0,0:0:0:0:
172,43,76458,1,2,0:0:0:0:
101,314,76801,6,0,B|119:422,5,68.0000012969971,2|2|2|2|2|2,0:1|0:1|0:1|0:1|0:1|0:1,0:0:0:0:
193,331,77829,6,0,B|263:415,1,68.0000012969971,2|2,0:1|0:1,0:0:0:0:
281,299,78172,2,0,B|384:336,1,68.0000012969971,2|2,0:1|0:1,0:0:0:0:
341,227,78515,2,0,B|449:208,1,68.0000012969971,2|2,0:1|0:1,0:0:0:0:
356,134,78858,2,0,B|440:63,1,68.0000012969971,2|2,0:1|0:1,0:0:0:0:
322,45,79201,1,2,0:1:0:0:
322,45,79372,1,0,0:0:0:0:
322,45,79543,6,0,P|277:49|243:46,7,68.0000012969971,2|2|2|2|2|2|2|2,0:1|0:1|0:1|0:1|0:1|0:1|0:1|0:1,0:0:0:0:
157,44,80915,6,0,P|165:82|187:115,1,68.0000012969971,2|2,0:1|0:1,0:0:0:0:
94,152,81258,2,0,P|118:180|154:198,1,68.0000012969971,2|2,0:1|0:1,0:0:0:0:
93,277,81601,2,0,P|127:289|167:286,1,68.0000012969971,2|2,0:1|0:1,0:0:0:0:
154,384,81943,2,0,P|190:377|223:355,1,68.0000012969971,2|2,0:1|0:1,0:0:0:0:
250,274,82286,5,2,0:1:0:0:
250,274,82458,1,2,0:1:0:0:
140,148,82629,2,0,L|202:185,1,71.9999978027344,2|2,0:1|0:1,0:0:0:0:
303,186,82972,1,2,0:1:0:0:
303,187,83144,1,2,0:1:0:0:
413,312,83315,2,0,L|351:275,1,71.9999978027344,2|2,0:1|0:1,0:0:0:0:
356,102,83658,5,2,0:1:0:0:
404,190,83829,1,2,0:1:0:0:
218,135,84001,1,2,0:1:0:0:
303,187,84172,1,2,0:1:0:0:
114,232,84343,1,2,0:1:0:0:
214,235,84514,1,0,0:0:0:0:
73,369,84685,1,0,0:0:0:0:
161,321,84858,1,2,0:1:0:0:
26,280,85029,6,0,L|-3:227,3,35.9999989013672,2|2|2|2,0:1|0:1|0:1|0:1,0:0:0:0:
20,199,85372,2,0,L|37:167,3,35.9999989013672,2|2|2|2,0:1|0:1|0:1|0:1,0:0:0:0:
26,118,85715,2,0,L|8:86,3,35.9999989013672,2|2|2|2,0:1|0:1|0:1|0:1,0:0:0:0:
98,61,86058,1,2,0:1:0:0:
138,47,86143,1,2,0:1:0:0:
181,44,86229,1,2,0:1:0:0:
224,52,86315,1,2,0:1:0:0:
262,71,86400,5,8,0:3:0:0:
287,41,87772,6,0,P|203:59|159:133,1,176.000005371094,6|8,0:1|0:0,0:0:0:0:
313,213,88286,1,0,0:0:0:0:
313,213,88458,2,0,L|261:141,2,88.000002685547,0|2|8,0:0|0:0|0:0,0:0:0:0:
360,111,88972,6,0,P|382:73|388:30,1,88.000002685547,0|2,0:0|0:0,0:0:0:0:
203,226,89315,2,0,P|160:235|117:227,1,88.000002685547,0|8,0:0|0:0,0:0:0:0:
201,54,89658,1,0,0:0:0:0:
362,282,89829,2,0,P|404:292|447:284,1,88.000002685547,0|2,0:0|0:0,0:0:0:0:
405,0,90172,6,0,L|405:44,1,44.0000013427735,8|0,0:1|0:0,0:0:0:0:
405,145,90343,2,0,L|404:189,1,44.0000013427735,0|0,0:0|0:0,0:0:0:0:
404,292,90515,6,0,B|233:250,1,176.000005371094,2|8,0:0|0:0,0:0:0:0:
44,204,91029,1,0,0:0:0:0:
44,204,91201,2,0,B|130:224,2,88.000002685547,0|2|8,0:0|0:0|0:0,0:0:0:0:
259,146,91715,6,0,B|345:166,1,88.000002685547,0|2,0:0|0:0,0:0:0:0:
207,354,92058,2,0,B|292:375,1,88.000002685547,0|8,0:0|0:0,0:0:0:0:
404,292,92401,1,0,0:0:0:0:
130,224,92572,2,0,B|44:204,1,88.000002685547,0|2,0:0|0:0,0:0:0:0:
230,65,92915,2,0,P|252:102|259:145,1,88.000002685547,8|0,0:1|0:0,0:0:0:0:
111,310,93258,6,0,B|150:138,1,176.000005371094,2|8,0:0|0:0,0:0:0:0:
213,334,93772,1,0,0:0:0:0:
213,334,93943,2,0,B|238:224,2,88.000002685547,0|2|8,0:0|0:0|0:0,0:0:0:0:
315,358,94458,6,0,B|340:248,1,88.000002685547,0|2,0:0|0:0,0:0:0:0:
111,310,94801,2,0,B|136:200,1,88.000002685547,0|8,0:0|0:0,0:0:0:0:
213,334,95143,1,0,0:0:0:0:
29,201,95315,2,0,P|7:164|0:121,1,88.000002685547,0|2,0:0|0:0,0:0:0:0:
125,42,95658,2,0,P|147:79|154:123,1,88.000002685547,8|0,0:1|0:0,0:0:0:0:
213,334,96001,5,2,0:0:0:0:
213,334,96172,2,0,P|219:290|242:253,1,88.000002685547,0|8,0:0|0:0,0:0:0:0:
403,310,96515,1,0,0:0:0:0:
403,309,96686,2,0,P|362:325|319:325,2,88.000002685547,0|2|8,0:0|0:0|0:0,0:0:0:0:
288,157,97201,6,0,P|322:184|343:222,1,88.000002685547,0|2,0:0|0:0,0:0:0:0:
213,334,97543,2,0,P|219:290|242:253,1,88.000002685547,0|8,0:0|0:0,0:0:0:0:
447,213,97886,1,0,0:0:0:0:
188,164,98058,2,0,L|100:164,1,88.000002685547,0|2,0:0|0:0,0:0:0:0:
147,69,98401,5,8,0:0:0:0:
141,303,98572,2,0,L|141:259,1,44.0000013427735,2|0,0:0|0:0,0:0:0:0:
147,69,98743,6,0,P|232:71|287:136,1,176.000005371094,2|8,0:0|0:0,0:0:0:0:
99,163,99258,1,0,0:0:0:0:
99,163,99429,2,0,P|65:137|44:98,2,88.000002685547,0|2|8,0:0|0:0|0:0,0:0:0:0:
232,71,99943,6,0,P|189:61|147:69,1,88.000002685547,0|2,0:0|0:0,0:0:0:0:
49,267,100286,2,0,P|91:277|134:269,1,88.000002685547,0|8,0:0|0:0,0:0:0:0:
44,98,100629,1,0,0:0:0:0:
215,336,100801,2,0,L|309:335,1,88.000002685547,0|2,0:0|0:0,0:0:0:0:
336,96,101143,6,0,L|292:96,1,44.0000013427735,8|0,0:1|0:0,0:0:0:0:
190,96,101315,2,0,L|146:96,1,44.0000013427735
42,98,101486,6,0,P|78:175|160:198,1,176.000005371094,2|8,0:0|0:0,0:0:0:0:
148,10,102001,1,0,0:0:0:0:
148,10,102172,2,0,L|148:98,2,88.000002685547,0|2|8,0:0|0:0|0:0,0:0:0:0:
289,211,102686,6,0,P|272:170|243:138,1,88.000002685547,0|2,0:0|0:0,0:0:0:0:
5,208,103029,2,0,P|22:167|52:135,1,88.000002685547,0|8,0:0|0:0,0:0:0:0:
148,54,103372,1,0,0:0:0:0:
148,317,103543,2,0,L|148:229,1,88.000002685547,0|2,0:0|0:0,0:0:0:0:
335,138,103886,2,0,P|318:178|288:211,1,88.000002685547,8|0,0:1|0:0,0:0:0:0:
247,50,104229,6,0,L|423:50,1,176.000005371094,2|8,0:0|0:0,0:0:0:0:
247,155,104743,1,0,0:0:0:0:
247,155,104915,2,0,L|335:155,2,88.000002685547,0|2|8,0:0|0:0|0:0,0:0:0:0:
247,260,105429,6,0,L|335:260,1,88.000002685547,0|2,0:0|0:0,0:0:0:0:
247,50,105772,2,0,L|335:50,1,88.000002685547,0|8,0:0|0:0,0:0:0:0:
335,155,106115,1,0,0:0:0:0:
156,102,106286,2,0,P|143:61|147:17,1,88.000002685547,0|2,0:0|0:0,0:0:0:0:
237,175,106629,2,0,P|250:216|246:260,1,88.000002685547,8|0,0:1|0:0,0:0:0:0:
36,239,106972,6,0,L|122:255,1,88.000002685547,8|2,0:0|0:0,0:0:0:0:
149,358,107315,1,0,0:0:0:0:
28,231,107486,6,0,L|114:247,1,88.000002685547,8|2,0:0|0:0,0:0:0:0:
149,358,107829,1,0,0:0:0:0:
20,223,108001,6,0,L|106:239,1,88.000002685547,8|0,0:0|0:0,0:0:0:0:
219,120,108343,6,0,L|132:136,1,88.000002685547,8|2,0:0|0:0,0:0:0:0:
106,239,108686,1,0,0:0:0:0:
227,112,108858,6,0,L|140:128,1,88.000002685547,8|2,0:0|0:0,0:0:0:0:
106,239,109200,1,0,0:0:0:0:
235,104,109372,5,8,0:0:0:0:
106,239,109543,2,0,L|161:181,1,44.0000013427735,2|0,0:0|0:0,0:0:0:0:
243,96,109715,5,2,0:0:0:0:
343,161,109886,2,0,P|340:205|309:247,1,80,0|8,0:0|0:0,0:0:0:0:
259,178,110229,1,0,0:0:0:0:
325,78,110401,2,0,P|369:80|411:111,1,80,0|2,0:0|0:1,0:0:0:0:
339,318,110743,6,0,P|300:316|265:297,1,80,8|0,0:0|0:0,0:0:0:0:
127,261,111086,2,0,P|166:259|201:240,1,80,2|0,0:0|0:0,0:0:0:0:
369,291,111429,2,0,P|331:300|292:291,1,80,8|0,0:0|0:0,0:0:0:0:
113,225,111772,2,0,P|151:234|190:224,1,80,0|2,0:0|0:1,0:0:0:0:
391,259,112115,2,0,P|356:277|317:278,1,80,8|0,0:0|0:0,0:0:0:0:
50,287,112458,6,0,P|26:215|69:149,1,160,2|8,0:0|0:0,0:0:0:0:
253,162,112972,1,0,0:0:0:0:
253,162,113057,1,0,0:0:0:0:
252,161,113143,2,0,P|260:200|252:239,1,80,0|2,0:0|0:1,0:0:0:0:
168,63,113486,1,8,0:0:0:0:
168,63,113658,1,0,0:0:0:0:
352,76,113829,6,0,L|431:81,1,80,2|0,0:0|0:0,0:0:0:0:
333,232,114172,2,0,L|254:238,1,80,8|0,0:0|0:0,0:0:0:0:
318,55,114515,2,0,L|397:39,1,80,0|2,0:0|0:1,0:0:0:0:
302,271,114858,2,0,L|224:256,1,80,8|0,0:0|0:0,0:0:0:0:
424,194,115201,6,0,B|439:274|439:274|422:356,1,160,2|8,0:0|0:0,0:0:0:0:
297,127,115715,1,0,0:0:0:0:
297,127,115801,1,0,0:0:0:0:
297,127,115886,2,0,P|311:99|350:66,1,80,0|2,0:0|0:1,0:0:0:0:
424,194,116229,1,8,0:0:0:0:
424,194,116401,1,0,0:0:0:0:
302,271,116572,6,0,B|263:284|263:284|224:282,1,80,2|0,0:0|0:0,0:0:0:0:
60,314,116915,2,0,B|99:301|99:301|138:303,1,80,8|0,0:0|0:0,0:0:0:0:
320,255,117258,2,0,B|286:278|286:278|249:286,1,80,0|2,0:0|0:1,0:0:0:0:
41,328,117601,2,0,B|75:305|75:305|112:297,1,80,8|0,0:0|0:0,0:0:0:0:
268,128,117943,6,0,L|244:323,1,160,2|8,0:0|0:0,0:0:0:0:
356,126,118458,1,0,0:0:0:0:
356,126,118543,1,0,0:0:0:0:
356,126,118629,2,0,L|346:205,2,80,0|2|8,0:0|0:1|0:0,0:0:0:0:
268,128,119144,1,0,0:0:0:0:
444,124,119315,6,0,L|424:282,1,160,0|8,0:0|0:0,0:0:0:0:
346,205,119829,1,0,0:0:0:0:
366,45,120001,2,0,P|401:22|439:15,1,80,0|2,0:0|0:0,0:0:0:0:
417,174,120343,2,0,P|382:197|344:204,1,80,8|2,0:0|0:0,0:0:0:0:
231,64,120686,5,2,0:0:0:0:
131,129,120857,2,0,P|134:173|165:215,1,80,0|8,0:0|0:0,0:0:0:0:
215,146,121201,1,0,0:0:0:0:
149,46,121372,2,0,P|105:48|63:79,1,80,0|2,0:0|0:1,0:0:0:0:
281,246,121715,6,0,L|371:220,1,80,8|0,0:0|0:0,0:0:0:0:
470,165,122058,2,0,L|394:143,1,80,2|0,0:0|0:0,0:0:0:0:
272,275,122401,2,0,L|352:226,1,80,8|0,0:0|0:0,0:0:0:0:
479,193,122743,2,0,L|398:144,1,80,0|2,0:0|0:1,0:0:0:0:
270,305,123086,2,0,L|334:237,1,80,8|0,0:0|0:0,0:0:0:0:
319,3,123429,6,0,B|349:82|292:81|323:159,1,160,2|8,0:0|0:0,0:0:0:0:
480,114,123943,1,0,0:0:0:0:
480,114,124029,1,0,0:0:0:0:
480,114,124115,2,0,L|401:117,1,80,0|2,0:0|0:1,0:0:0:0:
239,43,124458,1,8,0:0:0:0:
239,43,124629,1,0,0:0:0:0:
322,158,124801,6,0,P|322:204|314:240,1,80,2|0,0:0|0:0,0:0:0:0:
244,357,125143,2,0,P|236:317|237:278,1,80,8|0,0:0|0:0,0:0:0:0:
310,142,125486,2,0,P|322:186|324:223,1,80,0|2,0:0|0:1,0:0:0:0:
234,340,125829,2,0,P|237:300|248:262,1,80,8|0,0:0|0:0,0:0:0:0:
147,62,126172,6,0,L|169:221,1,160,2|8,0:0|0:0,0:0:0:0:
59,73,126686,1,0,0:0:0:0:
59,73,126858,2,0,L|81:232,1,160,2|8,0:1|0:0,0:0:0:0:
236,52,127372,1,0,0:0:0:0:
236,52,127543,6,0,L|315:62,1,80,2|0,0:0|0:0,0:0:0:0:
159,150,127886,2,0,L|239:140,1,80,8|0,0:0|0:0,0:0:0:0:
272,51,128229,2,0,L|346:82,1,80,2|0,0:1|0:0,0:0:0:0:
152,176,128572,2,0,L|226:146,1,80,8|0,0:0|2:2,0:0:0:0:
78,206,128915,5,2,0:0:0:0:
112,287,129086,1,2,0:0:0:0:
118,95,129258,1,8,0:0:0:0:
152,176,129429,5,2,0:0:0:0:
186,257,129601,1,2,0:0:0:0:
220,338,129772,1,2,0:0:0:0:
78,206,129943,1,8,0:0:0:0:
256,192,130286,12,4,131658,0:1:0:0:
