osu file format v14

[General]
AudioFilename: audio.mp3
AudioLeadIn: 0
PreviewTime: 87772
Countdown: 0
SampleSet: Normal
StackLeniency: 0.7
Mode: 0
LetterboxInBreaks: 0
EpilepsyWarning: 1
WidescreenStoryboard: 1

[Editor]
Bookmarks: 22045,33017,43988,54960,65931,76903,87874,98845,109817,120788,131760
DistanceSpacing: 1.3
BeatDivisor: 4
GridSize: 32
TimelineZoom: 1

[Metadata]
Title:Why We Lose (ft. Coleman Trapp)
TitleUnicode:Why We Lose (ft. Coleman Trapp)
Artist:Cartoon
ArtistUnicode:Cartoon
Creator:Plaudible
Version:A r M ible's Hard
Source:
Tags:ncs nocopyrightsounds liquid dnb drum and bass cut short ver yamicchi hobbes2 hokichi a_r_m_i_n armin
BeatmapID:1291653
BeatmapSetID:611956

[Difficulty]
HPDrainRate:5
CircleSize:3.5
OverallDifficulty:6
ApproachRate:8
SliderMultiplier:1.4
SliderTickRate:1

[Events]
//Background and Video events
0,0,"background-.jpg",0,0
//Break Periods
//Storyboard Layer 0 (Background)
//Storyboard Layer 1 (Fail)
//Storyboard Layer 2 (Pass)
//Storyboard Layer 3 (Foreground)
//Storyboard Sound Samples

[TimingPoints]
19201,342.857142857143,4,2,0,100,1,0
21943,-133.333333333333,4,2,1,50,0,0
43886,-117.647058823529,4,2,1,75,0,0
76801,-117.647058823529,4,2,1,25,0,0
79543,-117.647058823529,4,2,1,35,0,0
82286,-117.647058823529,4,2,1,50,0,0
83658,-117.647058823529,4,2,1,65,0,0
84343,-117.647058823529,4,2,1,75,0,0
85372,-100,4,2,1,85,0,0
87772,-100,4,1,1,100,0,1
109715,-100,4,1,1,100,0,0
130115,-100,4,1,1,5,0,0
130286,-117.647058823529,4,2,1,35,0,0
131658,-100,4,1,1,5,0,0

[Colours]
Combo1 : 176,176,255
Combo2 : 167,167,167
Combo3 : 255,111,111
Combo4 : 255,255,145

[HitObjects]
379,275,21943,6,0,P|445:250|355:214,1,210.000008010865,2|2,0:1|0:1,0:1:0:0:
255,274,22972,1,0,0:1:0:0:
180,147,23315,2,0,L|186:34,2,105.000004005432,2|0|2,0:1|0:1|0:1,0:1:0:0:
89,249,24343,1,0,0:1:0:0:
176,353,24686,6,0,B|287:383|285:315|390:359,1,210.000008010865,2|2,0:1|0:1,0:1:0:0:
482,262,25715,2,0,L|485:151,2,105.000004005432,0|2|0,0:1|0:1|0:1,0:1:0:0:
381,355,26743,2,0,P|329:363|278:351,1,105.000004005432,2|0,0:1|0:1,0:1:0:0:
307,200,27429,6,0,P|381:226|295:264,1,210.000008010865,2|2,0:1|0:1,0:1:0:0:
175,237,28458,1,0,0:1:0:0:
104,353,28801,2,0,P|59:350|-8:361,2,105.000004005432,2|0|2,0:1|0:1|0:1,0:1:0:0:
240,361,29829,1,0,0:1:0:0:
336,264,30172,6,0,P|339:155|335:41,1,210.000008010865,2|2,0:1|0:1,0:1:0:0:
206,99,31201,1,0,0:1:0:0:
149,222,31543,2,0,B|257:265|256:185|375:235,1,210.000008010865,2|2,0:1|0:1,0:1:0:0:
437,335,32572,1,0,0:1:0:0:
500,217,32915,6,0,P|512:103|462:7,1,210.000008010865,2|2,0:1|0:1,0:1:0:0:
361,108,33943,1,0,0:1:0:0:
255,20,34286,2,0,P|198:8|145:26,1,105.000004005432,2|0,0:1|0:1,0:1:0:0:
75,132,34972,2,0,L|87:237,1,105.000004005432,2|0,0:1|0:1,0:1:0:0:
189,326,35658,6,0,P|226:257|348:270,1,210.000008010865,2|2,0:1|0:1,0:1:0:0:
445,357,36686,1,0,0:1:0:0:
505,234,37029,2,0,L|493:129,2,105.000004005432,2|0|2,0:1|0:1|0:1,0:1:0:0:
445,357,38058,1,0,0:1:0:0:
327,273,38401,6,0,P|276:333|370:321,1,210.000008010865,2|2,0:1|0:1,0:1:0:0:
420,212,39429,1,0,0:1:0:0:
316,123,39772,2,0,L|211:135,1,105.000004005432,2|0,0:1|0:1,0:1:0:0:
133,246,40458,2,0,P|83:180|102:52,2,210.000008010865,2|2|2,0:1|0:1|0:1,0:1:0:0:
258,191,42172,5,0,0:1:0:0:
392,199,42515,2,0,P|402:116|321:15,1,210.000008010865,2|2,0:1|0:1,0:1:0:0:
250,20,43372,2,0,L|192:30,1,52.5000020027161,2|0,0:1|0:1,0:1:0:0:
148,91,43715,1,2,0:1:0:0:
148,91,43886,6,0,L|145:290,1,178.500003404617,4|0,0:1|0:0,0:0:0:0:
200,343,44572,2,0,P|273:361|332:328,1,119.000002269745,2|0,0:0|0:0,0:0:0:0:
373,277,45086,2,0,P|318:256|261:271,2,119.000002269745,2|2|2,0:0|0:0|0:0,0:0:0:0:
452,319,45943,2,0,P|463:288|454:241,1,59.5000011348725,2|0,0:0|0:0,0:0:0:0:
452,167,46286,2,0,L|530:165,1,59.5000011348725,2|0,0:0|0:0,0:0:0:0:
406,82,46629,6,0,L|209:79,1,178.500003404617,2|0,0:0|0:0,0:0:0:0:
131,110,47315,2,0,P|161:156|231:182,1,119.000002269745,2|0,0:0|0:0,0:0:0:0:
309,162,47829,2,0,L|303:290,2,119.000002269745,2|2|2,0:0|0:0|0:0,0:0:0:0:
246,49,48686,2,0,P|239:93|249:123,1,59.5000011348725,2|0,0:0|0:0,0:0:0:0:
374,104,49029,2,0,P|345:82|315:78,1,59.5000011348725,2|0,0:0|0:0,0:0:0:0:
393,189,49372,5,2,0:0:0:0:
393,189,50058,2,0,L|398:335,1,119.000002269745,2|0,0:0|0:0,0:0:0:0:
281,372,50572,2,0,L|289:249,2,119.000002269745,2|2|2,0:0|0:0|0:0,0:0:0:0:
203,327,51429,2,0,P|166:322|135:327,1,59.5000011348725,2|0,0:0|0:0,0:0:0:0:
62,287,51772,2,0,P|57:250|66:201,1,59.5000011348725,2|0,0:0|0:0,0:0:0:0:
106,112,52115,5,2,0:0:0:0:
106,112,52801,2,0,P|178:112|243:109,1,119.000002269745,2|2,0:0|0:0,0:0:0:0:
312,206,53315,2,0,L|184:204,2,119.000002269745,2|2|2,0:0|0:0|0:0,0:0:0:0:
393,181,54172,2,0,P|376:147|348:127,1,59.5000011348725,2|0,0:0|0:0,0:0:0:0:
372,263,54515,2,0,P|409:265|440:250,1,59.5000011348725,2|0,0:0|0:0,0:0:0:0:
343,340,54858,6,0,L|154:352,1,178.500003404617,4|0,0:1|0:0,0:0:0:0:
93,297,55543,2,0,P|127:250|118:192,1,119.000002269745,2|0,0:0|0:0,0:0:0:0:
51,134,56058,2,0,B|38:52|38:52|52:16,2,119.000002269745,2|2|2,0:0|0:0|0:0,0:0:0:0:
119,193,56915,2,0,P|148:196|176:187,1,59.5000011348725,2|0,0:0|0:0,0:0:0:0:
235,120,57258,2,0,P|262:110|291:113,1,59.5000011348725,2|0,0:0|0:0,0:0:0:0:
402,172,57601,6,0,B|420:211|420:211|400:358,1,178.500003404617,2|0,0:0|0:0,0:0:0:0:
326,297,58286,2,0,L|207:308,1,119.000002269745,2|0,0:0|0:0,0:0:0:0:
155,234,58801,2,0,P|119:285|135:363,2,119.000002269745,2|2|2,0:0|0:0|0:0,0:0:0:0:
237,199,59658,2,0,L|297:204,1,59.5000011348725,2|0,0:0|0:0,0:0:0:0:
365,146,60001,2,0,L|425:140,1,59.5000011348725,2|0,0:0|0:0,0:0:0:0:
489,247,60343,5,2,0:0:0:0:
489,247,61029,2,0,P|419:255|391:290,1,119.000002269745,2|0,0:0|0:0,0:0:0:0:
337,361,61543,2,0,L|218:350,2,119.000002269745,2|2|2,0:0|0:0|0:0,0:0:0:0:
274,276,62401,2,0,P|265:240|274:206,1,59.5000011348725,2|0,0:0|0:0,0:0:0:0:
348,175,62744,2,0,P|358:146|354:117,1,59.5000011348725,2|0,0:0|0:0,0:0:0:0:
271,24,63086,5,2,0:0:0:0:
271,24,63772,2,0,L|152:35,1,119.000002269745,2|0,0:0|0:0,0:0:0:0:
104,110,64286,2,0,P|167:130|195:176,2,119.000002269745,2|2|2,0:0|0:0|0:0,0:0:0:0:
109,199,65143,2,0,P|97:238|78:255,1,59.5000011348725,2|0,0:0|0:0,0:0:0:0:
26,317,65486,2,0,P|38:356|57:373,1,59.5000011348725,2|0,0:0|0:0,0:0:0:0:
200,373,65829,6,0,B|320:331|323:407|440:359,1,238.00000453949,4|2,0:1|0:0,0:0:0:0:
503,195,66858,1,0,0:0:0:0:
503,195,67030,2,0,L|497:66,1,119.000002269745,2|0,0:0|0:0,0:0:0:0:
415,126,67543,2,0,P|378:132|337:122,1,59.5000011348725,2|0,0:0|0:0,0:0:0:0:
282,78,67886,2,0,P|276:48|281:7,1,59.5000011348725,2|0,0:0|0:0,0:0:0:0:
269,167,68229,2,0,P|252:192|219:217,1,59.5000011348725,2|0,0:0|0:0,0:0:0:0:
111,147,68572,6,0,P|135:55|186:135,1,238.00000453949,2|2,0:0|0:0,0:0:0:0:
73,350,69943,2,0,L|12:344,2,59.5000011348725,2|0|2,0:0|0:0|0:0,0:0:0:0:
156,302,70458,1,0,0:0:0:0:
242,341,70629,2,0,P|250:312|246:273,1,59.5000011348725,2|0,0:0|0:0,0:0:0:0:
191,215,70972,2,0,P|186:182|200:147,1,59.5000011348725,2|0,0:0|0:0,0:0:0:0:
118,116,71315,6,0,B|218:115|218:115|259:81|259:81|361:81,1,238.00000453949,2|2,0:0|0:0,0:0:0:0:
412,340,72686,2,0,L|498:344,2,59.5000011348725,2|0|2,0:0|0:0|0:0,0:0:0:0:
353,271,73201,1,0,0:0:0:0:
408,206,73372,2,0,P|412:172|403:137,1,59.5000011348725,2|0,0:0|0:0,0:0:0:0:
272,245,73715,2,0,P|268:279|277:314,1,59.5000011348725,2|0,0:0|0:0,0:0:0:0:
373,354,74058,6,0,P|245:353|115:346,2,238.00000453949,2|2|2,0:0|0:0|0:0,0:0:0:0:
481,378,75601,2,0,P|453:335|478:248,1,119.000002269745
502,197,76115,2,0,L|507:125,1,59.5000011348725,2|0,0:0|0:0,0:0:0:0:
397,40,76458,2,0,L|402:112,1,59.5000011348725,2|0,0:0|0:0,0:0:0:0:
292,201,76801,6,0,B|181:246|178:170|58:212,1,238.00000453949,6|2,0:1|0:1,0:1:0:0:
16,290,77658,1,2,0:1:0:0:
111,364,77829,2,0,L|106:292,1,59.5000011348725,2|2,0:1|0:1,0:1:0:0:
211,215,78172,2,0,L|215:155,2,59.5000011348725,2|2|2,0:1|0:1|0:1,0:1:0:0:
262,295,78686,1,2,0:1:0:0:
331,229,78858,2,0,P|360:224|389:228,1,59.5000011348725,2|2,0:1|0:1,0:1:0:0:
452,300,79201,2,0,P|481:304|510:299,1,59.5000011348725,2|2,0:1|0:1,0:1:0:0:
480,188,79543,6,0,L|488:67,1,119.000002269745,2|2,0:1|0:1,0:1:0:0:
402,31,80058,1,2,0:1:0:0:
341,99,80229,2,0,P|311:103|282:99,1,59.5000011348725,2|2,0:1|0:1,0:1:0:0:
201,64,80572,2,0,P|171:59|142:64,1,59.5000011348725,2|2,0:1|0:1,0:1:0:0:
64,156,80915,2,0,L|68:215,2,59.5000011348725,2|2|2,0:1|0:1|0:1,0:1:0:0:
146,107,81429,1,2,0:1:0:0:
213,175,81601,2,0,P|242:179|271:174,1,59.5000011348725,2|2,0:1|0:1,0:1:0:0:
349,119,81943,2,0,P|378:114|407:118,1,59.5000011348725,2|2,0:1|0:1,0:1:0:0:
500,210,82286,6,0,L|492:328,1,119.000002269745,2|2,0:1|0:1,0:1:0:0:
402,279,82801,1,2,0:1:0:0:
330,350,82972,2,0,L|270:345,1,59.5000011348725,2|2,0:1|0:1,0:1:0:0:
203,269,83315,2,0,L|143:273,1,59.5000011348725,2|2,0:1|0:1,0:1:0:0:
45,162,83658,2,0,P|40:132|44:103,1,59.5000011348725,2|2,0:1|0:1,0:1:0:0:
141,131,84001,2,0,P|145:160|141:189,1,59.5000011348725,2|2,0:1|0:1,0:1:0:0:
111,50,84343,1,2,0:1:0:0:
212,83,84515,1,2,0:1:0:0:
311,39,84686,2,0,L|306:105,1,59.5000011348725,2|2,0:1|0:1,0:1:0:0:
289,192,85029,5,2,0:1:0:0:
290,212,85114,1,2,0:1:0:0:
291,232,85200,1,2,0:1:0:0:
292,252,85286,1,2,0:1:0:0:
293,276,85372,2,0,L|245:271,3,35,2|2|2|2,0:1|0:1|0:1|0:1,0:1:0:0:
215,256,85715,2,0,L|167:260,3,35,2|2|2|2,0:1|0:1|0:1|0:1,0:1:0:0:
140,280,86058,2,0,L|92:275,3,35,2|2|2|2,0:1|0:1|0:1|0:1,0:1:0:0:
59,272,86401,5,12,0:3:0:0:
59,272,87772,6,0,L|64:183,1,70,6|0,0:0|0:0,0:0:0:0:
109,81,88115,1,8,0:0:0:0:
160,186,88286,1,0,0:0:0:0:
35,119,88458,2,0,P|24:70|34:40,1,70,0|2,0:0|0:0,0:0:0:0:
178,24,88801,1,8,0:0:0:0:
178,24,88972,2,0,L|264:18,1,70,0|2,0:0|0:0,0:0:0:0:
382,94,89315,6,0,P|340:99|301:82,1,70,0|8,0:0|0:0,0:0:0:0:
434,19,89658,1,0,0:0:0:0:
501,107,89829,2,0,L|495:185,1,70,0|2,0:0|0:0,0:0:0:0:
425,258,90172,2,0,P|381:249|328:266,1,70,8|0,0:0|0:0,0:0:0:0:
251,333,90515,6,0,L|155:329,2,70,2|0|8,0:0|0:0|0:0,0:0:0:0:
371,372,91029,1,0,0:0:0:0:
425,258,91201,2,0,P|381:249|328:266,1,70,0|2,0:0|0:0,0:0:0:0:
251,333,91543,1,8,0:0:0:0:
174,249,91715,2,0,L|169:171,1,70,0|2,0:0|0:0,0:0:0:0:
290,94,92058,6,0,L|285:172,1,70,0|8,0:0|0:0,0:0:0:0:
356,252,92401,1,0,0:0:0:0:
356,252,92572,2,0,P|403:258|444:247,1,70,0|2,0:0|0:0,0:0:0:0:
482,134,92915,2,0,P|435:128|394:139,1,70,8|0,0:0|0:0,0:0:0:0:
285,163,93258,6,0,B|251:186|251:186|142:176,1,140,2|8,0:0|0:0,0:0:0:0:
68,89,93772,1,0,0:0:0:0:
68,89,93943,2,0,L|65:186,1,70,0|2,0:0|0:0,0:0:0:0:
112,255,94286,1,8,0:0:0:0:
82,339,94458,2,0,P|141:338|172:322,1,70,0|2,0:0|0:0,0:0:0:0:
230,273,94801,6,0,P|290:273|317:256,1,70,0|8,0:0|0:0,0:0:0:0:
398,230,95143,1,0,0:0:0:0:
398,230,95315,2,0,L|404:307,1,70,0|2,0:0|0:0,0:0:0:0:
257,193,95658,2,0,L|260:116,1,70,8|0,0:0|0:0,0:0:0:0:
369,61,96001,6,0,B|317:57|317:57|289:37|289:37|218:33,1,140,2|8,0:0|0:0,0:0:0:0:
152,100,96515,1,0,0:0:0:0:
60,57,96686,2,0,L|65:151,1,70,0|2,0:0|0:0,0:0:0:0:
128,194,97029,1,8,0:0:0:0:
128,194,97201,2,0,L|123:288,1,70,0|2,0:0|0:0,0:0:0:0:
221,170,97543,6,0,L|312:164,1,70,0|8,0:0|0:0,0:0:0:0:
361,93,97886,1,0,0:0:0:0:
435,172,98058,2,0,P|444:207|422:257,1,70,0|2,0:0|0:0,0:0:0:0:
351,82,98401,2,0,P|341:46|363:-3,1,70,8|0,0:0|0:0,0:0:0:0:
425,183,98743,6,0,L|343:177,1,70,2|0,0:0|0:0,0:0:0:0:
264,100,99086,1,8,0:0:0:0:
223,197,99258,1,0,0:0:0:0:
134,140,99429,2,0,L|64:144,1,70,0|2,0:0|0:0,0:0:0:0:
0,233,99772,1,8,0:0:0:0:
48,333,99943,2,0,P|82:340|123:329,1,70,0|2,0:0|0:0,0:0:0:0:
206,278,100286,6,0,P|239:270|274:277,1,70,0|8,0:0|0:0,0:0:0:0:
354,345,100629,1,0,0:0:0:0:
430,253,100801,2,0,L|425:183,1,70,0|2,0:0|0:0,0:0:0:0:
341,119,101143,2,0,L|345:49,1,70,8|0,0:0|0:0,0:0:0:0:
229,129,101486,6,0,P|240:170|268:204,2,70,2|0|8,0:0|0:0|0:0,0:0:0:0:
156,51,102001,1,0,0:0:0:0:
87,130,102172,2,0,P|76:171|48:205,1,70,0|2,0:0|0:0,0:0:0:0:
2,281,102515,1,8,0:0:0:0:
121,341,102686,2,0,L|190:336,1,70,0|2,0:0|0:0,0:0:0:0:
265,261,103029,6,0,L|334:265,1,70,0|8,0:0|0:0,0:0:0:0:
412,336,103372,1,0,0:0:0:0:
485,234,103543,2,0,P|492:199|484:165,1,70,0|2,0:0|0:0,0:0:0:0:
404,97,103886,2,0,L|334:101,1,70,8|0,0:0|0:0,0:0:0:0:
215,27,104229,6,0,P|217:100|170:150,1,140,2|8,0:0|0:0,0:0:0:0:
79,128,104743,1,0,0:0:0:0:
79,128,104915,2,0,P|79:167|99:210,1,70,0|2,0:0|0:0,0:0:0:0:
160,264,105258,1,8,0:0:0:0:
269,182,105429,2,0,L|338:186,1,70,0|2,0:0|0:0,0:0:0:0:
406,257,105772,6,0,L|475:252,1,70,0|8,0:0|0:0,0:0:0:0:
510,152,106115,1,0,0:0:0:0:
407,80,106286,2,0,P|399:45|407:11,1,70,0|2,0:0|0:0,0:0:0:0:
504,162,106629,2,0,P|511:195|504:230,1,70,8|0,0:0|0:0,0:0:0:0:
379,340,106972,6,0,L|309:335,2,70,8|2|0,0:0|0:0|0:0,0:0:0:0:
434,234,107486,2,0,L|503:229,2,70,8|2|0,0:0|0:0|0:0,0:0:0:0:
346,151,108001,1,8,0:0:0:0:
292,241,108172,1,2,0:0:0:0:
183,148,108343,6,0,L|113:152,2,70,8|2|0,0:0|0:0|0:0,0:0:0:0:
238,42,108857,2,0,P|274:37|307:46,1,70,8|2,0:0|0:0,0:0:0:0:
399,122,109201,1,0,0:0:0:0:
318,227,109372,2,0,L|322:296,1,70,8|0,0:0|0:0,0:0:0:0:
441,353,109715,6,0,B|383:356|383:356|356:377|356:377|293:381,1,140,6|8,0:0|0:0,0:0:0:0:
195,316,110229,1,0,0:0:0:0:
195,316,110401,2,0,L|114:311,1,70,0|2,0:0|0:0,0:0:0:0:
28,237,110743,2,0,P|21:199|36:158,1,70,8|0,0:0|0:0,0:0:0:0:
190,115,111086,6,0,P|179:165|86:207,1,140,2|8,0:0|0:0,0:0:0:0:
35,119,111601,1,0,0:0:0:0:
35,119,111772,2,0,L|113:123,1,70,0|2,0:0|0:0,0:0:0:0:
252,201,112115,2,0,P|256:242|232:286,1,70,8|0,0:0|0:0,0:0:0:0:
190,115,112458,6,0,P|186:74|210:30,2,70,2|0|8,0:0|0:0|0:0,0:0:0:0:
252,201,112972,1,0,0:0:0:0:
252,201,113143,2,0,L|338:198,1,70,0|2,0:0|0:0,0:0:0:0:
415,115,113486,2,0,P|374:105|336:115,1,70,8|0,0:0|0:0,0:0:0:0:
252,201,113829,6,0,L|255:276,2,70,2|0|8,0:0|0:0|0:0,0:0:0:0:
167,136,114343,1,0,0:0:0:0:
167,136,114515,2,0,L|172:52,1,70,0|2,0:0|0:0,0:0:0:0:
65,14,114858,2,0,L|70:98,1,70,8|0,0:0|0:0,0:0:0:0:
144,229,115201,6,0,B|204:223|204:223|231:203|231:203|292:198,1,140,2|8,0:0|0:0,0:0:0:0:
361,121,115715,1,0,0:0:0:0:
361,121,115886,2,0,L|449:124,1,70,0|2,0:0|0:0,0:0:0:0:
512,202,116229,2,0,P|519:252|507:280,1,70,8|0,0:0|0:0,0:0:0:0:
408,350,116572,6,0,P|390:285|435:235,1,140,2|8,0:0|0:0,0:0:0:0:
488,367,117086,1,0,0:0:0:0:
488,367,117258,2,0,L|416:362,1,70,0|2,0:0|0:0,0:0:0:0:
307,303,117601,2,0,L|235:308,1,70,8|0,0:0|0:0,0:0:0:0:
98,351,117943,6,0,P|88:310|101:269,2,70,2|0|8,0:0|0:0|0:0,0:0:0:0:
159,222,118458,1,0,0:0:0:0:
159,222,118629,2,0,P|121:196|73:196,1,70,0|2,0:0|0:0,0:0:0:0:
174,317,118972,2,0,P|207:304|235:278,1,70,8|0,0:0|0:0,0:0:0:0:
274,157,119315,6,0,L|271:81,2,70,2|0|8,0:0|0:0|0:0,0:0:0:0:
341,255,119829,1,0,0:0:0:0:
341,255,120001,2,0,P|389:260|425:251,1,70,0|2,0:0|0:0,0:0:0:0:
265,155,120343,2,0,P|216:147|178:160,1,70,8|0,0:0|0:0,0:0:0:0:
101,245,120686,6,0,P|70:195|69:112,1,140,2|8,0:0|0:0,0:0:0:0:
132,48,121201,1,0,0:0:0:0:
203,103,121372,2,0,L|272:98,1,70,0|2,0:0|0:0,0:0:0:0:
345,35,121715,2,0,L|414:40,1,70,8|0,0:0|0:0,0:0:0:0:
468,113,122058,6,0,P|474:145|463:184,1,70,2|0,0:0|0:0,0:0:0:0:
326,139,122401,2,0,P|360:133|393:142,1,70,8|0,0:0|0:0,0:0:0:0:
354,283,122743,2,0,P|346:250|356:210,1,70,0|2,0:0|0:0,0:0:0:0:
496,257,123086,2,0,P|461:262|428:253,1,70,8|0,0:0|0:0,0:0:0:0:
326,139,123429,6,0,L|175:152,1,140,2|8,0:0|0:0,0:0:0:0:
81,207,123943,1,0,0:0:0:0:
42,134,124115,2,0,P|82:123|110:130,1,70,0|2,0:0|0:0,0:0:0:0:
22,266,124458,2,0,P|3:238|0:197,1,70,8|0,0:0|0:0,0:0:0:0:
167,193,124801,6,0,L|157:270,1,70,2|0,0:0|0:0,0:0:0:0:
241,138,125143,2,0,L|184:96,1,70,8|0,0:0|0:0,0:0:0:0:
248,227,125486,2,0,L|312:198,1,70,0|2,0:0|0:0,0:0:0:0:
417,286,125829,2,0,P|383:286|349:271,1,70,8|0,0:0|0:0,0:0:0:0:
383,107,126172,6,0,B|405:133|405:133|399:218,1,105,2|0,0:0|0:0,0:0:0:0:
401,204,126515,2,0,L|475:198,1,70,8|0,0:0|0:0,0:0:0:0:
500,341,126858,2,0,P|455:294|401:293,1,105,2|0,0:0|0:0,0:0:0:0:
416,289,127201,2,0,P|366:280|335:257,1,70,8|0,0:0|0:0,0:0:0:0:
315,159,127543,6,0,L|192:159,1,105,2|0,0:0|0:0,0:0:0:0:
210,159,127886,2,0,P|168:182|126:175,1,70,8|0,0:0|0:0,0:0:0:0:
39,257,128229,2,0,P|96:247|139:280,1,105,2|0,0:0|0:0,0:0:0:0:
132,271,128572,2,0,B|128:313|128:313|141:354,1,70,8|0,0:0|0:0,0:0:0:0:
259,306,128915,5,2,0:0:0:0:
259,306,129086,1,2,0:0:0:0:
293,184,129258,2,0,L|224:179,1,70,8|2,0:0|0:0,0:0:0:0:
132,271,129601,1,2,0:0:0:0:
132,271,129772,1,2,0:0:0:0:
30,179,129943,2,0,P|23:145|30:111,1,70,8|0,0:0|0:0,0:0:0:0:
256,192,130286,12,0,131658,0:0:0:0:
