osu file format v14

[General]
AudioFilename: audio.mp3
AudioLeadIn: 0
PreviewTime: -1
Countdown: 0
SampleSet: Normal
StackLeniency: 0.6
Mode: 0
LetterboxInBreaks: 0
SkinPreference:-+YUGEN+-
WidescreenStoryboard: 1

[Editor]
Bookmarks: 19278,76819,85039,86409,120744,130334,153624,161845,163215
DistanceSpacing: 0.4
BeatDivisor: 4
GridSize: 4
TimelineZoom: 1

[Metadata]
Title:Why We Lose (feat. Coleman Trapp)
TitleUnicode:Why We Lose (feat. Coleman Trapp)
Artist:Cartoon
ArtistUnicode:Cartoon
Creator:NickLOOOL
Version:Expert
Source:
Tags:
BeatmapID:1134430
BeatmapSetID:535607

[Difficulty]
HPDrainRate:7
CircleSize:4
OverallDifficulty:7.4
ApproachRate:9.3
SliderMultiplier:1.5
SliderTickRate:1

[Events]
//Background and Video events
0,0,"Creative-Cool-Design-Art-Image.jpg",0,0
//Break Periods
2,66058,74210
//Storyboard Layer 0 (Background)
//Storyboard Layer 1 (Fail)
//Storyboard Layer 2 (Pass)
//Storyboard Layer 3 (Foreground)
//Storyboard Sound Samples

[TimingPoints]
98,342.504852152072,4,1,0,100,1,0
19278,-142.857142857143,4,3,0,60,0,0
43253,-142.857142857143,4,1,0,80,0,0
65858,-125,4,3,0,80,0,0
76819,-90.9090909090909,4,3,0,90,0,0
87864,342.504852152072,4,1,0,100,1,1
87864,-83.3333333333333,4,3,0,100,0,1
130334,-111.111111111111,4,2,0,100,0,0
131704,-142.857142857143,4,3,0,100,0,0
151912,-200,4,2,0,100,0,0
153624,-100,4,2,0,100,0,0
157392,-90.9090909090909,4,2,0,100,0,0
164670,342.504852152072,4,2,0,100,1,1
164670,-83.3333333333334,4,2,0,100,0,1
186590,-83.3333333333334,4,2,0,100,0,0

[HitObjects]
256,192,19278,12,0,21675,0:0:0:0:
252,191,22018,5,0,0:0:0:0:
346,137,22703,2,0,L|375:243,1,104.999996795654
184,259,23217,1,0,0:0:0:0:
279,248,23388,2,0,L|303:300,1,52.4999983978272
193,152,23902,1,0,0:0:0:0:
182,233,24073,2,0,P|124:231|57:248,1,104.999996795654
131,347,24758,1,0,0:0:0:0:
223,71,25443,6,0,P|270:109|286:159,1,104.999996795654
174,201,25957,1,0,0:0:0:0:
286,246,26128,2,0,L|247:291,1,52.4999983978272
161,208,26642,1,0,0:0:0:0:
62,209,26813,2,0,P|95:254|108:321,1,104.999996795654
238,334,27498,1,0,0:0:0:0:
296,191,28183,6,0,P|292:248|308:302,1,104.999996795654
193,332,28697,1,0,0:0:0:0:
87,275,28868,2,0,L|72:221,1,52.4999983978272
226,103,29382,1,0,0:0:0:0:
139,141,29553,2,0,L|166:250,1,104.999996795654
186,340,30238,1,0,0:0:0:0:
375,193,30923,6,0,P|374:133|406:102,1,104.999996795654
246,46,31437,1,0,0:0:0:0:
342,59,31608,2,0,L|305:111,1,52.4999983978272
251,146,32122,1,0,0:0:0:0:
340,176,32293,2,0,P|394:149|445:149,1,104.999996795654
395,263,32978,1,0,0:0:0:0:
135,149,33663,6,0,P|159:197|115:216,1,104.999996795654
210,308,34177,1,0,0:0:0:0:
231,200,34348,2,0,L|286:241,1,52.4999983978272
292,271,34862,1,0,0:0:0:0:
275,339,35033,2,0,L|368:281,1,104.999996795654
134,297,35718,1,0,0:0:0:0:
377,158,36403,6,0,L|375:268,1,104.999996795654
280,295,36917,1,0,0:0:0:0:
184,289,37088,2,0,P|155:247|153:234,1,52.4999983978272
301,152,37602,1,0,0:0:0:0:
341,83,37773,2,0,P|268:75|222:87,1,104.999996795654
101,130,38458,1,0,0:0:0:0:
290,336,39143,6,0,P|341:313|397:318,1,104.999996795654
463,242,39657,2,0,P|415:232|399:233,1,52.4999983978272
299,261,39999,1,0,0:0:0:0:
137,304,40342,1,0,0:0:0:0:
21,238,40513,2,0,L|61:344,1,104.999996795654
137,217,41198,1,0,0:0:0:0:
251,140,41883,6,0,L|332:212,1,104.999996795654
323,295,42397,2,0,P|251:288|203:302,1,104.999996795654
125,267,42911,2,0,L|117:204,1,52.4999983978272
283,59,43253,5,0,0:0:0:0:
34,301,43424,1,0,0:0:0:0:
313,199,43767,2,0,P|308:229|292:255,1,52.4999983978272
268,235,44623,5,0,0:0:0:0:
276,164,45137,1,0,0:0:0:0:
172,236,45479,1,0,0:0:0:0:
162,97,45822,2,0,L|144:152,1,52.4999983978272
81,97,46336,1,0,0:0:0:0:
59,197,46678,1,0,0:0:0:0:
110,170,47363,5,0,0:0:0:0:
224,164,47877,1,0,0:0:0:0:
257,68,48219,1,0,0:0:0:0:
358,100,48562,2,0,P|365:137|368:163,1,52.4999983978272
477,135,49076,1,0,0:0:0:0:
394,229,49418,1,0,0:0:0:0:
340,213,50103,5,0,0:0:0:0:
233,166,50617,1,0,0:0:0:0:
189,255,50959,1,0,0:0:0:0:
137,159,51302,2,0,P|133:126|157:110,1,52.4999983978272
226,144,51816,1,0,0:0:0:0:
304,89,52158,1,0,0:0:0:0:
429,96,52843,5,0,0:0:0:0:
362,185,53357,1,0,0:0:0:0:
314,281,53699,1,0,0:0:0:0:
170,253,54042,2,0,L|126:218,1,52.4999983978272
243,191,54556,1,0,0:0:0:0:
147,140,54898,1,0,0:0:0:0:
173,57,55583,5,0,0:0:0:0:
288,100,56097,1,0,0:0:0:0:
386,165,56439,1,0,0:0:0:0:
361,245,56782,2,0,L|352:297,1,52.4999983978272
276,154,57296,1,0,0:0:0:0:
385,146,57638,1,0,0:0:0:0:
243,144,58323,5,0,0:0:0:0:
126,179,58837,1,0,0:0:0:0:
241,240,59179,1,0,0:0:0:0:
155,262,59522,2,0,L|114:321,1,52.4999983978272
235,321,60036,1,0,0:0:0:0:
82,251,60378,1,0,0:0:0:0:
174,257,61063,5,0,0:0:0:0:
63,228,61577,1,0,0:0:0:0:
150,158,61919,1,0,0:0:0:0:
69,221,62262,2,0,L|15:240,1,52.4999983978272
88,310,62776,1,0,0:0:0:0:
191,299,63118,1,0,0:0:0:0:
221,279,63803,5,0,0:0:0:0:
170,188,64317,1,0,0:0:0:0:
245,121,64659,1,0,0:0:0:0:
352,174,65002,2,0,L|396:208,1,52.4999983978272
499,201,65516,1,0,0:0:0:0:
255,197,65858,1,0,0:0:0:0:
243,181,74764,5,0,0:0:0:0:
233,166,75449,5,0,0:0:0:0:
200,134,76134,5,0,0:0:0:0:
135,104,76476,1,0,0:0:0:0:
79,118,76819,6,0,L|74:205,1,82.5000025177003
192,170,77161,6,0,L|194:261,1,82.5000025177003
311,193,77504,6,0,L|326:284,1,82.5000025177003
438,112,77846,6,0,L|467:202,1,82.5000025177003
353,141,78189,6,0,L|328:59,1,82.5000025177003
259,254,78531,6,0,L|269:165,1,82.5000025177003
126,230,78874,6,0,L|114:144,1,82.5000025177003
23,146,79216,6,0,L|63:70,1,82.5000025177003
88,235,79559,6,0,L|87:324,1,82.5000025177003
205,220,79901,6,0,L|233:304,1,82.5000025177003
357,287,80244,6,0,L|333:368,1,82.5000025177003
448,171,80586,6,0,L|468:265,1,82.5000025177003
340,155,80929,6,0,L|415:97,1,82.5000025177003
175,160,81271,6,0,L|95:89,1,82.5000025177003
58,277,81614,6,0,L|61:188,1,82.5000025177003
183,264,81956,6,0,L|261:302,1,82.5000025177003
346,195,82299,6,0,L|397:267,1,82.5000025177003
162,121,82641,6,0,L|126:41,1,82.5000025177003
277,96,82984,6,0,L|373:73,1,82.5000025177003
137,225,83326,6,0,L|128:310,1,82.5000025177003
290,230,83669,6,0,L|354:291,1,82.5000025177003
147,153,84011,6,0,L|47:148,1,82.5000025177003
290,154,84354,6,0,L|370:128,1,82.5000025177003
232,187,84696,6,0,L|215:96,1,82.5000025177003
146,140,85039,5,0,0:0:0:0:
136,181,85124,1,0,0:0:0:0:
141,224,85210,1,0,0:0:0:0:
160,263,85295,1,0,0:0:0:0:
190,293,85381,1,0,0:0:0:0:
229,311,85467,1,0,0:0:0:0:
272,316,85552,1,0,0:0:0:0:
314,306,85638,1,0,0:0:0:0:
350,283,85724,1,0,0:0:0:0:
376,249,85809,1,0,0:0:0:0:
390,208,85895,1,0,0:0:0:0:
390,166,85980,1,0,0:0:0:0:
375,125,86066,1,0,0:0:0:0:
348,92,86152,1,0,0:0:0:0:
312,69,86237,1,0,0:0:0:0:
270,60,86323,1,0,0:0:0:0:
227,66,86409,1,0,0:0:0:0:
157,79,87864,5,0,0:0:0:0:
20,165,88035,1,0,0:0:0:0:
181,230,88206,1,0,0:0:0:0:
425,80,88377,1,0,0:0:0:0:
139,132,88549,2,0,B|163:176|163:176|155:234,1,89.9999972534181
450,132,88891,1,0,0:0:0:0:
231,349,89063,1,0,0:0:0:0:
237,148,89234,1,0,0:0:0:0:
51,222,89405,1,0,0:0:0:0:
351,248,89576,1,0,0:0:0:0:
223,57,89748,1,0,0:0:0:0:
179,267,89919,6,0,P|185:315|224:379,1,89.9999972534181
508,193,90261,2,0,P|485:237|447:284,1,89.9999972534181
263,334,90604,5,0,0:0:0:0:
36,268,90775,1,0,0:0:0:0:
292,146,90946,1,0,0:0:0:0:
108,43,91118,1,0,0:0:0:0:
110,302,91289,2,0,B|118:253|118:253|92:204,1,89.9999972534181
0,33,91631,1,0,0:0:0:0:
155,302,91803,1,0,0:0:0:0:
118,100,91974,1,0,0:0:0:0:
290,176,92145,1,0,0:0:0:0:
56,245,92316,1,0,0:0:0:0:
372,344,92488,1,0,0:0:0:0:
187,314,92659,6,0,P|138:334|83:327,1,89.9999972534181
324,142,93001,2,0,P|359:192|358:240,1,89.9999972534181
84,215,93344,2,0,L|49:297,1,89.9999972534181
393,259,93686,2,0,P|402:219|350:204,1,89.9999972534181
67,51,94029,2,0,P|109:68|158:68,1,89.9999972534181
488,240,94371,5,0,0:0:0:0:
324,80,94543,2,0,P|285:108|233:128,1,89.9999972534181
56,280,94885,2,0,P|15:262|12:215,1,89.9999972534181
361,39,95228,1,0,0:0:0:0:
140,144,95399,2,0,P|208:185|219:215,1,89.9999972534181
456,212,95741,2,0,P|459:259|495:306,1,89.9999972534181
152,336,96084,6,0,B|145:272|145:272|102:258,1,89.9999972534181
8,64,96426,2,0,P|44:34|87:39,1,89.9999972534181
312,296,96769,2,0,L|337:210,1,89.9999972534181
390,31,97111,1,0,0:0:0:0:
492,184,97283,2,0,L|513:289,1,89.9999972534181
232,276,97625,2,0,L|154:361,1,89.9999972534181
64,100,97968,5,0,0:0:0:0:
168,248,98139,2,0,P|232:257|272:251,1,89.9999972534181
486,342,98481,2,0,L|447:242,1,89.9999972534181
385,44,98824,5,0,0:0:0:0:
344,238,98995,1,0,0:0:0:0:
208,68,99166,1,0,0:0:0:0:
48,232,99338,1,0,0:0:0:0:
129,39,99509,2,0,L|154:131,1,89.9999972534181
164,289,99851,1,0,0:0:0:0:
321,71,100023,1,0,0:0:0:0:
503,306,100194,1,0,0:0:0:0:
507,98,100365,1,0,0:0:0:0:
322,334,100536,1,0,0:0:0:0:
216,69,100707,1,0,0:0:0:0:
88,284,100879,6,0,P|73:239|90:195,1,89.9999972534181
281,59,101221,2,0,B|318:45|318:45|365:62,1,89.9999972534181
512,208,101564,5,0,0:0:0:0:
328,296,101735,1,0,0:0:0:0:
236,116,101906,1,0,0:0:0:0:
434,30,102078,1,0,0:0:0:0:
416,258,102249,2,0,B|407:301|407:301|363:326,1,89.9999972534181
220,96,102591,1,0,0:0:0:0:
436,60,102763,1,0,0:0:0:0:
496,292,102934,1,0,0:0:0:0:
272,336,103105,1,0,0:0:0:0:
68,160,103276,1,0,0:0:0:0:
416,103,103447,1,0,0:0:0:0:
160,238,103619,6,0,B|50:268,1,89.9999972534181
284,49,103961,2,0,B|249:153,1,89.9999972534181
473,212,104304,6,0,B|483:257|483:257|506:306,1,89.9999972534181
287,64,104646,2,0,P|297:105|295:157,1,89.9999972534181
89,108,104989,2,0,P|79:67|48:31,1,89.9999972534181
168,360,105331,1,0,0:0:0:0:
85,255,105503,2,0,P|134:261|172:231,1,89.9999972534181
354,179,105845,2,0,B|402:188|402:188|428:243,1,89.9999972534181
211,67,106188,5,0,0:0:0:0:
415,63,106359,2,0,B|372:80|314:71,1,89.9999972534181
108,67,106702,2,0,B|140:80|140:80|181:118,1,89.9999972534181
393,148,107044,6,0,B|367:61,1,89.9999972534181
489,327,107387,1,0,0:0:0:0:
286,211,107558,6,0,B|239:297,1,89.9999972534181
464,328,107900,1,0,0:0:0:0:
81,326,108072,6,0,B|185:294,1,89.9999972534181
437,139,108414,2,0,B|358:78,1,89.9999972534181
240,281,108757,1,0,0:0:0:0:
120,68,108928,6,0,P|78:96|63:146,1,89.9999972534181
306,53,109270,5,0,0:0:0:0:
255,339,109441,1,0,0:0:0:0:
73,118,109784,5,0,0:0:0:0:
364,96,109955,1,0,0:0:0:0:
152,180,110126,1,0,0:0:0:0:
376,268,110298,1,0,0:0:0:0:
108,292,110469,1,0,0:0:0:0:
192,88,110640,1,0,0:0:0:0:
264,332,110811,1,0,0:0:0:0:
400,208,110983,1,0,0:0:0:0:
144,128,111154,1,0,0:0:0:0:
408,76,111325,1,0,0:0:0:0:
264,24,111496,1,0,0:0:0:0:
308,316,111668,1,0,0:0:0:0:
105,204,111839,6,0,B|76:161|76:161|23:184,1,89.9999972534181
190,137,112181,2,0,B|191:86|191:86|230:62,1,89.9999972534181
392,128,112524,5,0,0:0:0:0:
161,231,112695,1,0,0:0:0:0:
232,76,112866,1,0,0:0:0:0:
328,248,113038,1,0,0:0:0:0:
388,68,113209,1,0,0:0:0:0:
180,260,113380,1,0,0:0:0:0:
416,328,113551,1,0,0:0:0:0:
56,148,113723,1,0,0:0:0:0:
328,52,113894,1,0,0:0:0:0:
240,324,114065,1,0,0:0:0:0:
177,72,114236,1,0,0:0:0:0:
431,199,114408,1,0,0:0:0:0:
431,199,114579,6,0,B|394:228|343:192,1,89.9999972534181
95,266,114921,2,0,B|119:231|183:236,1,89.9999972534181
420,329,115264,5,0,0:0:0:0:
474,93,115435,1,0,0:0:0:0:
139,152,115606,1,0,0:0:0:0:
350,59,115778,1,0,0:0:0:0:
100,16,115949,1,0,0:0:0:0:
25,188,116120,1,0,0:0:0:0:
177,335,116291,1,0,0:0:0:0:
49,137,116463,1,0,0:0:0:0:
296,204,116634,1,0,0:0:0:0:
56,168,116805,1,0,0:0:0:0:
363,71,116976,1,0,0:0:0:0:
86,265,117148,1,0,0:0:0:0:
228,255,117319,6,0,B|217:305|217:305|181:332,1,89.9999972534181
489,179,117661,2,0,L|428:252,1,89.9999972534181
440,40,118004,5,0,0:0:0:0:
232,156,118175,1,0,0:0:0:0:
56,44,118346,1,0,0:0:0:0:
68,264,118518,1,0,0:0:0:0:
239,158,118689,1,0,0:0:0:0:
419,250,118860,1,0,0:0:0:0:
398,32,119031,1,0,0:0:0:0:
224,160,119203,1,0,0:0:0:0:
49,55,119374,1,0,0:0:0:0:
44,269,119545,1,0,0:0:0:0:
216,197,119716,1,0,0:0:0:0:
488,133,119888,1,0,0:0:0:0:
164,195,120059,6,0,P|107:242|81:258,1,89.9999972534181
337,195,120401,2,0,L|388:110,1,89.9999972534181
317,322,120744,5,0,0:0:0:0:
65,292,120915,1,0,0:0:0:0:
192,57,121086,1,0,0:0:0:0:
199,213,121258,1,0,0:0:0:0:
441,218,121429,1,0,0:0:0:0:
338,20,121600,1,0,0:0:0:0:
283,324,121771,1,0,0:0:0:0:
96,201,121943,1,0,0:0:0:0:
324,125,122114,1,0,0:0:0:0:
97,67,122285,1,0,0:0:0:0:
361,223,122456,1,0,0:0:0:0:
143,291,122628,1,0,0:0:0:0:
84,117,122799,6,0,P|46:144|19:185,1,89.9999972534181
167,347,123141,2,0,B|210:312|210:312|231:273,1,89.9999972534181
248,88,123484,6,0,P|320:112|356:132,1,89.9999972534181
64,180,123827,1,0,0:0:0:0:
272,284,123998,2,0,L|368:284,2,89.9999972534181
96,72,124512,1,0,0:0:0:0:
396,216,124683,2,0,L|416:128,1,89.9999972534181
72,172,125025,2,0,L|64:76,1,89.9999972534181
196,160,125368,1,0,0:0:0:0:
428,165,125539,6,0,L|425:254,1,89.9999972534181
317,240,125882,2,0,L|309:335,1,89.9999972534181
208,164,126224,6,0,L|224:76,1,89.9999972534181
84,324,126567,1,0,0:0:0:0:
220,56,126738,2,0,L|216:156,2,89.9999972534181
424,184,127252,1,0,0:0:0:0:
96,248,127423,2,0,P|152:272|216:284,1,89.9999972534181
372,136,127765,2,0,P|308:128|268:136,1,89.9999972534181
472,280,128108,1,0,0:0:0:0:
160,112,128279,6,0,P|108:107|67:107,1,89.9999972534181
288,268,128622,2,0,P|333:272|388:264,1,89.9999972534181
280,48,128964,1,0,0:0:0:0:
240,160,129135,1,0,0:0:0:0:
440,356,129307,1,0,0:0:0:0:
368,160,129478,1,0,0:0:0:0:
210,94,129649,1,0,0:0:0:0:
486,274,129820,1,0,0:0:0:0:
310,254,129992,2,0,L|292:344,1,89.9999972534181
115,227,130334,6,0,L|94:293,1,67.4999979400635
183,184,130677,2,0,L|197:254,1,67.4999979400635
292,201,131019,2,0,L|301:270,1,67.4999979400635
411,170,131362,2,0,L|448:244,1,67.4999979400635
108,51,131704,1,0,0:0:0:0:
285,157,132389,6,0,P|285:226|266:268,1,104.999996795654
163,254,132903,2,0,P|108:258|47:279,1,104.999996795654
125,339,133417,1,0,0:0:0:0:
87,178,133759,2,0,P|132:142|148:93,1,104.999996795654
251,151,134444,1,0,0:0:0:0:
141,187,135129,6,0,P|176:221|188:288,1,104.999996795654
308,204,135643,2,0,L|317:315,1,104.999996795654
416,236,136157,1,0,0:0:0:0:
494,160,136499,2,0,L|402:71,1,104.999996795654
315,45,137184,1,0,0:0:0:0:
104,161,137869,6,0,P|102:217|116:272,1,104.999996795654
210,201,138383,2,0,P|215:144|198:98,1,104.999996795654
90,66,138897,1,0,0:0:0:0:
110,248,139239,2,0,P|178:226|208:202,1,104.999996795654
290,142,139753,2,0,P|303:181|299:201,1,52.4999983978272
402,318,140267,5,0,0:0:0:0:
402,318,140609,2,0,P|441:277|451:231,1,104.999996795654
366,168,141123,2,0,L|437:89,1,104.999996795654
289,128,141637,1,0,0:0:0:0:
163,106,141979,2,0,P|195:148|213:200,1,104.999996795654
153,288,142493,2,0,P|191:307|218:303,1,52.4999983978272
283,54,143007,5,0,0:0:0:0:
283,54,143349,2,0,P|234:74|206:127,1,104.999996795654
268,208,143863,2,0,L|162:239,1,104.999996795654
72,187,144377,1,0,0:0:0:0:
220,137,144719,2,0,L|333:155,1,104.999996795654
419,224,145404,1,0,0:0:0:0:
115,193,145747,5,0,0:0:0:0:
115,193,146089,2,0,P|170:238|223:246,1,104.999996795654
305,238,146603,2,0,P|357:231|412:249,1,104.999996795654
359,320,147117,1,0,0:0:0:0:
109,277,147459,2,0,P|88:211|99:165,1,104.999996795654
208,210,148144,2,0,P|231:160|273:133,1,104.999996795654
82,231,148829,1,0,0:0:0:0:
88,236,149172,5,0,0:0:0:0:
186,181,149343,2,0,P|200:237|183:289,1,104.999996795654
265,338,149857,2,0,P|304:296|359:293,1,104.999996795654
406,206,150371,1,0,0:0:0:0:
339,122,150542,2,0,L|301:165,1,52.4999983978272
157,66,150884,1,0,0:0:0:0:
24,238,151227,1,0,0:0:0:0:
238,338,151569,1,0,0:0:0:0:
252,154,151912,6,0,L|254:240,1,75
53,116,153624,6,0,P|61:178|77:216,1,75
231,140,153967,6,0,P|275:165|314:195,1,75
56,256,154309,6,0,P|15:282|-6:317,1,75
392,308,154652,6,0,P|395:263|377:226,1,75
208,48,154994,6,0,P|226:90|265:106,1,75
136,312,155337,6,0,P|181:308|222:287,1,75
444,136,155679,6,0,L|382:188,1,75
64,160,156022,6,0,L|106:226,1,75
443,41,156364,6,0,L|392:96,1,75
88,56,156707,6,0,P|139:77|178:88,1,75
464,164,157049,6,0,P|450:212|432:258,1,75
144,244,157392,6,0,P|164:278|205:309,1,82.5000025177003
384,120,157734,6,0,P|387:81|356:49,1,82.5000025177003
92,104,158077,6,0,P|123:81|139:33,1,82.5000025177003
276,320,158419,6,0,P|223:294|183:311,1,82.5000025177003
4,208,158762,6,0,P|34:255|75:259,1,82.5000025177003
344,168,159105,6,0,P|309:189|293:226,1,82.5000025177003
76,48,159447,6,0,P|107:77|128:133,1,82.5000025177003
332,332,159790,6,0,P|318:291|288:259,1,82.5000025177003
474,68,160132,6,0,P|434:79|395:92,1,82.5000025177003
192,248,160475,6,0,P|136:249|90:227,1,82.5000025177003
356,40,160817,6,0,P|410:46|452:68,1,82.5000025177003
115,179,161160,6,0,P|72:226|73:263,1,82.5000025177003
502,193,161502,6,0,P|500:149|481:101,1,82.5000025177003
398,116,161845,5,0,0:0:0:0:
416,152,161930,1,0,0:0:0:0:
422,193,162016,1,0,0:0:0:0:
414,233,162101,1,0,0:0:0:0:
393,268,162187,1,0,0:0:0:0:
362,295,162273,1,0,0:0:0:0:
323,310,162358,1,0,0:0:0:0:
282,312,162444,1,0,0:0:0:0:
243,300,162530,1,0,0:0:0:0:
210,276,162615,1,0,0:0:0:0:
186,242,162701,1,0,0:0:0:0:
175,203,162786,1,0,0:0:0:0:
178,162,162872,1,0,0:0:0:0:
193,124,162958,1,0,0:0:0:0:
220,93,163043,1,0,0:0:0:0:
256,73,163129,1,0,0:0:0:0:
297,65,163215,1,0,0:0:0:0:
417,66,164670,5,0,0:0:0:0:
450,305,164841,1,0,0:0:0:0:
305,159,165012,1,0,0:0:0:0:
72,264,165183,1,0,0:0:0:0:
40,52,165355,2,0,P|98:56|138:79,1,89.9999972534181
413,211,165697,1,0,0:0:0:0:
113,234,165868,1,0,0:0:0:0:
276,338,166040,1,0,0:0:0:0:
243,93,166211,1,0,0:0:0:0:
373,309,166382,1,0,0:0:0:0:
400,63,166553,1,0,0:0:0:0:
392,101,166725,6,0,B|344:115|344:115|314:154,1,89.9999972534181
154,308,167067,2,0,P|106:296|71:256,1,89.9999972534181
280,68,167410,5,0,0:0:0:0:
458,190,167581,1,0,0:0:0:0:
157,224,167752,1,0,0:0:0:0:
347,339,167923,1,0,0:0:0:0:
401,95,168095,1,0,0:0:0:0:
222,42,168266,1,0,0:0:0:0:
222,332,168437,1,0,0:0:0:0:
505,249,168608,1,0,0:0:0:0:
338,67,168780,1,0,0:0:0:0:
114,227,168951,1,0,0:0:0:0:
317,363,169122,1,0,0:0:0:0:
331,154,169293,1,0,0:0:0:0:
54,174,169465,6,0,P|34:232|42:274,1,89.9999972534181
346,344,169808,2,0,P|369:301|361:247,1,89.9999972534181
56,194,170150,6,0,P|57:143|96:119,1,89.9999972534181
309,74,170492,2,0,P|346:89|382:53,1,89.9999972534181
394,285,170835,2,0,P|379:328|329:336,1,89.9999972534181
12,304,171177,1,0,0:0:0:0:
301,176,171348,2,0,P|242:191|208:224,1,89.9999972534181
19,143,171691,2,0,L|16:49,1,89.9999972534181
422,103,172033,5,0,0:0:0:0:
189,137,172205,2,0,L|228:224,1,89.9999972534181
447,242,172547,2,0,P|457:295|440:333,1,89.9999972534181
151,266,172890,2,0,P|136:311|108:293,1,89.9999972534181
349,43,173232,2,0,P|308:69|287:116,1,89.9999972534181
123,258,173575,6,0,P|191:284|224:198,1,179.999994506836
416,97,174088,2,0,L|435:187,1,89.9999972534181
305,289,174431,2,0,L|271:207,1,89.9999972534181
37,172,174773,1,0,0:0:0:0:
213,183,174945,2,0,L|236:282,1,89.9999972534181
116,74,175287,2,0,P|167:91|203:92,1,89.9999972534181
448,158,175630,5,0,0:0:0:0:
448,158,175801,1,0,0:0:0:0:
20,225,175972,1,0,0:0:0:0:
344,312,176143,1,0,0:0:0:0:
344,312,176315,1,0,0:0:0:0:
93,66,176486,1,0,0:0:0:0:
251,133,176657,1,0,0:0:0:0:
125,271,176828,1,0,0:0:0:0:
296,352,177000,1,0,0:0:0:0:
60,340,177171,1,0,0:0:0:0:
312,165,177342,1,0,0:0:0:0:
88,124,177513,1,0,0:0:0:0:
91,276,177685,6,0,P|39:238|9:223,1,89.9999972534181
199,86,178027,2,0,B|232:48|232:48|265:77,1,89.9999972534181
199,290,178370,5,0,0:0:0:0:
305,81,178541,1,0,0:0:0:0:
373,329,178712,1,0,0:0:0:0:
469,116,178883,1,0,0:0:0:0:
248,291,179055,1,0,0:0:0:0:
273,63,179226,1,0,0:0:0:0:
74,245,179397,1,0,0:0:0:0:
130,11,179568,1,0,0:0:0:0:
442,295,179740,1,0,0:0:0:0:
372,84,179911,1,0,0:0:0:0:
67,261,180082,1,0,0:0:0:0:
170,76,180253,1,0,0:0:0:0:
271,205,180425,6,0,P|286:163|324:141,1,89.9999972534181
82,96,180767,2,0,P|48:63|8:51,1,89.9999972534181
90,245,181110,6,0,L|91:342,1,89.9999972534181
220,86,181452,2,0,P|287:41|318:52,1,89.9999972534181
401,246,181795,2,0,P|415:305|410:345,1,89.9999972534181
141,217,182137,1,0,0:0:0:0:
449,253,182308,2,0,P|465:300|463:356,1,89.9999972534181
423,335,182651,2,0,P|424:283|402:237,1,89.9999972534181
24,180,182994,5,0,0:0:0:0:
129,162,183165,2,0,P|111:205|118:261,1,89.9999972534181
339,322,183507,2,0,L|431:341,1,89.9999972534181
334,107,183850,6,0,L|252:153,1,89.9999972534181
433,270,184192,1,0,0:0:0:0:
105,137,184364,6,0,L|140:227,1,89.9999972534181
35,317,184706,1,0,0:0:0:0:
107,87,184877,6,0,L|38:155,1,89.9999972534181
359,197,185220,2,0,P|322:157|310:100,1,89.9999972534181
167,336,185562,1,0,0:0:0:0:
31,168,185734,6,0,L|124:195,1,89.9999972534181
426,256,186076,1,0,0:0:0:0:
68,36,186247,1,0,0:0:0:0:
255,192,186590,5,0,0:0:0:0:
