osu file format v14

[General]
AudioFilename: audio.mp3
AudioLeadIn: 0
PreviewTime: 87772
Countdown: 0
SampleSet: Normal
StackLeniency: 0.7
Mode: 1
LetterboxInBreaks: 0
WidescreenStoryboard: 1

[Editor]
Bookmarks: 21943,43886,54858,65829,76801,87772,98743,109715,112458,115201,117943,120686,123429,126172
DistanceSpacing: 1.04
BeatDivisor: 2
GridSize: 32
TimelineZoom: 1.6

[Metadata]
Title:Why We Lose (feat. Coleman Trapp) (Cut Ver.)
TitleUnicode:Why We Lose (feat. Coleman Trapp) (Cut Ver.)
Artist:Cartoon
ArtistUnicode:Cartoon
Creator:SWAKE
Version:Toofu's Kantan
Source:
Tags:ncs nocopyrightsounds liquid dnb drum and bass short version electronic english toofu scarlet remilia
BeatmapID:2826897
BeatmapSetID:1248836

[Difficulty]
HPDrainRate:8
CircleSize:2
OverallDifficulty:3.5
ApproachRate:0
SliderMultiplier:1.4
SliderTickRate:1

[Events]
//Background and Video events
0,0,"background-.jpg",0,30
//Break Periods
//Storyboard Layer 0 (Background)
//Storyboard Layer 1 (Fail)
//Storyboard Layer 2 (Pass)
//Storyboard Layer 3 (Foreground)
//Storyboard Layer 4 (Overlay)
//Storyboard Sound Samples

[TimingPoints]
16457,342.857142857143,4,1,0,60,1,0
43843,-100,4,1,0,70,0,0
65786,-100,4,1,0,60,0,0
87771,-100,4,1,0,80,0,1
109714,-100,4,1,0,80,0,0

[HitObjects]
207,232,21942,5,0,0:0:0:0:
207,232,22628,1,0,0:0:0:0:
207,232,23314,1,8,0:0:0:0:
207,232,23656,1,0,0:0:0:0:
207,232,23999,1,0,0:0:0:0:
207,264,25714,1,0,0:0:0:0:
207,264,26057,1,8,0:0:0:0:
175,232,26742,1,0,0:0:0:0:
207,264,27428,1,8,0:0:0:0:
205,270,28114,1,0,0:0:0:0:
207,264,28457,1,0,0:0:0:0:
207,264,28799,1,8,0:0:0:0:
207,264,29485,1,0,0:0:0:0:
175,232,31199,1,0,0:0:0:0:
175,232,31542,1,8,0:0:0:0:
175,232,32228,1,0,0:0:0:0:
207,262,32571,1,8,0:0:0:0:
175,232,32914,1,8,0:0:0:0:
191,216,33599,1,0,0:0:0:0:
175,232,34285,1,8,0:0:0:0:
175,232,34628,1,0,0:0:0:0:
175,232,34971,1,8,0:0:0:0:
239,264,36685,1,8,0:0:0:0:
239,264,37028,1,0,0:0:0:0:
239,264,37714,1,0,0:0:0:0:
239,264,38399,1,8,0:0:0:0:
239,264,39085,1,0,0:0:0:0:
232,267,39428,1,8,0:0:0:0:
239,264,39771,1,0,0:0:0:0:
239,264,40457,1,8,0:0:0:0:
256,192,41142,8,0,43199,0:0:0:0:
228,218,43885,5,12,0:0:0:0:
261,175,45085,1,0,0:0:0:0:
261,175,45942,1,0,0:0:0:0:
261,166,46285,1,0,0:0:0:0:
261,175,46628,1,8,0:0:0:0:
282,171,47828,1,0,0:0:0:0:
282,171,48685,1,8,0:0:0:0:
282,171,49028,1,0,0:0:0:0:
228,218,49371,1,0,0:0:0:0:
261,175,50571,5,0,0:0:0:0:
261,175,51428,1,8,0:0:0:0:
261,166,51771,1,0,0:0:0:0:
261,175,52114,1,8,0:0:0:0:
282,171,53314,1,8,0:0:0:0:
282,171,54171,1,0,0:0:0:0:
282,171,54514,1,0,0:0:0:0:
228,218,54857,5,12,0:0:0:0:
261,175,56057,1,0,0:0:0:0:
261,175,56914,1,8,0:0:0:0:
261,166,57257,1,0,0:0:0:0:
261,175,57599,1,0,0:0:0:0:
282,171,58799,1,8,0:0:0:0:
282,171,59657,1,0,0:0:0:0:
282,171,59999,1,0,0:0:0:0:
228,218,60342,1,8,0:0:0:0:
261,175,61542,5,0,0:0:0:0:
261,175,62399,1,0,0:0:0:0:
261,166,62742,1,8,0:0:0:0:
261,175,63085,1,0,0:0:0:0:
282,171,64285,1,8,0:0:0:0:
282,171,65142,1,0,0:0:0:0:
282,171,65485,1,0,0:0:0:0:
314,170,65828,1,12,0:0:0:0:
207,168,66514,1,8,0:0:0:0:
207,168,67199,1,0,0:0:0:0:
175,232,67885,1,8,0:0:0:0:
175,232,68571,1,8,0:0:0:0:
175,232,69942,1,8,0:0:0:0:
175,232,70628,1,8,0:0:0:0:
175,232,71314,1,0,0:0:0:0:
175,232,72685,1,0,0:0:0:0:
175,232,74057,1,8,0:0:0:0:
175,232,74742,1,0,0:0:0:0:
175,232,75428,1,8,0:0:0:0:
207,232,76799,1,0,0:0:0:0:
207,232,77828,1,0,0:0:0:0:
175,232,78171,1,8,0:0:0:0:
209,243,78857,1,0,0:0:0:0:
175,232,79542,1,8,0:0:0:0:
175,232,80914,1,8,0:0:0:0:
175,232,81257,1,0,0:0:0:0:
229,220,81599,1,0,0:0:0:0:
175,232,82285,1,8,0:0:0:0:
214,221,82971,1,0,0:0:0:0:
175,232,83657,1,0,0:0:0:0:
175,232,84342,1,8,0:0:0:0:
215,249,84685,1,0,0:0:0:0:
207,264,85028,1,8,0:0:0:0:
207,264,85714,1,0,0:0:0:0:
207,264,86399,1,8,0:0:0:0:
305,43,87771,1,4,0:0:0:0:
305,43,88799,1,0,0:0:0:0:
305,43,89142,1,8,0:0:0:0:
273,133,89828,1,0,0:0:0:0:
273,133,90171,1,0,0:0:0:0:
273,133,90514,1,8,0:0:0:0:
288,116,91542,1,0,0:0:0:0:
288,116,91885,1,8,0:0:0:0:
298,98,92571,1,8,0:0:0:0:
298,98,92914,1,0,0:0:0:0:
298,98,93257,1,0,0:0:0:0:
270,124,93942,1,8,0:0:0:0:
270,124,94457,1,0,0:0:0:0:
270,124,94971,1,0,0:0:0:0:
270,124,95314,1,8,0:0:0:0:
208,16,95999,1,0,0:0:0:0:
237,60,96685,1,8,0:0:0:0:
237,60,97199,1,0,0:0:0:0:
237,60,97714,1,0,0:0:0:0:
237,60,98057,1,8,0:0:0:0:
257,213,98742,5,4,0:0:0:0:
257,213,99771,1,0,0:0:0:0:
257,213,100114,1,8,0:0:0:0:
270,192,100799,1,0,0:0:0:0:
272,221,101142,1,0,0:0:0:0:
257,213,101485,1,8,0:0:0:0:
282,50,102514,1,0,0:0:0:0:
282,50,102857,1,8,0:0:0:0:
221,60,103542,1,8,0:0:0:0:
221,60,103885,1,0,0:0:0:0:
270,59,104228,1,0,0:0:0:0:
234,73,104914,1,8,0:0:0:0:
319,71,105428,1,0,0:0:0:0:
227,28,105942,1,0,0:0:0:0:
236,64,106285,1,8,0:0:0:0:
285,82,106971,1,8,0:0:0:0:
217,29,107657,1,8,0:0:0:0:
217,29,108171,1,0,0:0:0:0:
184,85,108685,1,0,0:0:0:0:
184,85,109028,1,8,0:0:0:0:
291,121,109714,5,12,0:0:0:0:
290,111,110742,1,0,0:0:0:0:
305,113,111085,1,8,0:0:0:0:
323,126,111771,1,8,0:0:0:0:
323,126,112114,1,0,0:0:0:0:
291,121,112457,1,8,0:0:0:0:
305,113,113828,1,8,0:0:0:0:
323,126,114514,5,8,0:0:0:0:
323,126,114857,1,0,0:0:0:0:
291,121,115199,1,8,0:0:0:0:
305,113,116571,1,8,0:0:0:0:
323,126,117257,1,8,0:0:0:0:
323,126,117599,1,0,0:0:0:0:
269,124,117942,1,0,0:0:0:0:
255,105,118628,1,8,0:0:0:0:
207,264,119314,1,8,0:0:0:0:
238,132,119999,1,0,0:0:0:0:
207,264,120342,1,0,0:0:0:0:
291,121,120685,1,12,0:0:0:0:
290,111,121714,1,8,0:0:0:0:
305,113,122057,1,0,0:0:0:0:
323,126,122742,1,0,0:0:0:0:
323,126,123085,1,8,0:0:0:0:
291,121,123428,1,8,0:0:0:0:
305,113,124799,1,0,0:0:0:0:
323,126,125485,1,0,0:0:0:0:
323,126,125828,1,8,0:0:0:0:
291,121,126171,1,0,0:0:0:0:
305,113,127542,1,0,0:0:0:0:
323,126,128228,1,0,0:0:0:0:
323,126,128571,1,8,0:0:0:0:
291,121,128914,1,0,0:0:0:0:
348,112,129599,1,0,0:0:0:0:
256,192,130285,12,0,132685,0:0:0:0:
