osu file format v14

[General]
AudioFilename: audio.mp3
AudioLeadIn: 0
PreviewTime: 87772
Countdown: 0
SampleSet: Normal
StackLeniency: 0.7
Mode: 1
LetterboxInBreaks: 0
WidescreenStoryboard: 0

[Editor]
Bookmarks: 21943,32914,43886,65829,76801,87772,98743,109715,112458,115201,117943,120686,123429,126172
DistanceSpacing: 1.04
BeatDivisor: 4
GridSize: 4
TimelineZoom: 3.299999

[Metadata]
Title:Why We Lose (feat. Coleman Trapp) (Cut Ver.)
TitleUnicode:Why We Lose (feat. Coleman Trapp) (Cut Ver.)
Artist:Cartoon
ArtistUnicode:Cartoon
Creator:SWAKE
Version:Inner Oni
Source:
Tags:ncs nocopyrightsounds liquid dnb drum and bass short version electronic english toofu scarlet remilia
BeatmapID:2595585
BeatmapSetID:1248836

[Difficulty]
HPDrainRate:5.5
CircleSize:5
OverallDifficulty:5.5
ApproachRate:5
SliderMultiplier:1.4
SliderTickRate:1

[Events]
//Background and Video events
0,0,"background-.jpg",0,30
//Break Periods
//Storyboard Layer 0 (Background)
//Storyboard Layer 1 (Fail)
//Storyboard Layer 2 (Pass)
//Storyboard Layer 3 (Foreground)
//Storyboard Layer 4 (Overlay)
//Storyboard Sound Samples

[TimingPoints]
16457,342.857142857143,4,1,0,60,1,0
21901,-125,4,1,0,60,0,0
42986,-121.951219512195,4,1,0,60,0,0
43158,-119.047619047619,4,1,0,60,0,0
43329,-116.279069767442,4,1,0,60,0,0
43672,-113.636363636364,4,1,0,60,0,0
43843,-111.111111111111,4,1,0,70,0,0
65786,-125,4,1,0,60,0,0
76758,-142.857142857143,4,1,0,40,0,0
76929,-140.845070422535,4,1,0,41,0,0
77101,-138.888888888889,4,1,0,42,0,0
77272,-136.986301369863,4,1,0,43,0,0
77443,-135.135135135135,4,1,0,44,0,0
77615,-133.333333333334,4,1,0,45,0,0
77786,-131.578947368421,4,1,0,46,0,0
77958,-129.87012987013,4,1,0,47,0,0
78129,-128.205128205128,4,1,0,48,0,0
78301,-126.582278481013,4,1,0,49,0,0
78472,-125,4,1,0,50,0,0
78643,-123.456790123457,4,1,0,51,0,0
78815,-121.951219512195,4,1,0,52,0,0
78986,-120.481927710843,4,1,0,53,0,0
79158,-119.047619047619,4,1,0,54,0,0
79329,-117.647058823529,4,1,0,55,0,0
79501,-116.279069767442,4,1,0,56,0,0
79843,-114.942528735632,4,1,0,58,0,0
80015,-113.636363636364,4,1,0,59,0,0
80186,-112.359550561798,4,1,0,60,0,0
80357,-111.111111111111,4,1,0,61,0,0
80529,-109.89010989011,4,1,0,62,0,0
80700,-108.695652173913,4,1,0,63,0,0
80872,-107.52688172043,4,1,0,64,0,0
81043,-106.382978723404,4,1,0,65,0,0
81215,-105.263157894737,4,1,0,66,0,0
81386,-104.166666666667,4,1,0,67,0,0
81557,-103.092783505155,4,1,0,68,0,0
81729,-102.040816326531,4,1,0,69,0,0
81900,-101.010101010101,4,1,0,70,0,0
82072,-100,4,1,0,71,0,0
82243,-99.0099009900991,4,1,0,72,0,0
82586,-98.0392156862744,4,1,0,74,0,0
82758,-97.0873786407764,4,1,0,75,0,0
82929,-96.1538461538461,4,1,0,76,0,0
83100,-95.238095238095,4,1,0,77,0,0
83272,-94.3396226415095,4,1,0,78,0,0
83443,-93.4579439252336,4,1,0,79,0,0
83615,-92.5925925925929,4,1,0,80,0,0
83786,-91.7431192660552,4,1,0,80,0,0
83958,-90.9090909090908,4,1,0,80,0,0
84129,-90.9090909090909,4,1,0,80,0,0
84300,-90.9090909090909,4,1,0,80,0,0
84472,-90.9090909090909,4,1,0,80,0,0
84643,-90.9090909090909,4,1,0,80,0,0
84815,-90.9090909090909,4,1,0,80,0,0
84986,-90.9090909090909,4,1,0,80,0,0
85072,-90.9090909090909,4,1,0,80,0,0
85158,-90.9090909090909,4,1,0,80,0,0
85243,-90.9090909090909,4,1,0,80,0,0
85329,-90.9090909090909,4,1,0,80,0,0
85415,-90.9090909090909,4,1,0,80,0,0
85501,-90.9090909090909,4,1,0,80,0,0
85586,-90.9090909090909,4,1,0,80,0,0
85672,-90.9090909090909,4,1,0,80,0,0
85758,-90.9090909090909,4,1,0,80,0,0
85843,-90.9090909090909,4,1,0,80,0,0
85929,-90.9090909090909,4,1,0,80,0,0
86015,-90.9090909090909,4,1,0,80,0,0
86101,-90.9090909090909,4,1,0,80,0,0
86186,-90.9090909090909,4,1,0,80,0,0
86272,-90.9090909090909,4,1,0,80,0,0
86358,-90.9090909090909,4,1,0,80,0,0
87771,-90.9090909090909,4,1,0,80,0,1
106828,-90.0900900900901,4,1,0,80,0,1
106885,-88.4955752212389,4,1,0,80,0,1
106929,-86.9565217391304,4,1,0,80,0,1
109714,-86.9565217391304,4,1,0,80,0,0
110015,-95.2380952380952,4,1,0,80,0,0
120643,-86.9565217391304,4,1,0,80,0,0
120986,-95.2380952380952,4,1,0,80,0,0
126129,-96.1538461538461,4,1,0,80,0,0
126472,-97.0873786407767,4,1,0,80,0,0
126642,-98.0392156862745,4,1,0,80,0,0
126728,-99.009900990099,4,1,0,80,0,0
126814,-100,4,1,0,80,0,0
128872,-102.040816326531,4,1,0,80,0,0
129043,-104.166666666667,4,1,0,80,0,0
129215,-106.382978723404,4,1,0,80,0,0
129386,-108.695652173913,4,1,0,80,0,0
129558,-111.111111111111,4,1,0,80,0,0
129729,-113.636363636364,4,1,0,80,0,0
129901,-116.279069767442,4,1,0,80,0,0
130072,-119.047619047619,4,1,0,80,0,0
130243,-121.951219512195,4,1,0,80,0,0

[HitObjects]
226,243,21942,5,0,0:0:0:0:
148,252,22456,1,8,0:0:0:0:
211,185,22628,1,0,0:0:0:0:
123,246,22971,1,8,0:0:0:0:
413,226,23142,1,8,0:0:0:0:
211,185,23314,1,0,0:0:0:0:
248,154,23485,1,8,0:0:0:0:
248,154,23828,1,8,0:0:0:0:
254,122,23999,1,0,0:0:0:0:
254,122,24342,1,8,0:0:0:0:
254,122,24685,1,0,0:0:0:0:
281,235,25371,1,0,0:0:0:0:
160,265,25714,1,8,0:0:0:0:
325,248,25885,1,8,0:0:0:0:
189,136,26057,1,0,0:0:0:0:
325,248,26228,1,0,0:0:0:0:
189,136,26571,1,8,0:0:0:0:
189,136,26742,1,0,0:0:0:0:
213,95,27085,1,8,0:0:0:0:
213,95,27428,1,0,0:0:0:0:
180,293,27942,1,8,0:0:0:0:
309,275,28114,1,0,0:0:0:0:
180,293,28457,1,8,0:0:0:0:
255,252,28628,1,0,0:0:0:0:
255,252,28799,1,0,0:0:0:0:
257,267,28971,1,8,0:0:0:0:
257,267,29314,1,8,0:0:0:0:
257,267,29485,1,0,0:0:0:0:
257,267,29828,1,8,0:0:0:0:
257,267,30171,1,0,0:0:0:0:
278,173,30857,1,0,0:0:0:0:
194,142,31199,1,8,0:0:0:0:
278,173,31371,1,8,0:0:0:0:
278,173,31542,1,0,0:0:0:0:
278,173,31714,1,8,0:0:0:0:
278,173,32057,1,8,0:0:0:0:
278,173,32228,1,0,0:0:0:0:
278,173,32571,1,8,0:0:0:0:
226,243,32914,1,0,0:0:0:0:
361,144,33428,1,8,0:0:0:0:
211,185,33599,1,0,0:0:0:0:
228,61,33942,1,8,0:0:0:0:
413,226,34114,1,8,0:0:0:0:
211,185,34285,1,0,0:0:0:0:
248,154,34457,1,8,0:0:0:0:
248,154,34799,1,8,0:0:0:0:
254,122,34971,1,0,0:0:0:0:
254,122,35314,1,8,0:0:0:0:
254,122,35657,1,0,0:0:0:0:
281,235,36342,1,0,0:0:0:0:
224,142,36685,1,8,0:0:0:0:
325,248,36857,1,8,0:0:0:0:
263,170,37028,1,0,0:0:0:0:
325,248,37199,1,0,0:0:0:0:
189,136,37542,1,8,0:0:0:0:
189,136,37714,1,0,0:0:0:0:
213,95,38057,1,8,0:0:0:0:
213,95,38399,1,0,0:0:0:0:
245,104,38914,1,8,0:0:0:0:
309,275,39085,1,0,0:0:0:0:
222,140,39428,1,8,0:0:0:0:
255,252,39599,1,0,0:0:0:0:
255,252,39771,1,0,0:0:0:0:
257,267,39942,1,8,0:0:0:0:
257,267,40285,1,8,0:0:0:0:
257,267,40457,1,0,0:0:0:0:
257,267,40799,1,8,0:0:0:0:
257,267,41142,1,0,0:0:0:0:
278,173,41828,1,0,0:0:0:0:
222,140,42171,1,0,0:0:0:0:
278,173,42342,1,8,0:0:0:0:
278,173,42685,1,8,0:0:0:0:
278,173,43028,1,8,0:0:0:0:
278,173,43199,1,0,0:0:0:0:
323,236,43371,1,0,0:0:0:0:
194,167,43714,1,8,0:0:0:0:
291,192,43885,1,12,0:0:0:0:
254,182,44571,1,8,0:0:0:0:
51,347,44914,1,0,0:0:0:0:
254,182,45085,1,8,0:0:0:0:
254,182,45428,1,8,0:0:0:0:
254,182,45771,1,0,0:0:0:0:
254,182,45942,1,8,0:0:0:0:
241,96,46285,1,0,0:0:0:0:
241,96,46628,1,8,0:0:0:0:
239,130,47314,1,8,0:0:0:0:
150,298,47657,1,0,0:0:0:0:
239,130,47828,1,8,0:0:0:0:
239,130,48171,1,8,0:0:0:0:
239,130,48514,1,0,0:0:0:0:
288,229,48599,1,0,0:0:0:0:
239,130,48685,1,8,0:0:0:0:
264,109,49028,1,8,0:0:0:0:
225,130,49371,1,0,0:0:0:0:
225,130,50057,1,0,0:0:0:0:
115,239,50399,1,0,0:0:0:0:
225,130,50571,1,0,0:0:0:0:
225,130,50914,1,0,0:0:0:0:
260,92,51257,1,0,0:0:0:0:
260,92,51428,1,8,0:0:0:0:
260,92,51771,1,8,0:0:0:0:
260,92,52114,1,0,0:0:0:0:
260,92,52799,1,0,0:0:0:0:
100,233,53142,1,0,0:0:0:0:
260,92,53314,1,0,0:0:0:0:
260,92,53657,1,0,0:0:0:0:
260,92,53999,1,0,0:0:0:0:
260,92,54171,1,8,0:0:0:0:
260,92,54514,1,8,0:0:0:0:
291,192,54857,1,12,0:0:0:0:
254,182,55542,1,8,0:0:0:0:
166,187,55885,1,0,0:0:0:0:
254,182,56057,1,8,0:0:0:0:
254,182,56399,1,8,0:0:0:0:
254,182,56742,1,0,0:0:0:0:
254,182,56914,1,8,0:0:0:0:
241,96,57257,1,0,0:0:0:0:
241,96,57599,1,8,0:0:0:0:
239,130,58285,1,8,0:0:0:0:
111,247,58628,1,0,0:0:0:0:
239,130,58799,1,8,0:0:0:0:
239,130,59142,1,8,0:0:0:0:
239,130,59485,1,0,0:0:0:0:
279,191,59571,1,0,0:0:0:0:
239,130,59657,1,8,0:0:0:0:
264,109,59999,1,8,0:0:0:0:
225,130,60342,1,0,0:0:0:0:
225,130,61028,1,0,0:0:0:0:
122,228,61371,1,0,0:0:0:0:
225,130,61542,1,0,0:0:0:0:
225,130,61885,1,8,0:0:0:0:
260,92,62228,1,0,0:0:0:0:
260,92,62399,1,8,0:0:0:0:
260,92,62742,1,8,0:0:0:0:
260,92,63085,1,0,0:0:0:0:
260,92,63771,1,0,0:0:0:0:
195,252,64114,1,0,0:0:0:0:
260,92,64285,1,0,0:0:0:0:
260,92,64628,1,8,0:0:0:0:
260,92,64971,1,0,0:0:0:0:
260,92,65142,1,8,0:0:0:0:
332,154,65485,1,8,0:0:0:0:
332,154,65828,1,4,0:0:0:0:
329,275,66514,1,8,0:0:0:0:
294,121,66857,1,0,0:0:0:0:
150,200,67028,1,8,0:0:0:0:
294,126,67199,1,8,0:0:0:0:
150,200,67371,1,8,0:0:0:0:
150,200,67542,1,0,0:0:0:0:
150,200,67885,1,8,0:0:0:0:
150,200,68228,1,0,0:0:0:0:
224,240,68571,1,8,0:0:0:0:
224,240,69257,1,8,0:0:0:0:
269,134,69942,1,8,0:0:0:0:
196,209,70114,1,0,0:0:0:0:
196,209,70285,1,0,0:0:0:0:
196,209,70628,1,8,0:0:0:0:
276,138,70971,1,8,0:0:0:0:
196,209,71314,1,0,0:0:0:0:
196,209,71999,1,8,0:0:0:0:
241,279,72514,1,8,0:0:0:0:
279,231,72685,1,0,0:0:0:0:
275,246,72857,1,8,0:0:0:0:
275,247,73028,1,8,0:0:0:0:
275,247,73371,1,8,0:0:0:0:
275,246,73714,1,0,0:0:0:0:
275,247,73885,1,0,0:0:0:0:
276,219,74057,1,8,0:0:0:0:
276,219,74742,1,8,0:0:0:0:
351,189,75428,1,0,0:0:0:0:
276,219,75599,1,8,0:0:0:0:
173,318,75942,1,0,0:0:0:0:
117,183,76114,1,8,0:0:0:0:
351,189,76457,1,0,0:0:0:0:
117,183,76799,1,0,0:0:0:0:
242,196,76971,5,0,0:0:0:0:
242,196,77142,1,0,0:0:0:0:
242,196,77314,1,0,0:0:0:0:
242,196,77485,1,8,0:0:0:0:
242,196,77657,1,8,0:0:0:0:
242,196,77828,1,8,0:0:0:0:
242,196,77999,1,8,0:0:0:0:
242,196,78171,1,0,0:0:0:0:
242,196,78342,1,0,0:0:0:0:
242,196,78514,1,0,0:0:0:0:
242,196,78685,1,0,0:0:0:0:
242,196,78857,1,8,0:0:0:0:
242,196,79028,1,8,0:0:0:0:
242,196,79199,1,8,0:0:0:0:
242,196,79371,1,8,0:0:0:0:
242,196,79542,1,0,0:0:0:0:
242,196,79885,1,0,0:0:0:0:
242,196,80057,1,0,0:0:0:0:
242,196,80228,1,8,0:0:0:0:
242,196,80399,1,8,0:0:0:0:
242,196,80571,1,8,0:0:0:0:
242,196,80742,1,8,0:0:0:0:
242,196,80914,1,0,0:0:0:0:
242,196,81085,1,0,0:0:0:0:
242,196,81257,1,0,0:0:0:0:
242,196,81428,1,0,0:0:0:0:
242,196,81599,1,8,0:0:0:0:
242,196,81771,1,8,0:0:0:0:
242,196,81942,1,8,0:0:0:0:
242,196,82114,1,8,0:0:0:0:
242,196,82285,1,0,0:0:0:0:
242,196,82628,1,0,0:0:0:0:
242,196,82799,1,0,0:0:0:0:
242,196,82971,1,8,0:0:0:0:
242,196,83142,1,8,0:0:0:0:
242,196,83314,1,8,0:0:0:0:
242,196,83485,1,8,0:0:0:0:
242,196,83657,1,0,0:0:0:0:
242,196,83828,1,0,0:0:0:0:
242,196,83999,1,0,0:0:0:0:
242,196,84171,1,0,0:0:0:0:
242,196,84342,1,8,0:0:0:0:
242,196,84514,1,8,0:0:0:0:
242,196,84685,1,8,0:0:0:0:
242,196,84857,1,8,0:0:0:0:
242,196,85028,1,0,0:0:0:0:
228,110,85114,1,0,0:0:0:0:
240,148,85199,1,0,0:0:0:0:
240,148,85285,1,0,0:0:0:0:
278,161,85371,1,8,0:0:0:0:
278,161,85457,1,8,0:0:0:0:
278,161,85542,1,0,0:0:0:0:
278,161,85628,1,0,0:0:0:0:
278,161,85714,1,8,0:0:0:0:
278,161,85799,1,0,0:0:0:0:
278,161,85885,1,8,0:0:0:0:
278,161,85971,1,8,0:0:0:0:
278,161,86057,1,0,0:0:0:0:
278,161,86142,1,0,0:0:0:0:
231,162,86228,5,8,0:0:0:0:
231,162,86314,1,0,0:0:0:0:
240,148,86399,1,8,0:0:0:0:
231,220,87771,5,4,0:0:0:0:
314,224,87942,1,0,0:0:0:0:
261,145,88114,1,8,0:0:0:0:
314,224,88285,1,0,0:0:0:0:
314,224,88371,1,0,0:0:0:0:
314,224,88457,1,8,0:0:0:0:
314,224,88542,1,0,0:0:0:0:
314,224,88628,1,0,0:0:0:0:
294,149,88799,1,8,0:0:0:0:
245,211,88971,5,8,0:0:0:0:
245,211,89057,1,8,0:0:0:0:
245,211,89142,1,0,0:0:0:0:
245,211,89314,5,8,0:0:0:0:
245,211,89399,1,8,0:0:0:0:
245,211,89485,1,8,0:0:0:0:
330,210,89657,1,8,0:0:0:0:
320,229,89828,1,8,0:0:0:0:
189,179,89914,1,0,0:0:0:0:
225,182,89999,1,0,0:0:0:0:
225,182,90085,1,0,0:0:0:0:
225,182,90171,1,8,0:0:0:0:
246,218,90342,1,8,0:0:0:0:
360,152,90399,1,8,0:0:0:0:
360,152,90457,1,8,0:0:0:0:
246,218,90514,1,0,0:0:0:0:
294,152,90685,1,0,0:0:0:0:
294,152,90857,1,8,0:0:0:0:
294,152,91028,1,0,0:0:0:0:
294,152,91114,1,8,0:0:0:0:
318,265,91199,1,0,0:0:0:0:
294,152,91285,1,8,0:0:0:0:
174,90,91371,1,0,0:0:0:0:
174,120,91542,1,8,0:0:0:0:
245,211,91714,5,8,0:0:0:0:
245,211,91799,1,8,0:0:0:0:
245,211,91885,1,0,0:0:0:0:
245,211,92057,5,8,0:0:0:0:
245,211,92142,1,8,0:0:0:0:
245,211,92228,1,8,0:0:0:0:
330,210,92399,1,8,0:0:0:0:
320,229,92571,1,8,0:0:0:0:
189,179,92657,1,8,0:0:0:0:
225,182,92742,1,0,0:0:0:0:
225,182,92828,1,0,0:0:0:0:
225,182,92914,1,8,0:0:0:0:
246,218,93085,1,8,0:0:0:0:
246,218,93257,1,0,0:0:0:0:
192,170,93428,1,0,0:0:0:0:
192,170,93599,1,8,0:0:0:0:
193,163,93771,1,0,0:0:0:0:
193,163,93857,1,8,0:0:0:0:
193,163,94028,1,8,0:0:0:0:
193,163,94114,1,0,0:0:0:0:
231,145,94285,1,8,0:0:0:0:
208,213,94457,1,8,0:0:0:0:
208,213,94542,1,0,0:0:0:0:
208,213,94628,1,0,0:0:0:0:
208,213,94799,1,8,0:0:0:0:
208,213,94885,1,0,0:0:0:0:
208,213,94971,1,8,0:0:0:0:
265,165,95142,1,0,0:0:0:0:
242,140,95314,1,8,0:0:0:0:
242,140,95399,1,0,0:0:0:0:
242,140,95485,1,8,0:0:0:0:
242,140,95571,1,8,0:0:0:0:
242,140,95657,1,0,0:0:0:0:
247,131,95828,1,8,0:0:0:0:
243,104,95885,1,8,0:0:0:0:
243,104,95942,1,8,0:0:0:0:
247,132,95999,1,0,0:0:0:0:
192,171,96171,1,0,0:0:0:0:
192,171,96342,1,8,0:0:0:0:
153,144,96514,1,0,0:0:0:0:
153,144,96599,1,8,0:0:0:0:
207,173,96771,1,8,0:0:0:0:
207,173,96857,1,0,0:0:0:0:
206,157,97028,1,8,0:0:0:0:
208,213,97199,1,8,0:0:0:0:
208,213,97285,1,0,0:0:0:0:
208,213,97371,1,0,0:0:0:0:
208,213,97542,1,8,0:0:0:0:
208,213,97628,1,0,0:0:0:0:
208,213,97714,1,8,0:0:0:0:
265,165,97885,1,0,0:0:0:0:
242,140,98057,1,8,0:0:0:0:
242,140,98142,1,0,0:0:0:0:
242,140,98228,1,8,0:0:0:0:
242,140,98314,1,8,0:0:0:0:
242,140,98399,1,0,0:0:0:0:
247,131,98571,1,8,0:0:0:0:
294,151,98614,1,8,0:0:0:0:
231,220,98742,5,4,0:0:0:0:
314,224,98914,1,0,0:0:0:0:
261,145,99085,1,8,0:0:0:0:
314,224,99257,1,0,0:0:0:0:
314,224,99342,1,0,0:0:0:0:
314,224,99428,1,8,0:0:0:0:
314,224,99514,1,8,0:0:0:0:
314,224,99599,1,0,0:0:0:0:
294,150,99771,1,8,0:0:0:0:
245,211,99942,5,8,0:0:0:0:
245,211,100028,1,8,0:0:0:0:
245,211,100114,1,0,0:0:0:0:
245,211,100285,5,8,0:0:0:0:
245,211,100371,1,8,0:0:0:0:
245,211,100457,1,8,0:0:0:0:
330,210,100628,1,8,0:0:0:0:
320,229,100799,1,8,0:0:0:0:
189,179,100885,1,8,0:0:0:0:
225,182,100971,1,0,0:0:0:0:
225,182,101057,1,0,0:0:0:0:
225,182,101142,1,8,0:0:0:0:
246,218,101314,1,8,0:0:0:0:
221,96,101371,1,8,0:0:0:0:
221,96,101428,1,8,0:0:0:0:
246,218,101485,1,0,0:0:0:0:
294,152,101657,1,0,0:0:0:0:
294,152,101828,1,8,0:0:0:0:
294,152,101999,1,0,0:0:0:0:
294,152,102085,1,8,0:0:0:0:
318,265,102171,1,0,0:0:0:0:
294,152,102257,1,8,0:0:0:0:
174,90,102342,1,0,0:0:0:0:
174,120,102514,1,8,0:0:0:0:
245,211,102685,5,8,0:0:0:0:
245,211,102771,1,8,0:0:0:0:
245,211,102857,1,0,0:0:0:0:
245,211,103028,5,8,0:0:0:0:
245,211,103114,1,8,0:0:0:0:
245,211,103199,1,8,0:0:0:0:
330,210,103371,1,8,0:0:0:0:
320,229,103542,1,8,0:0:0:0:
189,179,103628,1,0,0:0:0:0:
225,182,103714,1,0,0:0:0:0:
225,182,103799,1,0,0:0:0:0:
225,182,103885,1,8,0:0:0:0:
246,218,104057,1,8,0:0:0:0:
246,218,104228,1,0,0:0:0:0:
192,170,104399,1,0,0:0:0:0:
192,170,104571,1,8,0:0:0:0:
193,163,104742,1,0,0:0:0:0:
193,163,104828,1,8,0:0:0:0:
193,163,104999,1,8,0:0:0:0:
193,163,105085,1,0,0:0:0:0:
231,145,105257,1,8,0:0:0:0:
208,213,105428,1,8,0:0:0:0:
208,213,105514,1,0,0:0:0:0:
208,213,105599,1,0,0:0:0:0:
208,213,105771,1,8,0:0:0:0:
208,213,105857,1,0,0:0:0:0:
208,213,105942,1,8,0:0:0:0:
265,165,106114,1,0,0:0:0:0:
242,140,106285,1,0,0:0:0:0:
242,140,106371,1,0,0:0:0:0:
242,140,106457,1,8,0:0:0:0:
242,140,106542,1,8,0:0:0:0:
242,140,106628,1,0,0:0:0:0:
247,131,106799,1,0,0:0:0:0:
329,224,106857,1,0,0:0:0:0:
329,224,106914,1,0,0:0:0:0:
301,184,106971,1,8,0:0:0:0:
340,260,107142,1,0,0:0:0:0:
340,260,107314,1,0,0:0:0:0:
340,260,107485,1,8,0:0:0:0:
189,125,107657,1,0,0:0:0:0:
189,125,107828,1,0,0:0:0:0:
189,125,107999,1,8,0:0:0:0:
189,125,108171,1,0,0:0:0:0:
189,125,108342,1,8,0:0:0:0:
198,163,108514,1,0,0:0:0:0:
198,163,108685,1,0,0:0:0:0:
208,129,108857,1,8,0:0:0:0:
208,130,109028,1,0,0:0:0:0:
208,130,109199,1,8,0:0:0:0:
208,129,109371,1,8,0:0:0:0:
223,213,109542,1,8,0:0:0:0:
351,171,109585,1,8,0:0:0:0:
283,227,109714,1,4,0:0:0:0:
278,135,110057,1,8,0:0:0:0:
267,145,110228,1,8,0:0:0:0:
267,145,110314,1,0,0:0:0:0:
267,145,110399,1,8,0:0:0:0:
205,144,110485,1,8,0:0:0:0:
205,144,110571,1,0,0:0:0:0:
205,144,110742,1,8,0:0:0:0:
207,152,110914,1,8,0:0:0:0:
207,152,110999,1,8,0:0:0:0:
194,153,111085,1,0,0:0:0:0:
275,205,111257,1,0,0:0:0:0:
269,206,111428,1,8,0:0:0:0:
263,137,111599,1,0,0:0:0:0:
226,113,111685,1,0,0:0:0:0:
226,113,111771,1,8,0:0:0:0:
226,113,111857,1,0,0:0:0:0:
226,113,111942,1,0,0:0:0:0:
336,174,112114,1,8,0:0:0:0:
301,270,112285,1,8,0:0:0:0:
336,174,112457,1,0,0:0:0:0:
335,263,112714,1,0,0:0:0:0:
220,153,112799,1,8,0:0:0:0:
224,202,112971,1,8,0:0:0:0:
224,202,113057,1,0,0:0:0:0:
217,181,113142,1,0,0:0:0:0:
217,181,113228,1,8,0:0:0:0:
217,181,113314,1,0,0:0:0:0:
230,93,113485,1,8,0:0:0:0:
321,253,113657,1,8,0:0:0:0:
251,260,113742,1,8,0:0:0:0:
321,253,113828,1,0,0:0:0:0:
251,260,113999,1,0,0:0:0:0:
251,260,114085,1,0,0:0:0:0:
251,260,114171,1,8,0:0:0:0:
251,260,114342,1,0,0:0:0:0:
260,197,114514,1,8,0:0:0:0:
212,151,114599,1,0,0:0:0:0:
212,151,114685,1,0,0:0:0:0:
232,149,114771,1,0,0:0:0:0:
230,150,114857,1,8,0:0:0:0:
229,182,115028,1,8,0:0:0:0:
237,171,115199,1,0,0:0:0:0:
211,117,115457,1,0,0:0:0:0:
237,171,115542,1,8,0:0:0:0:
237,171,115714,1,0,0:0:0:0:
260,188,115799,1,0,0:0:0:0:
250,188,115885,1,8,0:0:0:0:
250,188,115971,1,8,0:0:0:0:
250,188,116057,1,0,0:0:0:0:
250,188,116228,1,8,0:0:0:0:
250,188,116399,1,8,0:0:0:0:
250,188,116571,1,0,0:0:0:0:
304,183,116657,1,8,0:0:0:0:
250,188,116742,1,0,0:0:0:0:
250,188,116914,1,8,0:0:0:0:
250,188,117085,1,8,0:0:0:0:
250,188,117257,1,0,0:0:0:0:
250,188,117342,1,8,0:0:0:0:
250,188,117428,1,0,0:0:0:0:
250,188,117514,1,0,0:0:0:0:
250,188,117599,1,8,0:0:0:0:
253,198,117771,1,8,0:0:0:0:
253,199,117942,1,0,0:0:0:0:
211,116,118199,1,0,0:0:0:0:
226,198,118285,1,8,0:0:0:0:
226,198,118457,1,0,0:0:0:0:
226,198,118542,1,0,0:0:0:0:
226,198,118628,1,8,0:0:0:0:
226,198,118714,1,8,0:0:0:0:
226,198,118799,1,0,0:0:0:0:
226,198,118971,1,8,0:0:0:0:
226,198,119142,1,8,0:0:0:0:
226,198,119228,1,8,0:0:0:0:
226,198,119314,1,0,0:0:0:0:
226,198,119485,1,0,0:0:0:0:
212,197,119657,1,8,0:0:0:0:
208,197,119828,1,0,0:0:0:0:
200,195,119914,1,8,0:0:0:0:
200,196,119999,1,0,0:0:0:0:
200,196,120085,1,8,0:0:0:0:
200,196,120171,1,0,0:0:0:0:
225,154,120342,1,8,0:0:0:0:
225,154,120514,1,8,0:0:0:0:
283,227,120685,1,4,0:0:0:0:
278,135,121028,1,8,0:0:0:0:
267,145,121199,1,8,0:0:0:0:
267,145,121285,1,0,0:0:0:0:
267,145,121371,1,8,0:0:0:0:
205,144,121457,1,8,0:0:0:0:
205,144,121542,1,0,0:0:0:0:
205,144,121714,1,8,0:0:0:0:
207,152,121885,1,8,0:0:0:0:
207,152,121971,1,8,0:0:0:0:
194,153,122057,1,0,0:0:0:0:
275,205,122228,1,0,0:0:0:0:
269,206,122399,1,8,0:0:0:0:
263,137,122571,1,0,0:0:0:0:
226,113,122657,1,0,0:0:0:0:
226,113,122742,1,8,0:0:0:0:
226,113,122828,1,0,0:0:0:0:
226,113,122914,1,0,0:0:0:0:
336,174,123085,1,8,0:0:0:0:
336,174,123428,1,0,0:0:0:0:
266,142,123599,1,0,0:0:0:0:
266,142,123685,1,0,0:0:0:0:
220,153,123771,1,8,0:0:0:0:
224,202,123942,1,8,0:0:0:0:
224,202,124028,1,0,0:0:0:0:
217,181,124114,1,0,0:0:0:0:
217,181,124199,1,8,0:0:0:0:
217,181,124285,1,0,0:0:0:0:
230,93,124457,1,8,0:0:0:0:
321,253,124628,1,8,0:0:0:0:
251,260,124714,1,8,0:0:0:0:
321,253,124799,1,0,0:0:0:0:
251,260,124971,1,0,0:0:0:0:
251,260,125057,1,0,0:0:0:0:
251,260,125142,1,8,0:0:0:0:
251,260,125314,1,0,0:0:0:0:
260,197,125485,1,8,0:0:0:0:
212,151,125571,1,0,0:0:0:0:
212,151,125657,1,0,0:0:0:0:
232,149,125742,1,0,0:0:0:0:
230,150,125828,1,8,0:0:0:0:
229,182,125999,1,8,0:0:0:0:
237,171,126171,1,0,0:0:0:0:
237,171,126514,1,8,0:0:0:0:
322,224,126685,1,8,0:0:0:0:
322,224,126771,1,8,0:0:0:0:
267,142,126857,1,0,0:0:0:0:
322,224,127028,1,0,0:0:0:0:
267,142,127199,1,8,0:0:0:0:
248,174,127542,1,0,0:0:0:0:
117,204,127628,1,0,0:0:0:0:
121,229,127714,1,8,0:0:0:0:
267,142,127885,1,8,0:0:0:0:
291,240,128057,1,8,0:0:0:0:
253,72,128228,1,0,0:0:0:0:
243,234,128314,1,8,0:0:0:0:
243,234,128399,1,0,0:0:0:0:
328,151,128485,1,0,0:0:0:0:
267,142,128571,1,8,0:0:0:0:
171,229,128742,1,8,0:0:0:0:
207,160,128914,1,0,0:0:0:0:
207,160,129085,1,0,0:0:0:0:
149,162,129257,1,8,0:0:0:0:
149,162,129428,1,0,0:0:0:0:
149,162,129599,1,0,0:0:0:0:
92,85,129771,1,0,0:0:0:0:
149,162,129942,1,8,0:0:0:0:
284,86,130114,1,0,0:0:0:0:
256,192,130285,12,0,132685,0:0:0:0:
